<?xml version="1.0" standalone="no"?>
<!DOCTYPE svg PUBLIC "-//W3C//DTD SVG 1.1//EN" "http://www.w3.org/Graphics/SVG/1.1/DTD/svg11.dtd" >
<svg xmlns="http://www.w3.org/2000/svg" xmlns:xlink="http://www.w3.org/1999/xlink" version="1.1">
<metadata>
Created by FontForge 20170731 at Thu Jan 28 23:48:11 2010
 By Aleksey,,,
(c) 2008 Microsoft Corporation. All Rights Reserved.
</metadata>
<defs>
<font id="Calibri-Bold" horiz-adv-x="0" >
  <font-face 
    font-family="Calibri"
    font-weight="700"
    font-stretch="normal"
    units-per-em="2048"
    panose-1="2 15 7 2 3 4 4 3 2 4"
    ascent="1536"
    descent="-512"
    x-height="960"
    cap-height="1294"
    bbox="-1061.08 -590 2540 1989"
    underline-thickness="186"
    underline-position="-458"
    unicode-range="U+0009-FEFF"
  />
<missing-glyph horiz-adv-x="1038" 
d="M987 1294v-1294h-945v1294h945zM879 101v1092h-732v-1092h732zM780 845q0 -57 -16.5 -101t-46 -75t-71 -49t-90.5 -24l-5 -121q-1 -13 -22.5 -18.5t-58.5 -5.5q-23 0 -38.5 1t-25 3.5t-13.5 7t-4 12.5l-8 157q-3 40 12.5 55t45.5 15h13q37 0 62.5 10.5t41.5 28.5
t23.5 42.5t7.5 52.5q0 61 -37.5 98.5t-114.5 37.5q-35 0 -62 -6.5t-47 -14t-33 -14t-18 -6.5q-4 0 -8 2.5t-7 9.5t-4.5 20.5t-1.5 36.5q0 26 2.5 40t10.5 21q7 8 26.5 16.5t46.5 15.5t60 12t68 5q85 0 144.5 -21t96.5 -57t54 -84.5t17 -102.5zM574 284q0 -26 -5 -44.5
t-17 -30t-31.5 -16.5t-47.5 -5q-29 0 -48.5 5t-31.5 16.5t-17 30t-5 44.5q0 28 5 46.5t17 30.5t31.5 17t48.5 5q28 0 47.5 -5t31.5 -17t17 -30.5t5 -46.5zM0 -397z" />
    <glyph glyph-name="uniFB00" unicode="ff" horiz-adv-x="1230" 
d="M1247 1268q0 -48 -6.5 -68t-21.5 -20q-7 0 -15.5 3t-21 7t-28.5 7t-37 3q-58 0 -83.5 -36t-25.5 -119v-85h163q9 0 16.5 -5t13 -16.5t8 -31.5t2.5 -49q0 -55 -10.5 -78.5t-28.5 -23.5h-164v-722q0 -10 -6 -17.5t-20 -12.5t-38.5 -7.5t-60.5 -2.5q-37 0 -61.5 2.5
t-38.5 7.5t-20 12.5t-6 17.5v722h-331v-722q0 -10 -6 -17.5t-20.5 -12.5t-39 -7.5t-60.5 -2.5t-60.5 2.5t-39 7.5t-20 12.5t-5.5 17.5v722h-112q-19 0 -28.5 23.5t-9.5 78.5q0 29 2.5 49t7 31.5t12 16.5t17.5 5h111v66q0 90 18.5 158t57 113.5t97 68.5t138.5 23
q44 0 79 -7.5t60 -16.5q12 -4 19 -10.5t11.5 -19t6.5 -32t2 -48.5q0 -49 -6.5 -69t-21.5 -20q-7 0 -16 3l-21 7t-28.5 7.5t-36.5 3.5q-58 0 -83 -36.5t-25 -119.5v-71h331v79q0 91 19 159t57.5 113.5t97 68t139.5 22.5q43 0 78.5 -7t60.5 -16q11 -4 18.5 -11t11.5 -19t6 -32
t2 -49z" />
    <glyph glyph-name="uniFB01" unicode="fi" horiz-adv-x="1135" 
d="M1027 1226q0 -37 -6.5 -62.5t-22.5 -41t-43.5 -22t-68.5 -6.5t-69 6.5t-44.5 22t-23 41t-6.5 62.5q0 36 6.5 61t23 41t44.5 23t69 7t68.5 -7t43.5 -23t22.5 -41t6.5 -61zM1008 34q0 -10 -6 -17.5t-20 -12.5t-38.5 -7.5t-60.5 -2.5q-37 0 -61.5 2.5t-38.5 7.5t-20 12.5
t-6 17.5v722h-331v-722q0 -10 -6 -17.5t-20 -12.5t-38.5 -7.5t-61.5 -2.5q-36 0 -60.5 2.5t-39 7.5t-20 12.5t-5.5 17.5v722h-112q-19 0 -28.5 23.5t-9.5 78.5q0 29 2.5 49t7 31.5t12 16.5t17.5 5h111v79q0 91 18.5 159t56.5 113.5t96 68t137 22.5q22 0 44.5 -2t42.5 -6
t35 -9t20.5 -10.5t9 -12.5t6 -18t3.5 -28.5t1 -43.5q0 -48 -5.5 -67.5t-21.5 -19.5q-6 0 -13.5 2t-18 5t-24.5 5.5t-35 2.5q-53 0 -77 -36t-24 -119v-85h506q38 0 57 -16.5t19 -52.5v-857z" />
    <glyph glyph-name="uniFB02" unicode="fl" horiz-adv-x="1135" 
d="M1008 34q0 -10 -6 -17.5t-20 -12.5t-38.5 -7.5t-60.5 -2.5q-37 0 -61.5 2.5t-38.5 7.5t-20 12.5t-6 17.5v1158q-3 -6 -8.5 -9t-13.5 -3q-11 0 -29 4t-40 7.5t-43.5 5t-42.5 1.5q-45 0 -75 -9t-47.5 -27.5t-24.5 -48.5t-7 -71v-82h148q10 0 17.5 -5t12.5 -16.5t7.5 -31.5
t2.5 -49q0 -55 -10 -78.5t-29 -23.5h-149v-722q0 -10 -6 -17.5t-20 -12.5t-38.5 -7.5t-61.5 -2.5q-36 0 -60.5 2.5t-39 7.5t-20 12.5t-5.5 17.5v722h-112q-19 0 -28.5 23.5t-9.5 78.5q0 29 2.5 49t7 31.5t12 16.5t17.5 5h111v77q0 90 20 158.5t63.5 114t110 68t160.5 22.5
q27 0 57.5 -2t59.5 -5.5t50 -8t33 -9t19 -10.5t10 -15q1 9 5.5 16t17 13t37 9.5t65.5 3.5q36 0 60.5 -3t38.5 -8.5t20 -13.5t6 -18v-1315z" />
    <glyph glyph-name="uniFB03" unicode="ffi" horiz-adv-x="1718" 
d="M1611 1226q0 -37 -6.5 -62.5t-23 -41t-44 -22t-69.5 -6.5q-41 0 -68.5 6.5t-44 22t-23.5 41t-7 62.5q0 36 7 61t23.5 41t44 23t68.5 7q42 0 69.5 -7t44 -23t23 -41t6.5 -61zM1592 34q0 -10 -6 -17.5t-20.5 -12.5t-38.5 -7.5t-61 -2.5t-61 2.5t-38.5 7.5t-20.5 12.5
t-6 17.5v722h-332v-722q0 -10 -6 -17.5t-20 -12.5t-38.5 -7.5t-60.5 -2.5q-37 0 -61.5 2.5t-38.5 7.5t-20 12.5t-6 17.5v722h-331v-722q0 -10 -6 -17.5t-20 -12.5t-39 -7.5t-61 -2.5t-60.5 2.5t-39 7.5t-20 12.5t-5.5 17.5v722h-112q-19 0 -28.5 23.5t-9.5 78.5q0 29 2.5 49
t7 31.5t12 16.5t17.5 5h111v66q0 90 18.5 158t57 113.5t97 68.5t138.5 23q44 0 78.5 -7t53.5 -14t26 -13.5t11.5 -19t6.5 -32t2 -48.5q0 -49 -6.5 -69t-21.5 -20q-7 0 -16 3t-21.5 7t-29 7.5t-36.5 3.5q-57 0 -82 -36.5t-25 -119.5v-71h331v79q0 91 19 159t57 113.5t96 68
t137 22.5q21 0 44.5 -2t43 -6t34.5 -9t20.5 -10.5t9 -12.5t6 -18t3.5 -28.5t1 -43.5q0 -48 -5.5 -67.5t-21.5 -19.5q-6 0 -13.5 2t-18 5t-25 5.5t-34.5 2.5q-54 0 -78 -36t-24 -119v-85h507q38 0 57.5 -16.5t19.5 -52.5v-857z" />
    <glyph glyph-name="uniFB04" unicode="ffl" horiz-adv-x="1718" 
d="M1592 34q0 -10 -6 -17.5t-20.5 -12.5t-38.5 -7.5t-61 -2.5t-61 2.5t-38.5 7.5t-20.5 12.5t-6 17.5v1161q-4 -6 -9 -9.5t-14 -3.5q-10 0 -28 4t-40 7.5t-43.5 5t-42.5 1.5q-45 0 -75 -8.5t-47.5 -27.5t-25 -48.5t-7.5 -70.5v-85h149q10 0 17 -5t12.5 -16.5t8 -31.5
t2.5 -49q0 -55 -10.5 -78.5t-28.5 -23.5h-150v-722q0 -10 -6 -17.5t-20 -12.5t-38.5 -7.5t-60.5 -2.5q-37 0 -61.5 2.5t-38.5 7.5t-20 12.5t-6 17.5v722h-331v-722q0 -10 -6 -17.5t-20 -12.5t-39 -7.5t-61 -2.5t-60.5 2.5t-39 7.5t-20 12.5t-5.5 17.5v722h-112
q-19 0 -28.5 23.5t-9.5 78.5q0 29 2.5 49t7 31.5t12 16.5t17.5 5h111v66q0 90 18.5 158t57 113.5t97 68.5t138.5 23q44 0 79 -7.5t53.5 -14t25.5 -13t11.5 -19t6.5 -32t2 -48.5q0 -49 -6.5 -69t-21.5 -20q-7 0 -16 3l-21 7t-28.5 7.5t-36.5 3.5q-58 0 -83 -36.5t-25 -119.5
v-71h331v79q0 91 20.5 159t64 113.5t110 68t160.5 22.5q27 0 58 -2t59 -5.5t49.5 -8t33.5 -8.5t18.5 -10.5t10.5 -17.5q1 9 5 16t17.5 13t38 9.5t64.5 3.5q37 0 61 -3t38.5 -8.5t20.5 -13.5t6 -18v-1315z" />
    <glyph glyph-name="f_b.liga" unicode="fb" horiz-adv-x="1730" 
d="M1655 492q0 -119 -25.5 -214t-75 -162t-121 -103t-162.5 -36q-45 0 -83.5 8.5t-74.5 27.5t-70 48t-70 70v-97q0 -11 -6 -18.5t-18.5 -12.5t-33.5 -7t-51 -2q-31 0 -51.5 2t-33 7t-17.5 12.5t-5 18.5v1158q-4 -6 -10 -9t-13 -3q-10 0 -28.5 4t-39 7.5t-42.5 5t-44 1.5
q-45 0 -75 -9t-47.5 -27.5t-24.5 -48.5t-7 -71v-82h148q10 0 17.5 -5t12.5 -16.5t7.5 -31.5t2.5 -49q0 -55 -10 -78.5t-29 -23.5h-149v-722q0 -10 -6 -17.5t-20.5 -12.5t-39 -7.5t-60.5 -2.5t-60.5 2.5t-39 7.5t-20 12.5t-5.5 17.5v722h-112q-19 0 -28.5 23.5t-9.5 78.5
q0 29 2.5 49t7 31.5t12 16.5t17.5 5h111v77q0 90 20 158.5t63.5 114t110 68t160.5 22.5q27 0 58 -2t59 -5.5t49.5 -8t33.5 -9t19 -10.5t10 -15q1 9 5.5 16t17 13t37 9.5t65.5 3.5q36 0 60.5 -3t38.5 -8.5t20 -13.5t6 -18v-493q36 34 69.5 58t68 39.5t70.5 22.5t76 7
q98 0 167 -39.5t112.5 -106.5t63.5 -156.5t20 -188.5zM1394 474q0 57 -8.5 110t-29 94t-54.5 65.5t-84 24.5q-25 0 -49.5 -7t-49.5 -24t-52.5 -44t-58.5 -67v-296q54 -68 102.5 -103.5t101.5 -35.5q49 0 83.5 25t56.5 65t32 91t10 102z" />
    <glyph glyph-name="f_f_b.liga" unicode="ffb" horiz-adv-x="2313" 
d="M1976 474q0 57 -8.5 110t-29 94t-54 65.5t-84.5 24.5q-25 0 -49 -7t-49.5 -24t-52.5 -44t-57 -67v-296q52 -68 101 -103.5t102 -35.5q48 0 82.5 25t56.5 65t32 91t10 102zM757 960v79q0 91 20.5 159t64 113.5t110 68t160.5 22.5q27 0 58 -2t58.5 -5.5t49.5 -8t34 -8.5
t18.5 -10.5t10.5 -17.5q1 9 5 16t17.5 13t38 9.5t64.5 3.5q37 0 61 -3t38.5 -8.5t20.5 -13.5t6 -18v-493q34 34 68 58t68 39.5t70 22.5t76 7q98 0 167.5 -39.5t113 -106.5t63.5 -156.5t20 -188.5q0 -119 -26 -214t-75 -162t-120.5 -103t-162.5 -36q-45 0 -84 8.5t-74.5 27.5
t-70 48t-70.5 70v-98q0 -11 -5.5 -18.5t-18 -12t-33.5 -6.5t-52 -2q-30 0 -50.5 2t-33 6.5t-17.5 12t-5 18.5v1162q-4 -6 -10 -9.5t-13 -3.5q-10 0 -29 4t-39 7.5t-42 5t-44 1.5q-45 0 -75 -8.5t-47.5 -27.5t-25 -48.5t-7.5 -70.5v-85h149q10 0 17 -5t12.5 -16.5t8 -31.5
t2.5 -49q0 -55 -10.5 -78.5t-28.5 -23.5h-150v-722q0 -10 -6 -17.5t-20 -12.5t-38.5 -7.5t-60.5 -2.5q-37 0 -61.5 2.5t-38.5 7.5t-20 12.5t-6 17.5v722h-331v-722q0 -10 -6 -17.5t-20 -12.5t-38.5 -7.5t-61.5 -2.5q-36 0 -60.5 2.5t-39 7.5t-20 12.5t-5.5 17.5v722h-112
q-19 0 -28.5 23.5t-9.5 78.5q0 29 2.5 49t7 31.5t12 16.5t17.5 5h111v66q0 90 18.5 158t57 113.5t97 68.5t138.5 23q44 0 79 -7.5t60 -16.5q12 -4 19 -10.5t11.5 -19t6.5 -32t2 -48.5q0 -49 -6.5 -69t-21.5 -20q-7 0 -16 3l-21 7t-28.5 7.5t-36.5 3.5q-58 0 -83 -36.5
t-25 -119.5v-71h331z" />
    <glyph glyph-name="f_h.liga" unicode="fh" horiz-adv-x="1730" 
d="M1609 34q0 -10 -6 -17.5t-20 -12.5t-38.5 -7.5t-60.5 -2.5q-37 0 -61 2.5t-39 7.5t-20.5 12.5t-5.5 17.5v509q0 65 -9 102t-27.5 63.5t-46.5 41t-66 14.5q-49 0 -97.5 -35t-103.5 -102v-593q0 -10 -6 -17.5t-20 -12.5t-38.5 -7.5t-60.5 -2.5q-37 0 -61.5 2.5t-38.5 7.5
t-20 12.5t-6 17.5v1158q-4 -6 -10 -9t-13 -3q-10 0 -28.5 4t-39 7.5t-42 5t-44.5 1.5q-45 0 -75 -9t-47.5 -27.5t-24.5 -48.5t-7 -71v-82h148q10 0 17.5 -5t12.5 -16.5t7.5 -31.5t2.5 -49q0 -55 -10 -78.5t-29 -23.5h-149v-722q0 -10 -6 -17.5t-20 -12.5t-38.5 -7.5
t-61.5 -2.5q-36 0 -60.5 2.5t-39 7.5t-20 12.5t-5.5 17.5v722h-112q-19 0 -28.5 23.5t-9.5 78.5q0 29 2.5 49t7 31.5t12 16.5t17.5 5h111v77q0 90 20 158.5t63.5 114t110 68t160.5 22.5q27 0 58 -2t59 -5.5t49.5 -8t33.5 -9t19 -10.5t10 -15q1 9 5.5 16t17 13t37 9.5
t65.5 3.5q36 0 60.5 -3t38.5 -8.5t20 -13.5t6 -18v-493q66 64 133.5 95.5t140.5 31.5q92 0 154 -30t100.5 -82t55.5 -121.5t17 -168.5v-547z" />
    <glyph glyph-name="f_f_h.liga" unicode="ffh" horiz-adv-x="2313" 
d="M757 1039q0 91 20.5 159t64 113.5t110 68t160.5 22.5q27 0 58 -2t58.5 -5.5t49.5 -8t34 -8.5t18.5 -10.5t10.5 -17.5q1 9 5 16t17.5 13t38 9.5t64.5 3.5q37 0 61 -3t38.5 -8.5t20.5 -13.5t6 -18v-493q65 64 132.5 95.5t140.5 31.5q91 0 153.5 -30t101 -82t55.5 -121.5
t17 -168.5v-547q0 -10 -6 -17.5t-20.5 -12.5t-38.5 -7.5t-60 -2.5q-37 0 -61.5 2.5t-38.5 7.5t-20 12.5t-6 17.5v509q0 65 -9 102t-27.5 63.5t-47 41t-66.5 14.5q-48 0 -97 -35t-102 -102v-593q0 -10 -6 -17.5t-20.5 -12.5t-38.5 -7.5t-61 -2.5t-61 2.5t-38.5 7.5
t-20.5 12.5t-6 17.5v1161q-4 -6 -10 -9.5t-13 -3.5q-9 0 -26.5 4t-39.5 7.5t-44 5t-44 1.5q-45 0 -75 -8.5t-47.5 -27.5t-25 -48.5t-7.5 -70.5v-85h149q10 0 17 -5t12.5 -16.5t8 -31.5t2.5 -49q0 -55 -10.5 -78.5t-28.5 -23.5h-150v-722q0 -10 -6 -17.5t-20 -12.5
t-38.5 -7.5t-60.5 -2.5q-37 0 -61.5 2.5t-38.5 7.5t-20 12.5t-6 17.5v722h-331v-722q0 -10 -6 -17.5t-20 -12.5t-39 -7.5t-61 -2.5t-60.5 2.5t-39 7.5t-20 12.5t-5.5 17.5v722h-112q-19 0 -28.5 23.5t-9.5 78.5q0 29 2.5 49t7 31.5t12 16.5t17.5 5h111v66q0 90 18.5 158
t57 113.5t97 68.5t138.5 23q44 0 79 -7.5t60 -16.5q12 -4 19 -10.5t11.5 -19t6.5 -32t2 -48.5q0 -49 -6.5 -69t-21.5 -20q-7 0 -16 3l-21 7t-28.5 7.5t-36.5 3.5q-58 0 -83 -36.5t-25 -119.5v-71h331v79z" />
    <glyph glyph-name="f_igrave.liga" unicode="f&#xec;" horiz-adv-x="1135" 
d="M1008 34q0 -10 -6 -17.5t-20 -12.5t-38.5 -7.5t-60.5 -2.5q-37 0 -61.5 2.5t-38.5 7.5t-20 12.5t-6 17.5v722h-331v-722q0 -10 -6 -17.5t-20 -12.5t-39 -7.5t-61 -2.5t-60.5 2.5t-39 7.5t-20 12.5t-5.5 17.5v722h-112q-19 0 -28.5 23.5t-9.5 78.5q0 29 2.5 49t7 31.5
t12 16.5t17.5 5h111v86q0 87 18.5 153t56 110.5t94.5 67.5t133 23q28 0 55.5 -4t45.5 -10.5t25.5 -13.5t11.5 -20t5.5 -32.5t1.5 -48.5q0 -48 -6 -67.5t-21 -19.5q-6 0 -12.5 2t-15.5 4.5t-21.5 5t-28.5 2.5q-46 0 -68.5 -34.5t-22.5 -111.5v-92h506q38 0 57 -16.5t19 -52.5
v-857zM1001 1131q5 -14 5 -24t-9.5 -16.5t-30.5 -9.5t-56 -3q-29 0 -47 2t-29.5 6t-18 10.5t-12.5 16.5l-141 232q-7 11 -5.5 21t14.5 17.5t40.5 12t73.5 4.5q34 0 55.5 -2t35 -6.5t20.5 -12.5t11 -20z" />
    <glyph glyph-name="f_iacute.liga" unicode="f&#xed;" horiz-adv-x="1135" 
d="M1008 34q0 -10 -6 -17.5t-20 -12.5t-38.5 -7.5t-60.5 -2.5q-37 0 -61.5 2.5t-38.5 7.5t-20 12.5t-6 17.5v722h-331v-722q0 -10 -6 -17.5t-20 -12.5t-38.5 -7.5t-61.5 -2.5q-36 0 -60.5 2.5t-39 7.5t-20 12.5t-5.5 17.5v722h-112q-19 0 -28.5 23.5t-9.5 78.5q0 29 2.5 49
t7 31.5t12 16.5t17.5 5h111v77q0 90 18.5 158t57 113.5t97 68.5t137.5 23q40 0 75.5 -6.5t53.5 -14t25 -14t11 -19t5.5 -32t1.5 -48.5q0 -49 -5.5 -68.5t-21.5 -19.5q-6 0 -15 3t-21 6.5t-27.5 7t-35.5 3.5q-56 0 -80.5 -36.5t-24.5 -119.5v-82h506q38 0 57 -16.5t19 -52.5
v-857zM913 1361q7 11 17 19t25 12.5t38 6.5t56 2q46 0 72.5 -4t38 -11.5t10.5 -17.5t-10 -21l-194 -232q-8 -10 -16 -16.5t-20.5 -10.5t-31.5 -6t-48 -2q-35 0 -55.5 3t-28.5 9.5t-6.5 16.5t10.5 23zM657 957z" />
    <glyph glyph-name="f_icircumflex.liga" unicode="f&#xee;" horiz-adv-x="1135" 
d="M1008 34q0 -10 -6 -17.5t-20 -12.5t-38.5 -7.5t-60.5 -2.5q-37 0 -61.5 2.5t-38.5 7.5t-20 12.5t-6 17.5v722h-331v-722q0 -10 -6 -17.5t-20 -12.5t-38.5 -7.5t-61.5 -2.5q-36 0 -60.5 2.5t-39 7.5t-20 12.5t-5.5 17.5v722h-112q-19 0 -28.5 23.5t-9.5 78.5q0 29 2.5 49
t7 31.5t12 16.5t17.5 5h111v86q0 87 18.5 153t56 110.5t94.5 67.5t133 23q28 0 56 -4.5t45 -10.5t24 -12.5t11 -18t5.5 -30t1.5 -47.5q0 -48 -6 -68t-21 -20q-6 0 -12.5 2t-15.5 5t-21.5 5t-28.5 2q-46 0 -67.5 -34.5t-21.5 -111.5v-97h506q38 0 57 -16.5t19 -52.5v-857z
M812 1112q-6 -12 -12.5 -19t-18 -10.5t-30.5 -4.5t-48 -1q-33 0 -52 3t-25 11t-1.5 23t17.5 38l132 214q5 10 14 16t23.5 9.5t36.5 5t53 1.5q32 0 53.5 -2t36 -6t23.5 -10t16 -14l138 -223q12 -20 16 -33t-3.5 -20.5t-27.5 -10t-55 -2.5q-31 0 -50.5 1t-31 4.5t-17 10.5
t-11.5 19l-88 149z" />
    <glyph glyph-name="f_itilde.liga" unicode="f&#x129;" horiz-adv-x="1153" 
d="M1027 34q0 -10 -6 -17.5t-20 -12.5t-38.5 -7.5t-61.5 -2.5q-36 0 -60.5 2.5t-38.5 7.5t-20 12.5t-6 17.5v722h-350v-722q0 -10 -6 -17.5t-20 -12.5t-39 -7.5t-61 -2.5t-60.5 2.5t-39 7.5t-20 12.5t-5.5 17.5v722h-112q-19 0 -28.5 23.5t-9.5 78.5q0 29 2.5 49t7 31.5
t12 16.5t17.5 5h111v102q0 82 18 145.5t54.5 106t91.5 64.5t128 22q15 0 30 -1t29 -3t26 -5.5t20.5 -7t14 -9t8.5 -16.5t4.5 -29.5t1.5 -47.5q0 -49 -5 -73t-18 -24q-5 0 -10.5 1.5t-13.5 4t-18.5 4t-26.5 1.5q-43 0 -63 -33t-20 -110v-92h525q38 0 57 -16.5t19 -52.5v-857z
M1201 1308q0 -61 -13 -107t-37.5 -78t-60 -48.5t-79.5 -16.5q-48 0 -81.5 17.5t-57.5 39t-43 39t-39 17.5q-25 0 -36 -23.5t-11 -60.5q0 -18 -15.5 -23.5t-57.5 -5.5q-35 0 -52.5 7.5t-17.5 33.5q0 117 49 183.5t141 66.5q31 0 55.5 -8.5t45 -21t37 -27t31 -27.5t27 -21.5
t24.5 -8.5q24 0 35.5 22t11.5 63q0 17 16.5 23t54.5 6t55.5 -8t17.5 -33z" />
    <glyph glyph-name="f_idieresis.liga" unicode="f&#xef;" horiz-adv-x="1153" 
d="M1027 34q0 -10 -6 -17.5t-20 -12.5t-38.5 -7.5t-60.5 -2.5q-37 0 -61.5 2.5t-38.5 7.5t-20 12.5t-6 17.5v722h-350v-722q0 -10 -6 -17.5t-20 -12.5t-39 -7.5t-61 -2.5t-60.5 2.5t-39 7.5t-20 12.5t-5.5 17.5v722h-112q-19 0 -28.5 23.5t-9.5 78.5q0 29 2.5 49t7 31.5
t12 16.5t17.5 5h111v102q0 82 18 145.5t54.5 106t91.5 64.5t128 22q15 0 30 -1t29 -3t26 -5.5t20.5 -7t14 -9t8.5 -16.5t4.5 -29.5t1.5 -47.5q0 -49 -5 -73t-18 -24q-5 0 -10.5 1.5t-13.5 4t-18.5 4t-26.5 1.5q-43 0 -63 -33t-20 -110v-92h525q38 0 57 -16.5t19 -52.5v-857z
M642 1226q0 37 6 61t20 37.5t36.5 18.5t54.5 5t54 -5t36 -18.5t20 -37.5t6 -61t-6 -61.5t-20 -38.5t-36 -19.5t-54 -5.5t-54.5 5.5t-36.5 19.5t-20 38.5t-6 61.5zM950 1226q0 37 6 61t20 37.5t36.5 18.5t54.5 5t54.5 -5t36 -18.5t19.5 -37.5t6 -61t-6 -61.5t-19.5 -38.5
t-36 -19.5t-54.5 -5.5t-54.5 5.5t-36.5 19.5t-20 38.5t-6 61.5z" />
    <glyph glyph-name="f_imacron.liga" unicode="f&#x12b;" horiz-adv-x="1153" 
d="M1027 34q0 -10 -6 -17.5t-20 -12.5t-38.5 -7.5t-61.5 -2.5q-36 0 -60.5 2.5t-38.5 7.5t-20 12.5t-6 17.5v722h-350v-722q0 -10 -6 -17.5t-20 -12.5t-39 -7.5t-61 -2.5t-60.5 2.5t-39 7.5t-20 12.5t-5.5 17.5v722h-112q-19 0 -28.5 23.5t-9.5 78.5q0 29 2.5 49t7 31.5
t12 16.5t17.5 5h111v102q0 82 18 145.5t54.5 106t91.5 64.5t128 22q15 0 30 -1t29 -3t26 -5.5t20.5 -7t14 -9t8.5 -16.5t4.5 -29.5t1.5 -47.5q0 -49 -5 -73t-18 -24q-5 0 -10.5 1.5t-13.5 4t-18.5 4t-26.5 1.5q-43 0 -63.5 -33t-19.5 -110v-92h525q38 0 57 -16.5t19 -52.5
v-857zM1128 1323q11 0 19 -4.5t13 -15.5t7 -28.5t2 -43.5t-2 -43t-7 -28t-13 -15.5t-19 -4.5h-450q-12 0 -20.5 4.5t-13.5 15.5t-7 28t-2 43q0 25 2 43t7 28.5t13.5 15.5t20.5 5h450z" />
    <glyph glyph-name="f_ibreve.liga" unicode="f&#x12d;" horiz-adv-x="1153" 
d="M1027 34q0 -10 -6 -17.5t-20 -12.5t-38.5 -7.5t-60.5 -2.5q-37 0 -61.5 2.5t-38.5 7.5t-20 12.5t-6 17.5v722h-350v-722q0 -10 -6 -17.5t-20 -12.5t-38.5 -7.5t-61.5 -2.5q-36 0 -60.5 2.5t-39 7.5t-20 12.5t-5.5 17.5v722h-112q-19 0 -28.5 23.5t-9.5 78.5q0 29 2.5 49
t7 31.5t12 16.5t17.5 5h111v102q0 82 18 145.5t54.5 106t91.5 64.5t128 22q15 0 30 -1t29 -3t26 -5.5t20.5 -7t14 -9t8.5 -16.5t4.5 -29.5t1.5 -47.5q0 -49 -5 -73t-18 -24q-5 0 -10.5 1.5t-13.5 4t-18.5 4t-26.5 1.5q-43 0 -63 -33t-20 -110v-92h525q38 0 57 -16.5
t19 -52.5v-857zM1011 1346q2 20 20.5 30t60.5 10q49 0 65.5 -7.5t16.5 -28.5q0 -67 -15.5 -118.5t-48.5 -87t-84 -54.5t-122 -19q-75 0 -127 18.5t-83.5 54.5t-46 87t-14.5 117q0 20 16 29t61 9q24 0 40.5 -2t26.5 -7t14 -12.5t5 -18.5q2 -27 8.5 -48.5t19 -37t32 -23.5
t48.5 -8q25 0 44 7t32.5 21.5t21 36.5t9.5 52z" />
    <glyph glyph-name="f_iogonek.liga" unicode="f&#x12f;" horiz-adv-x="1135" 
d="M1027 1226q0 -37 -6.5 -62.5t-22.5 -41t-43.5 -22t-68.5 -6.5t-69 6.5t-44.5 22t-23 41t-6.5 62.5q0 36 6.5 61t23 41t44.5 23t69 7t68.5 -7t43.5 -23t22.5 -41t6.5 -61zM1008 35q0 -18 -7.5 -33.5t-18.5 -26.5l-58 -59q-13 -12 -21 -22.5t-13 -19t-7 -16.5t-2 -17
q0 -21 15 -31t47 -10h83q10 0 17 -2.5t11 -9t6 -18.5t2 -30q0 -21 -2 -35t-6.5 -23.5t-12 -14.5t-18.5 -8q-35 -12 -75.5 -18t-94.5 -6q-49 0 -88.5 10t-67.5 30.5t-43 51t-15 71.5q0 21 3.5 40.5t12 38.5t23 38.5t36.5 41.5l43 43v756h-331v-722q0 -10 -6 -17.5t-20 -12.5
t-38.5 -7.5t-61.5 -2.5q-36 0 -60.5 2.5t-39 7.5t-20 12.5t-5.5 17.5v722h-112q-19 0 -28.5 23.5t-9.5 78.5q0 29 2.5 49t7 31.5t12 16.5t17.5 5h111v79q0 91 18.5 159t56.5 113.5t96 68t137 22.5q22 0 44.5 -2t42.5 -6t35 -9t20.5 -10.5t9 -12.5t6 -18t3.5 -28.5t1 -43.5
q0 -48 -5.5 -67.5t-21.5 -19.5q-6 0 -13.5 2t-18 5t-24.5 5.5t-35 2.5q-53 0 -77.5 -36t-23.5 -119v-85h506q38 0 57 -16.5t19 -52.5v-856z" />
    <glyph glyph-name="f_dotlessi.liga" unicode="f&#x131;" horiz-adv-x="1135" 
d="M1008 34q0 -10 -6 -17.5t-20 -12.5t-38.5 -7.5t-60.5 -2.5q-37 0 -61.5 2.5t-38.5 7.5t-20 12.5t-6 17.5v722h-331v-722q0 -10 -6 -17.5t-20 -12.5t-38.5 -7.5t-61.5 -2.5q-36 0 -60.5 2.5t-39 7.5t-20 12.5t-5.5 17.5v722h-112q-19 0 -28.5 23.5t-9.5 78.5q0 29 2.5 49
t7 31.5t12 16.5t17.5 5h111v77q0 90 18.5 158t57 113.5t97 68.5t137.5 23q40 0 75.5 -6.5t53.5 -14t25 -14t11 -19t5.5 -32t1.5 -48.5q0 -49 -5.5 -68.5t-21.5 -19.5q-6 0 -15 3t-21 6.5t-27.5 7t-35.5 3.5q-56 0 -80.5 -36.5t-24.5 -119.5v-82h506q38 0 57 -16.5t19 -52.5
v-857z" />
    <glyph glyph-name="f_f_igrave.liga" unicode="ff&#xec;" horiz-adv-x="1718" 
d="M1592 34q0 -10 -6 -17.5t-20.5 -12.5t-38.5 -7.5t-61 -2.5t-61 2.5t-38.5 7.5t-20.5 12.5t-6 17.5v722h-332v-722q0 -10 -6 -17.5t-20 -12.5t-38.5 -7.5t-60.5 -2.5q-37 0 -61.5 2.5t-38.5 7.5t-20 12.5t-6 17.5v722h-331v-722q0 -10 -6 -17.5t-20 -12.5t-39 -7.5
t-61 -2.5t-60.5 2.5t-39 7.5t-20 12.5t-5.5 17.5v722h-112q-19 0 -28.5 23.5t-9.5 78.5q0 29 2.5 49t7 31.5t12 16.5t17.5 5h111v66q0 90 18.5 158t57 113.5t97 68.5t138.5 23q44 0 79 -7t53.5 -14t25.5 -13.5t11.5 -19t6.5 -32t2 -48.5q0 -49 -6.5 -69t-21.5 -20
q-7 0 -16 3l-21 7t-28.5 7.5t-36.5 3.5q-58 0 -83 -36.5t-25 -119.5v-71h331v89q0 87 18.5 153t56.5 110.5t94.5 67t133.5 22.5q28 0 58 -4.5t45.5 -10t22.5 -12.5t11 -20t6 -32.5t2 -48.5q0 -48 -6 -67.5t-21 -19.5q-6 0 -12.5 2t-16 4.5t-21.5 4.5t-28 2q-46 0 -69 -34.5
t-23 -111.5v-94h507q38 0 57.5 -16.5t19.5 -52.5v-857zM1584 1131q5 -14 5 -24t-9.5 -16.5t-30.5 -9.5t-55 -3q-29 0 -48 2t-30 6t-17.5 10.5t-11.5 16.5l-142 232q-7 11 -6 21t14.5 17.5t41 12t73.5 4.5q33 0 55 -2t35.5 -6.5t20.5 -12.5t11 -20z" />
    <glyph glyph-name="f_f_iacute.liga" unicode="ff&#xed;" horiz-adv-x="1718" 
d="M1592 34q0 -10 -6 -17.5t-20.5 -12.5t-38.5 -7.5t-61 -2.5t-61 2.5t-38.5 7.5t-20.5 12.5t-6 17.5v722h-332v-722q0 -10 -6 -17.5t-20 -12.5t-38.5 -7.5t-60.5 -2.5q-37 0 -61.5 2.5t-38.5 7.5t-20 12.5t-6 17.5v722h-331v-722q0 -10 -6 -17.5t-20 -12.5t-38.5 -7.5
t-61.5 -2.5q-36 0 -60.5 2.5t-39 7.5t-20 12.5t-5.5 17.5v722h-112q-19 0 -28.5 23.5t-9.5 78.5q0 29 2.5 49t7 31.5t12 16.5t17.5 5h111v66q0 90 18.5 158t57 113.5t97 68.5t138.5 23q43 0 78.5 -7t54 -14t25.5 -13.5t11.5 -19t6.5 -32t2 -48.5q0 -49 -6.5 -69t-21.5 -20
q-7 0 -16 3l-21 7t-28.5 7.5t-36.5 3.5q-58 0 -83 -36.5t-25 -119.5v-71h331v79q0 91 19 159t57.5 113.5t97 68t138.5 22.5q42 0 77.5 -7t51.5 -13.5t23.5 -13.5t11.5 -19.5t5.5 -32t1.5 -48.5q0 -48 -5.5 -67.5t-21.5 -19.5q-6 0 -14.5 3t-21 6.5t-28 6.5t-35.5 3
q-56 0 -81 -36t-25 -119v-85h507q38 0 57.5 -16.5t19.5 -52.5v-857zM1496 1361q7 11 17 19t25 12.5t38 6.5t56 2q46 0 72.5 -4t38 -11.5t10.5 -17.5t-10 -21l-194 -232q-8 -10 -16 -16.5t-20.5 -10.5t-31.5 -6t-48 -2q-35 0 -55.5 3t-28.5 9.5t-6.5 16.5t10.5 23zM1240 957z
" />
    <glyph glyph-name="f_f_icircumflex.liga" unicode="ff&#xee;" horiz-adv-x="1718" 
d="M1592 34q0 -10 -6 -17.5t-20.5 -12.5t-38.5 -7.5t-61 -2.5t-61 2.5t-38.5 7.5t-20.5 12.5t-6 17.5v722h-332v-722q0 -10 -6 -17.5t-20 -12.5t-38.5 -7.5t-60.5 -2.5q-37 0 -61.5 2.5t-38.5 7.5t-20 12.5t-6 17.5v722h-331v-722q0 -10 -6 -17.5t-20 -12.5t-39 -7.5
t-61 -2.5t-60.5 2.5t-39 7.5t-20 12.5t-5.5 17.5v722h-112q-19 0 -28.5 23.5t-9.5 78.5q0 29 2.5 49t7 31.5t12 16.5t17.5 5h111v66q0 90 18.5 158t57 113.5t97 68.5t138.5 23q44 0 79 -7.5t53.5 -14t25.5 -13t11.5 -19t6.5 -32t2 -48.5q0 -49 -6.5 -69t-21.5 -20
q-7 0 -16 3l-21 7t-28.5 7.5t-36.5 3.5q-58 0 -83 -36.5t-25 -119.5v-71h331v89q0 87 18.5 153t56.5 110.5t94.5 67t133.5 22.5q28 0 58 -4.5t45 -10t22 -12t11 -18t5.5 -30.5t1.5 -48q0 -48 -5.5 -67.5t-21.5 -19.5q-6 0 -12.5 2t-16 4.5t-21.5 5t-28 2.5q-46 0 -68 -34.5
t-22 -111.5v-100h507q38 0 57.5 -16.5t19.5 -52.5v-857zM1395 1112q-6 -12 -12.5 -19t-18.5 -10.5t-30.5 -4.5t-47.5 -1q-34 0 -52 3t-24.5 11t-2 23t17.5 38l131 214q5 10 14 16t24 9.5t37 5t54 1.5q31 0 52.5 -2t36 -6t23.5 -10t15 -14l139 -223q11 -20 15 -33t-3 -20.5
t-26.5 -10t-54.5 -2.5q-33 0 -52 1t-30.5 4.5t-17 10.5t-11.5 19l-88 149z" />
    <glyph glyph-name="f_f_itilde.liga" unicode="ff&#x129;" horiz-adv-x="1736" 
d="M1610 34q0 -10 -6 -17.5t-20.5 -12.5t-38.5 -7.5t-61 -2.5t-61 2.5t-38 7.5t-20 12.5t-6 17.5v722h-351v-722q0 -10 -6 -17.5t-20 -12.5t-38.5 -7.5t-60.5 -2.5q-37 0 -61.5 2.5t-38.5 7.5t-20 12.5t-6 17.5v722h-331v-722q0 -10 -6 -17.5t-20 -12.5t-38.5 -7.5
t-61.5 -2.5q-36 0 -60.5 2.5t-39 7.5t-20 12.5t-5.5 17.5v722h-112q-19 0 -28.5 23.5t-9.5 78.5q0 29 2.5 49t7 31.5t12 16.5t17.5 5h111v66q0 90 18.5 158t57 113.5t97 68.5t138.5 23q44 0 79 -7.5t53.5 -14t25.5 -13t11.5 -19t6.5 -32t2 -48.5q0 -49 -6.5 -69t-21.5 -20
q-7 0 -16 3l-21 7t-28.5 7.5t-36.5 3.5q-58 0 -83 -36.5t-25 -119.5v-71h331v105q0 82 18 145t54.5 105.5t91.5 64.5t129 22q29 0 58 -4t42.5 -9.5t19 -11t8.5 -16.5t4 -30t1 -48q0 -48 -4.5 -72t-17.5 -24q-5 0 -10.5 1.5t-13.5 4t-18.5 4t-26.5 1.5q-43 0 -63.5 -33.5
t-20.5 -110.5v-94h525q38 0 57.5 -16.5t19.5 -52.5v-857zM1784 1308q0 -61 -13 -107t-37.5 -78t-60 -48.5t-79.5 -16.5q-49 0 -82 17.5t-57.5 39t-43 39t-38.5 17.5q-25 0 -35.5 -23.5t-10.5 -60.5q0 -18 -16 -23.5t-57 -5.5q-37 0 -54 7.5t-17 33.5q0 117 49 183.5
t141 66.5q31 0 55.5 -8.5t45 -21t37 -27t30.5 -27.5t26.5 -21.5t25.5 -8.5q23 0 35 22t12 63q0 17 16 23t55 6q38 0 55.5 -8t17.5 -33z" />
    <glyph glyph-name="f_f_idieresis.liga" unicode="ff&#xef;" horiz-adv-x="1736" 
d="M1610 34q0 -10 -6 -17.5t-20.5 -12.5t-38.5 -7.5t-61 -2.5t-61 2.5t-38 7.5t-20 12.5t-6 17.5v722h-351v-722q0 -10 -6 -17.5t-20 -12.5t-38.5 -7.5t-60.5 -2.5q-37 0 -61.5 2.5t-38.5 7.5t-20 12.5t-6 17.5v722h-331v-722q0 -10 -6 -17.5t-20 -12.5t-38.5 -7.5
t-61.5 -2.5q-36 0 -60.5 2.5t-39 7.5t-20 12.5t-5.5 17.5v722h-112q-19 0 -28.5 23.5t-9.5 78.5q0 29 2.5 49t7 31.5t12 16.5t17.5 5h111v66q0 90 18.5 158t57 113.5t97 68.5t138.5 23q44 0 79 -7.5t53.5 -14t25.5 -13t11.5 -19t6.5 -32t2 -48.5q0 -49 -6.5 -69t-21.5 -20
q-7 0 -16 3l-21 7t-28.5 7.5t-36.5 3.5q-58 0 -83 -36.5t-25 -119.5v-71h331v105q0 82 18 145t54.5 105.5t91.5 64.5t129 22q29 0 59 -4t42.5 -9.5t18 -11t8.5 -16.5t4 -30t1 -48q0 -48 -4.5 -72t-17.5 -24q-5 0 -10.5 1.5t-13.5 4t-18.5 4t-26.5 1.5q-43 0 -63.5 -34
t-20.5 -110v-94h525q38 0 57.5 -16.5t19.5 -52.5v-857zM1225 1226q0 37 6 61t20 37.5t36.5 18.5t54.5 5t54.5 -5t36 -18.5t19.5 -37.5t6 -61t-6 -61.5t-19.5 -38.5t-36 -19.5t-54.5 -5.5t-54.5 5.5t-36.5 19.5t-20 38.5t-6 61.5zM1533 1226q0 37 6.5 61t20 37.5t36 18.5
t54.5 5t54 -5t36 -18.5t20.5 -37.5t6.5 -61t-6.5 -61.5t-20.5 -38.5t-36 -19.5t-54 -5.5t-54.5 5.5t-36 19.5t-20 38.5t-6.5 61.5z" />
    <glyph glyph-name="f_f_imacron.liga" unicode="ff&#x12b;" horiz-adv-x="1736" 
d="M1610 34q0 -10 -6 -17.5t-20.5 -12.5t-38.5 -7.5t-61 -2.5t-61 2.5t-38 7.5t-20 12.5t-6 17.5v722h-351v-722q0 -10 -6 -17.5t-20 -12.5t-38.5 -7.5t-60.5 -2.5q-37 0 -61.5 2.5t-38.5 7.5t-20 12.5t-6 17.5v722h-331v-722q0 -10 -6 -17.5t-20 -12.5t-38.5 -7.5
t-61.5 -2.5q-36 0 -60.5 2.5t-39 7.5t-20 12.5t-5.5 17.5v722h-112q-19 0 -28.5 23.5t-9.5 78.5q0 29 2.5 49t7 31.5t12 16.5t17.5 5h111v66q0 90 18.5 158t57 113.5t97 68.5t138.5 23q44 0 79 -7.5t53.5 -14t25.5 -13t11.5 -19t6.5 -32t2 -48.5q0 -49 -6.5 -69t-21.5 -20
q-7 0 -16 3l-21 7t-28.5 7.5t-36.5 3.5q-58 0 -83 -36.5t-25 -119.5v-71h331v105q0 82 18 145t54.5 105.5t91.5 64.5t129 22q29 0 59 -4t42.5 -9.5t18 -11t8.5 -16.5t4 -30t1 -48q0 -48 -4.5 -72t-17.5 -24q-5 0 -10.5 1.5t-13.5 4t-18.5 4t-26.5 1.5q-43 0 -63.5 -33.5
t-20.5 -110.5v-94h525q38 0 57.5 -16.5t19.5 -52.5v-857zM1712 1323q11 0 18.5 -4.5t12.5 -15.5t7 -28.5t2 -43.5t-2 -43t-7 -28t-12.5 -15.5t-18.5 -4.5h-450q-13 0 -21.5 4.5t-13.5 15.5t-7 28t-2 43q0 50 9.5 71t34.5 21h450z" />
    <glyph glyph-name="f_f_ibreve.liga" unicode="ff&#x12d;" horiz-adv-x="1736" 
d="M1610 34q0 -10 -6 -17.5t-20.5 -12.5t-38.5 -7.5t-61 -2.5t-61 2.5t-38 7.5t-20 12.5t-6 17.5v722h-351v-722q0 -10 -6 -17.5t-20 -12.5t-38.5 -7.5t-60.5 -2.5q-37 0 -61.5 2.5t-38.5 7.5t-20 12.5t-6 17.5v722h-331v-722q0 -10 -6 -17.5t-20 -12.5t-38.5 -7.5
t-61.5 -2.5q-36 0 -60.5 2.5t-39 7.5t-20 12.5t-5.5 17.5v722h-112q-19 0 -28.5 23.5t-9.5 78.5q0 29 2.5 49t7 31.5t12 16.5t17.5 5h111v66q0 90 18.5 158t57 113.5t97 68.5t138.5 23q44 0 79 -7.5t53.5 -14t25.5 -13t11.5 -19t6.5 -32t2 -48.5q0 -49 -6.5 -69t-21.5 -20
q-7 0 -16 3l-21 7t-28.5 7.5t-36.5 3.5q-58 0 -83 -36.5t-25 -119.5v-71h331v105q0 82 18 145t54.5 105.5t91.5 64.5t129 22q29 0 59 -4t42.5 -9.5t18 -11t8.5 -16.5t4 -30t1 -48q0 -48 -4.5 -72t-17.5 -24q-5 0 -10.5 1.5t-13.5 4t-18.5 4t-26.5 1.5q-43 0 -63.5 -33.5
t-20.5 -110.5v-94h525q38 0 57.5 -16.5t19.5 -52.5v-857zM1594 1346q2 20 20.5 30t60.5 10q25 0 41 -2t24.5 -6t12 -11t3.5 -17q0 -67 -15.5 -118.5t-48.5 -87t-83.5 -54.5t-122.5 -19q-75 0 -126.5 18.5t-83.5 54.5t-46 87t-14 117q0 10 3.5 17.5t12.5 12t24 6.5t37 2
q49 0 67 -9t19 -31q2 -27 8.5 -48.5t19 -37t32 -23.5t47.5 -8q51 0 77.5 28.5t30.5 88.5z" />
    <glyph glyph-name="f_f_iogonek.liga" unicode="ff&#x12f;" horiz-adv-x="1718" 
d="M1611 1226q0 -37 -6.5 -62.5t-23 -41t-44 -22t-69.5 -6.5q-41 0 -68.5 6.5t-44 22t-23.5 41t-7 62.5q0 36 7 61t23.5 41t44 23t68.5 7q42 0 69.5 -7t44 -23t23 -41t6.5 -61zM1644 -260q0 -21 -2 -35t-6 -23.5t-11.5 -14.5t-18.5 -8q-35 -12 -75 -18t-95 -6
q-49 0 -88.5 10t-67.5 30.5t-43.5 51t-15.5 71.5q0 21 4 40.5t12.5 38.5t23.5 38.5t37 41.5l42 43v756h-332v-722q0 -10 -6 -17.5t-20 -12.5t-38.5 -7.5t-60.5 -2.5q-37 0 -61.5 2.5t-38.5 7.5t-20 12.5t-6 17.5v722h-331v-722q0 -10 -6 -17.5t-20 -12.5t-38.5 -7.5
t-61.5 -2.5q-36 0 -60.5 2.5t-39 7.5t-20 12.5t-5.5 17.5v722h-112q-19 0 -28.5 23.5t-9.5 78.5q0 29 2.5 49t7 31.5t12 16.5t17.5 5h111v66q0 90 18.5 158t57 113.5t97 68.5t138.5 23q44 0 79 -7.5t53.5 -14t25.5 -13t11.5 -19t6.5 -32t2 -48.5q0 -49 -6.5 -69t-21.5 -20
q-7 0 -16 3l-21 7t-28.5 7.5t-36.5 3.5q-58 0 -83 -36.5t-25 -119.5v-71h331v79q0 91 19 159t57 113.5t96 68t137 22.5q21 0 44.5 -2t43 -6t34.5 -9t20.5 -10.5t9 -12.5t6 -18t3.5 -28.5t1 -43.5q0 -48 -5.5 -67.5t-21.5 -19.5q-6 0 -13.5 2t-18 5t-25 5.5t-34.5 2.5
q-54 0 -78 -36t-24 -119v-85h507q38 0 57.5 -16.5t19.5 -52.5v-856q0 -13 -8 -31t-19 -29l-59 -59q-25 -25 -33.5 -42t-8.5 -33q0 -41 62 -41h83q10 0 17 -2.5t11 -9t5.5 -18.5t1.5 -30z" />
    <glyph glyph-name="f_f_dotlessi.liga" unicode="ff&#x131;" horiz-adv-x="1718" 
d="M1592 34q0 -10 -6 -17.5t-20.5 -12.5t-38.5 -7.5t-61 -2.5t-61 2.5t-38.5 7.5t-20.5 12.5t-6 17.5v722h-332v-722q0 -10 -6 -17.5t-20 -12.5t-38.5 -7.5t-60.5 -2.5q-37 0 -61.5 2.5t-38.5 7.5t-20 12.5t-6 17.5v722h-331v-722q0 -10 -6 -17.5t-20 -12.5t-38.5 -7.5
t-61.5 -2.5q-36 0 -60.5 2.5t-39 7.5t-20 12.5t-5.5 17.5v722h-112q-19 0 -28.5 23.5t-9.5 78.5q0 29 2.5 49t7 31.5t12 16.5t17.5 5h111v66q0 90 18.5 158t57 113.5t97 68.5t138.5 23q43 0 78.5 -7t54 -14t25.5 -13.5t11.5 -19t6.5 -32t2 -48.5q0 -49 -6.5 -69t-21.5 -20
q-7 0 -16 3l-21 7t-28.5 7.5t-36.5 3.5q-58 0 -83 -36.5t-25 -119.5v-71h331v79q0 91 19 159t57.5 113.5t97 68t138.5 22.5q42 0 77.5 -7t51.5 -13.5t23.5 -13.5t11.5 -19.5t5.5 -32t1.5 -48.5q0 -48 -5.5 -67.5t-21.5 -19.5q-6 0 -14.5 3t-21 6.5t-28 6.5t-35.5 3
q-56 0 -81 -36t-25 -119v-85h507q38 0 57.5 -16.5t19.5 -52.5v-857z" />
    <glyph glyph-name="f_j.liga" unicode="fj" horiz-adv-x="1135" 
d="M1027 1226q0 -37 -6.5 -62.5t-22.5 -41t-43.5 -22t-68.5 -6.5t-69 6.5t-44.5 22t-23 41t-6.5 62.5q0 36 6.5 61t23 41t44.5 23t69 7t68.5 -7t43.5 -23t22.5 -41t6.5 -61zM1008 0q0 -99 -15 -162.5t-49.5 -108.5t-92 -69.5t-142.5 -24.5q-22 0 -44.5 2t-42 6.5t-34 10
t-20.5 11t-9.5 13t-6 18.5t-3.5 25.5t-1 37.5q0 28 2 47.5t5.5 31t9 16t12.5 4.5q8 0 19.5 -4t27 -7.5t39.5 -3.5q21 0 39 7.5t30 24.5t18.5 44.5t6.5 89.5v747h-331v-722q0 -10 -6 -17.5t-20 -12.5t-38.5 -7.5t-61.5 -2.5q-36 0 -60.5 2.5t-39 7.5t-20 12.5t-5.5 17.5v722
h-112q-19 0 -28.5 23.5t-9.5 78.5q0 29 2.5 49t7 31.5t12 16.5t17.5 5h111v79q0 91 18.5 159t56.5 113.5t96 68t137 22.5q22 0 44.5 -2t42.5 -6t35 -9t20.5 -10.5t9 -12.5t6 -18t3.5 -28.5t1 -43.5q0 -48 -5.5 -67.5t-21.5 -19.5q-6 0 -13.5 2t-18 5t-24.5 5.5t-35 2.5
q-53 0 -77 -36t-24 -119v-85h506q38 0 57 -16.5t19 -52.5v-891z" />
    <glyph glyph-name="f_jcircumflex.liga" unicode="f&#x135;" horiz-adv-x="1135" 
d="M1008 -20q0 -79 -15 -142.5t-49.5 -108.5t-92 -69.5t-142.5 -24.5q-22 0 -44.5 2t-42 6.5t-34 10t-20.5 11t-9.5 13t-6 18.5t-3.5 26t-1 37q0 28 2 47.5t5.5 31t9 16t12.5 4.5q8 0 22 -4.5t28.5 -7.5t35.5 -3t39 7.5t30 24.5t18.5 44.5t6.5 69.5v767h-331v-722
q0 -10 -6 -17.5t-20 -12.5t-39 -7.5t-61 -2.5t-60.5 2.5t-39 7.5t-20 12.5t-5.5 17.5v722h-112q-19 0 -28.5 23.5t-9.5 78.5q0 29 2.5 49t7 31.5t12 16.5t17.5 5h111v86q0 87 18.5 153t56 110.5t94.5 67.5t133 23q28 0 57 -4.5t45 -10.5t23 -12.5t11 -18t5.5 -30t1.5 -47.5
q0 -48 -6 -68t-21 -20q-6 0 -12.5 2t-15.5 5t-21.5 5t-28.5 2q-46 0 -67.5 -34.5t-21.5 -111.5v-97h506q38 0 57 -16.5t19 -52.5v-911zM812 1112q-6 -12 -12.5 -19t-18 -10.5t-30.5 -4.5t-48 -1q-33 0 -52 3t-25 11t-1.5 23t17.5 38l132 214q5 10 14 16t23.5 9.5t36.5 5
t53 1.5q32 0 53.5 -2t36 -6t23.5 -10t16 -14l138 -223q12 -20 16 -33t-3.5 -20.5t-27.5 -10t-55 -2.5q-31 0 -50.5 1t-31 4.5t-17 10.5t-11.5 19l-88 149z" />
    <glyph glyph-name="f_f_j.liga" unicode="ffj" horiz-adv-x="1718" 
d="M1611 1226q0 -37 -6.5 -62.5t-23 -41t-44 -22t-69.5 -6.5q-41 0 -68.5 6.5t-44 22t-23.5 41t-7 62.5q0 36 7 61t23.5 41t44 23t68.5 7q42 0 69.5 -7t44 -23t23 -41t6.5 -61zM757 1039q0 91 19 159t57 113.5t96 68t137 22.5q22 0 45.5 -2t43 -6t34 -9t20 -10.5t9 -12.5
t6 -18t3.5 -28.5t1 -43.5q0 -48 -6 -67.5t-21 -19.5q-7 0 -14 2l-17.5 5t-24.5 5.5t-34 2.5q-54 0 -78.5 -36t-24.5 -119v-85h507q38 0 57.5 -16.5t19.5 -52.5v-911q0 -79 -15.5 -142.5t-50.5 -108.5t-92.5 -69.5t-140.5 -24.5q-24 0 -46 2t-42 6.5t-34.5 10t-20.5 11
t-9.5 13t-5.5 18.5t-3 26t-1 37q0 28 1.5 47.5t5.5 31t9.5 16t12.5 4.5t14 -2.5t16.5 -5t22.5 -5t33 -2.5q21 0 38.5 7.5t30 24.5t19 44.5t6.5 69.5v767h-332v-722q0 -10 -6 -17.5t-20 -12.5t-38.5 -7.5t-60.5 -2.5q-37 0 -61.5 2.5t-38.5 7.5t-20 12.5t-6 17.5v722h-331
v-722q0 -10 -6 -17.5t-20 -12.5t-38.5 -7.5t-61.5 -2.5q-36 0 -60.5 2.5t-39 7t-20 12t-5.5 17.5v723h-112q-19 0 -28.5 23.5t-9.5 78.5q0 29 2.5 49t7 31.5t12 16.5t17.5 5h111v66q0 90 18.5 158t57 113.5t97 68.5t138.5 23q44 0 79 -7.5t53.5 -14t25.5 -13t11.5 -19
t6.5 -32t2 -48.5q0 -49 -6.5 -69t-21.5 -20q-7 0 -16 3l-21 7t-28.5 7.5t-36.5 3.5q-58 0 -83 -36.5t-25 -119.5v-71h331v79z" />
    <glyph glyph-name="f_k.liga" unicode="fk" horiz-adv-x="1613" 
d="M883 1392q36 0 60.5 -3t38.5 -8.5t20 -13.5t6 -18v-783l266 355q7 12 17 21t26 14t41 7.5t62 2.5q38 0 63.5 -2.5t41 -7.5t22 -12.5t6.5 -18.5q0 -15 -8.5 -32t-22.5 -36l-262 -296l303 -467q11 -20 17 -34.5t6 -26.5q0 -11 -5.5 -18t-20 -12t-39.5 -7t-65 -2t-66 2
t-42.5 6.5t-25.5 12.5t-16 21l-298 470v-472q0 -10 -6 -17.5t-20 -12.5t-38.5 -7.5t-60.5 -2.5q-37 0 -61.5 2.5t-38.5 7.5t-20 12.5t-6 17.5v1158q-3 -6 -8.5 -9t-13.5 -3q-11 0 -29 4t-40 7.5t-43.5 5t-42.5 1.5q-45 0 -75 -9t-47.5 -27.5t-24.5 -48.5t-7 -71v-82h148
q10 0 17.5 -5t12.5 -16.5t7.5 -31.5t2.5 -49q0 -55 -10 -78.5t-29 -23.5h-149v-722q0 -10 -6 -17.5t-20 -12.5t-39 -7.5t-61 -2.5t-60.5 2.5t-39 7.5t-20 12.5t-5.5 17.5v722h-112q-19 0 -28.5 23.5t-9.5 78.5q0 29 2.5 49t7 31.5t12 16.5t17.5 5h111v77q0 90 20 158.5
t63.5 114t110 68t160.5 22.5q27 0 57.5 -2t59.5 -5.5t50 -8t33 -9t19 -10.5t10 -15q1 9 5.5 16t17 13t37 9.5t65.5 3.5z" />
    <glyph glyph-name="f_f_k.liga" unicode="ffk" horiz-adv-x="2197" 
d="M2169 33q0 -11 -5.5 -18t-20 -12t-39.5 -7t-65 -2q-41 0 -66.5 2t-42 6.5t-26 12.5t-15.5 21l-297 470v-472q0 -10 -6 -17.5t-20.5 -12.5t-38.5 -7.5t-61 -2.5t-61 2.5t-38.5 7.5t-20.5 12.5t-6 17.5v1161q-3 -6 -8.5 -9.5t-13.5 -3.5q-10 0 -28.5 4t-40.5 7.5t-43.5 5
t-42.5 1.5q-45 0 -75 -8.5t-47.5 -27.5t-25 -48.5t-7.5 -70.5v-85h149q10 0 17 -5t12.5 -16.5t8 -31.5t2.5 -49q0 -55 -10.5 -78.5t-28.5 -23.5h-150v-722q0 -10 -6 -17.5t-20 -12.5t-38.5 -7.5t-60.5 -2.5q-37 0 -61.5 2.5t-38.5 7.5t-20 12.5t-6 17.5v722h-331v-722
q0 -10 -6 -17.5t-20 -12.5t-39 -7.5t-61 -2.5t-60.5 2.5t-39 7.5t-20 12.5t-5.5 17.5v722h-112q-19 0 -28.5 23.5t-9.5 78.5q0 29 2.5 49t7 31.5t12 16.5t17.5 5h111v66q0 90 18.5 158t57 113.5t97 68.5t138.5 23q44 0 79 -7.5t53.5 -14t25.5 -13t11.5 -19t6.5 -32t2 -48.5
q0 -49 -6.5 -69t-21.5 -20q-7 0 -16 3l-21 7t-28.5 7.5t-36.5 3.5q-58 0 -83 -36.5t-25 -119.5v-71h331v77q0 90 20.5 159t64 114.5t110 68.5t160.5 23q27 0 58 -2t59.5 -5.5t49.5 -8t33 -8.5t19 -10t10 -18q1 9 5.5 16t17.5 13t37.5 9.5t64.5 3.5q37 0 61 -3t38.5 -8.5
t20.5 -13.5t6 -18v-783l264 355q8 12 18 21t26 14t41 7.5t63 2.5q37 0 62.5 -2.5t40.5 -7.5t21.5 -12.5t6.5 -18.5q0 -15 -7.5 -32t-22.5 -36l-262 -296l303 -467q12 -20 17.5 -34.5t5.5 -26.5z" />
    <glyph glyph-name="f_lacute.liga" unicode="f&#x13a;" horiz-adv-x="1135" 
d="M1008 34q0 -10 -6 -17.5t-20 -12.5t-38.5 -7.5t-60.5 -2.5q-37 0 -61.5 2.5t-38.5 7.5t-20 12.5t-6 17.5v1158q-3 -6 -8.5 -9t-13.5 -3q-11 0 -29 4t-40 7.5t-43.5 5t-42.5 1.5q-45 0 -75 -9t-47.5 -27.5t-24.5 -48.5t-7 -71v-82h148q10 0 17.5 -5t12.5 -16.5t7.5 -31.5
t2.5 -49q0 -55 -10 -78.5t-29 -23.5h-149v-722q0 -10 -6 -17.5t-20 -12.5t-38.5 -7.5t-61.5 -2.5q-36 0 -60.5 2.5t-39 7.5t-20 12.5t-5.5 17.5v722h-112q-19 0 -28.5 23.5t-9.5 78.5q0 29 2.5 49t7 31.5t12 16.5t17.5 5h111v77q0 90 20 158.5t63.5 114t110 68t160.5 22.5
q27 0 57.5 -2t59.5 -5.5t50 -8t33 -9t19 -10.5t10 -15q1 9 5.5 16t17 13t37 9.5t65.5 3.5q36 0 60.5 -3t38.5 -8.5t20 -13.5t6 -18v-1315zM978 1712q13 15 25.5 24t30 14t42.5 6.5t62 1.5q46 0 71.5 -6t35 -15.5t4.5 -21.5t-19 -25l-222 -200q-10 -9 -20.5 -15.5t-25.5 -11
t-36 -6.5t-52 -2q-34 0 -54.5 3t-29 9.5t-6.5 16.5t14 24zM681 1363z" />
    <glyph glyph-name="f_lcaron.liga" unicode="f&#x13e;" horiz-adv-x="1258" 
d="M1008 34q0 -10 -6 -17.5t-20 -12.5t-38.5 -7.5t-60.5 -2.5q-37 0 -61.5 2.5t-38.5 7.5t-20 12.5t-6 17.5v1158q-3 -6 -8.5 -9t-13.5 -3q-11 0 -29 4t-40 7.5t-43.5 5t-42.5 1.5q-45 0 -75 -9t-47.5 -27.5t-24.5 -48.5t-7 -71v-82h148q10 0 17.5 -5t12.5 -16.5t7.5 -31.5
t2.5 -49q0 -55 -10 -78.5t-29 -23.5h-149v-722q0 -10 -6 -17.5t-20 -12.5t-38.5 -7.5t-61.5 -2.5q-36 0 -60.5 2.5t-39 7.5t-20 12.5t-5.5 17.5v722h-112q-19 0 -28.5 23.5t-9.5 78.5q0 29 2.5 49t7 31.5t12 16.5t17.5 5h111v77q0 90 20 158.5t63.5 114t110 68t160.5 22.5
q27 0 57.5 -2t59.5 -5.5t50 -8t33 -9t19 -10.5t10 -15q1 9 5.5 16t17 13t37 9.5t65.5 3.5q36 0 60.5 -3t38.5 -8.5t20 -13.5t6 -18v-1315zM1141 1355q3 12 10.5 20.5t21.5 14.5t36 9t55 3q36 0 57.5 -3.5t31.5 -9.5t10.5 -15.5t-3.5 -21.5l-124 -314q-4 -11 -11 -17.5
t-20 -10t-32 -5t-48 -1.5q-23 0 -36.5 2.5t-20 7.5t-7.5 14t2 22zM958 988z" />
    <glyph glyph-name="f_uni013C.liga" unicode="f&#x13c;" horiz-adv-x="1135" 
d="M1008 34q0 -10 -6 -17.5t-20 -12.5t-38.5 -7.5t-60.5 -2.5q-37 0 -61.5 2.5t-38.5 7.5t-20 12.5t-6 17.5v1158q-3 -6 -8.5 -9t-13.5 -3q-11 0 -29 4t-40 7.5t-43.5 5t-42.5 1.5q-45 0 -75 -9t-47.5 -27.5t-24.5 -48.5t-7 -71v-82h148q10 0 17.5 -5t12.5 -16.5t7.5 -31.5
t2.5 -49q0 -55 -10 -78.5t-29 -23.5h-149v-722q0 -10 -6 -17.5t-20 -12.5t-38.5 -7.5t-61.5 -2.5q-36 0 -60.5 2.5t-39 7.5t-20 12.5t-5.5 17.5v722h-112q-19 0 -28.5 23.5t-9.5 78.5q0 29 2.5 49t7 31.5t12 16.5t17.5 5h111v77q0 90 20 158.5t63.5 114t110 68t160.5 22.5
q27 0 57.5 -2t59.5 -5.5t50 -8t33 -9t19 -10.5t10 -15q1 9 5.5 16t17 13t37 9.5t65.5 3.5q36 0 60.5 -3t38.5 -8.5t20 -13.5t6 -18v-1315zM754 -123q3 11 11 19.5t23.5 13.5t41 7t65.5 2t63 -4t33.5 -11.5t10 -18.5t-7.5 -25l-98 -190q-5 -10 -12 -16.5t-19.5 -11t-33 -6
t-52.5 -1.5t-50.5 2.5t-27 9t-8.5 16.5t4 24z" />
    <glyph glyph-name="f_t.liga" unicode="ft" horiz-adv-x="1302" 
d="M426 756v-722q0 -10 -6 -17.5t-20 -12.5t-39 -7.5t-61 -2.5t-60.5 2.5t-39 7.5t-20 12.5t-5.5 17.5v722h-112q-19 0 -28.5 23.5t-9.5 78.5q0 29 2.5 49t7 31.5t12 16.5t17.5 5h111v75q0 91 18 159.5t56 114t97 68.5t140 23q39 0 76.5 -7t55 -14t24.5 -13.5t11 -19
t5.5 -32t1.5 -48.5t-2 -46.5t-6 -27t-9 -13t-11 -3.5t-14.5 3.5t-21 7.5t-29 7.5t-39.5 3.5q-27 0 -46.5 -8.5t-32 -27t-19 -48t-6.5 -72.5v-82h338v199q0 10 6 18t20 13.5t38.5 8t60.5 2.5q37 0 61 -2.5t38.5 -8t20.5 -13.5t6 -18v-199h194q10 0 17.5 -5t12.5 -16.5
t7.5 -31.5t2.5 -49q0 -55 -10 -78.5t-29 -23.5h-195v-419q0 -73 22.5 -109.5t82.5 -36.5q20 0 36 3.5t28 8t21 8t16 3.5q6 0 11 -3.5t8.5 -14t6 -28.5t2.5 -46q0 -44 -5.5 -68t-15 -33t-26.5 -16.5t-40.5 -13t-50.5 -8.5t-55 -3q-76 0 -131 19t-91 58.5t-53 99.5t-17 142
v457h-336z" />
    <glyph glyph-name="f_uni021B.liga" unicode="f&#x21b;" horiz-adv-x="1302" 
d="M426 756v-722q0 -10 -6 -17.5t-20 -12.5t-39 -7.5t-61 -2.5t-60.5 2.5t-39 7.5t-20 12.5t-5.5 17.5v722h-112q-19 0 -28.5 23.5t-9.5 78.5q0 29 2.5 49t7 31.5t12 16.5t17.5 5h111v75q0 91 18 159.5t56 114t97 68.5t140 23q39 0 76.5 -7t55 -14t24.5 -13.5t11 -19
t5.5 -32t1.5 -48.5t-2 -46.5t-6 -27t-9 -13t-11 -3.5t-14.5 3.5t-21 7.5t-29 7.5t-39.5 3.5q-27 0 -46.5 -8.5t-32 -27t-19 -48t-6.5 -72.5v-82h338v199q0 10 6 18t20 13.5t38.5 8t60.5 2.5q37 0 61 -2.5t38.5 -8t20.5 -13.5t6 -18v-199h194q10 0 17.5 -5t12.5 -16.5
t7.5 -31.5t2.5 -49q0 -55 -10 -78.5t-29 -23.5h-195v-419q0 -73 22.5 -109.5t82.5 -36.5q20 0 36 3.5t28 8t21 8t16 3.5q6 0 11 -3.5t8.5 -14t6 -28.5t2.5 -46q0 -44 -5.5 -68t-15 -33t-26.5 -16.5t-40.5 -13t-50.5 -8.5t-55 -3q-76 0 -131 19t-91 58.5t-53 99.5t-17 142
v457h-336zM871 -123q3 11 11 19.5t23.5 13.5t41 7t65.5 2t63 -4t33.5 -11.5t10 -18.5t-7.5 -25l-98 -190q-5 -10 -12 -16.5t-19.5 -11t-33 -6t-52.5 -1.5t-50.5 2.5t-27 9t-8.5 16.5t4 24z" />
    <glyph glyph-name="f_tcaron.liga" unicode="f&#x165;" horiz-adv-x="1349" 
d="M426 756v-722q0 -10 -6 -17.5t-20 -12.5t-39 -7.5t-61 -2.5t-60.5 2.5t-39 7.5t-20 12.5t-5.5 17.5v722h-112q-19 0 -28.5 23.5t-9.5 78.5q0 29 2.5 49t7 31.5t12 16.5t17.5 5h111v75q0 91 18 159.5t56 114t97 68.5t140 23q39 0 76.5 -7t55 -14t24.5 -13.5t11 -19
t5.5 -32t1.5 -48.5t-2 -46.5t-6 -27t-9 -13t-11 -3.5t-14.5 3.5t-21 7.5t-29 7.5t-39.5 3.5q-27 0 -46.5 -8.5t-32 -27t-19 -48t-6.5 -72.5v-82h338v199q0 10 6 18t20 13.5t38.5 8t60.5 2.5q37 0 61 -2.5t38.5 -8t20.5 -13.5t6 -18v-199h194q10 0 17.5 -5t12.5 -16.5
t7.5 -31.5t2.5 -49q0 -55 -10 -78.5t-29 -23.5h-195v-419q0 -73 22.5 -109.5t82.5 -36.5q20 0 36 3.5t28 8t21 8t16 3.5q6 0 11 -3.5t8.5 -14t6 -28.5t2.5 -46q0 -44 -5.5 -68t-15 -33t-26.5 -16.5t-40.5 -13t-50.5 -8.5t-55 -3q-76 0 -131 19t-91 58.5t-53 99.5t-17 142
v457h-336zM1191 1475q3 12 10.5 20.5t21.5 14.5t36 9t55 3q36 0 57.5 -3.5t31.5 -9.5t10.5 -15.5t-3.5 -21.5l-124 -314q-4 -11 -11 -17.5t-20 -10t-32 -5t-48 -1.5q-23 0 -36.5 2.5t-20 7.5t-7.5 14t2 22zM1008 1108z" />
    <glyph glyph-name="f_f_t.liga" unicode="fft" horiz-adv-x="1886" 
d="M1830 122q0 -44 -5.5 -68t-15 -33t-26.5 -16.5t-40.5 -13t-51 -8.5t-55.5 -3q-75 0 -130 19t-91 58.5t-53 99.5t-17 142v457h-337v-722q0 -10 -6 -17.5t-20 -12.5t-38.5 -7.5t-60.5 -2.5q-37 0 -61.5 2.5t-38.5 7.5t-20 12.5t-6 17.5v722h-331v-722q0 -10 -6 -17.5
t-20 -12.5t-39 -7.5t-61 -2.5t-60.5 2.5t-39 7.5t-20 12.5t-5.5 17.5v722h-112q-19 0 -28.5 23.5t-9.5 78.5q0 29 2.5 49t7 31.5t12 16.5t17.5 5h111v64q0 91 18 159.5t56.5 114t98 68.5t140.5 23q41 0 77 -7.5t54 -14t25 -13t11.5 -19t6.5 -32t2 -48.5t-2 -46.5t-6 -27
t-9 -13t-11 -3.5q-7 0 -15.5 3.5t-21 7.5t-29.5 7.5t-40 3.5q-27 0 -46.5 -8.5t-32.5 -27t-19 -48t-6 -72.5v-71h331v77q0 91 18.5 159.5t56.5 114.5t97 68.5t141 22.5q38 0 73 -6.5t54.5 -13.5t26.5 -14t11 -19t5.5 -32t1.5 -49q0 -28 -2 -45.5t-5.5 -27t-9 -12.5t-11.5 -3
t-14.5 3t-20.5 7t-28.5 7t-38.5 3q-28 0 -47.5 -8t-32.5 -26.5t-19 -48.5t-6 -72v-85h338v199q0 10 5.5 18t20 13.5t39 8t60.5 2.5q37 0 61.5 -2.5t38.5 -8t20 -13.5t6 -18v-199h194q10 0 17.5 -5t12.5 -16.5t7.5 -31.5t2.5 -49q0 -55 -10 -78.5t-29 -23.5h-195v-419
q0 -73 22.5 -109.5t82.5 -36.5q20 0 36 3.5t28.5 8t21 8t15.5 3.5q6 0 11 -3.5t9 -14t6 -28.5t2 -46z" />
    <glyph glyph-name="t_f.liga" unicode="tf" horiz-adv-x="1296" 
d="M823 960v75q0 91 18.5 159.5t57 114t97.5 68.5t141 23q38 0 73.5 -6.5t55 -14t27 -14t11.5 -19t6 -32t2 -48.5t-2 -46.5t-6 -27t-8.5 -13t-10.5 -3.5q-7 0 -24.5 6.5t-38 11t-42.5 4.5q-28 0 -48 -8.5t-32.5 -27t-19 -48t-6.5 -72.5v-82h163q9 0 16.5 -5t13 -16.5
t8 -31.5t2.5 -49q0 -55 -10.5 -78.5t-28.5 -23.5h-164v-722q0 -10 -6 -17.5t-20 -12.5t-38.5 -7.5t-61.5 -2.5q-36 0 -60.5 2.5t-39 7.5t-20 12.5t-5.5 17.5v722h-403v-419q0 -73 23 -109.5t82 -36.5q20 0 36 3.5t28.5 8t21 8t15.5 3.5q6 0 11.5 -3.5t8.5 -14t5.5 -28.5
t2.5 -46q0 -44 -5.5 -67.5t-14.5 -33t-26.5 -17t-41 -13t-51 -8.5t-55.5 -3q-75 0 -130 19t-91 58.5t-53 99.5t-17 142v457h-107q-19 0 -29 23.5t-10 78.5q0 29 2.5 49t7.5 31.5t12.5 16.5t17.5 5h106v199q0 10 5.5 18t20 13.5t39 8t60.5 2.5q37 0 61.5 -2.5t38.5 -8
t20 -13.5t6 -18v-199h403z" />
    <glyph glyph-name="t_i.liga" unicode="ti" horiz-adv-x="1199" 
d="M997 960q42 0 58.5 -18t16.5 -52v-856q0 -10 -6 -17.5t-20 -12.5t-38.5 -7.5t-60.5 -2.5q-37 0 -61.5 2.5t-38.5 7.5t-20 12.5t-6 17.5v722h-401v-419q0 -73 23 -109.5t82 -36.5q20 0 36 3.5t28.5 8t21 8t15.5 3.5q6 0 11.5 -3.5t8.5 -14t5.5 -28.5t2.5 -46
q0 -44 -5 -66.5t-14 -33t-27 -18t-41.5 -13t-51 -8.5t-55.5 -3q-75 0 -130 19t-91 58.5t-53 99.5t-17 142v457h-107q-19 0 -29 23.5t-10 78.5q0 29 2.5 49t7.5 31.5t12.5 16.5t17.5 5h106v199q0 10 5.5 18t20 13.5t39 8t60.5 2.5q37 0 61.5 -2.5t38.5 -8t20 -13.5t6 -18
v-199h577zM1092 1228q0 -76 -31 -105t-115 -29q-85 0 -114.5 28t-29.5 101q0 76 30.5 105.5t115.5 29.5q84 0 114 -28.5t30 -101.5zM695 960z" />
    <glyph glyph-name="t_igrave.liga" unicode="t&#xec;" horiz-adv-x="1199" 
d="M997 960q42 0 58.5 -18t16.5 -52v-856q0 -10 -6 -17.5t-20 -12.5t-38.5 -7.5t-60.5 -2.5q-37 0 -61.5 2.5t-38.5 7.5t-20 12.5t-6 17.5v722h-401v-419q0 -73 23 -109.5t82 -36.5q20 0 36 3.5t28.5 8t21 8t15.5 3.5q6 0 11.5 -3.5t8.5 -14t5.5 -28.5t2.5 -46
q0 -44 -5 -66.5t-14 -33t-27 -18t-41.5 -13t-51 -8.5t-55.5 -3q-75 0 -130 19t-91 58.5t-53 99.5t-17 142v457h-107q-19 0 -29 23.5t-10 78.5q0 29 2.5 49t7.5 31.5t12.5 16.5t17.5 5h106v199q0 10 5.5 18t20 13.5t39 8t60.5 2.5q37 0 61.5 -2.5t38.5 -8t20 -13.5t6 -18
v-199h577zM1041 1135q9 -13 11 -23t-6.5 -16.5t-28 -9.5t-54.5 -3q-29 0 -48 2t-32 6t-21.5 10.5t-16.5 16.5l-193 232q-10 11 -11 21t10.5 17.5t38.5 11.5t73 4q33 0 55.5 -2t37.5 -6.5t24.5 -12.5t17.5 -19zM539 960z" />
    <glyph glyph-name="t_iacute.liga" unicode="t&#xed;" horiz-adv-x="1199" 
d="M997 960q42 0 58.5 -18t16.5 -52v-856q0 -10 -6 -17.5t-20 -12.5t-38.5 -7.5t-60.5 -2.5q-37 0 -61.5 2.5t-38.5 7.5t-20 12.5t-6 17.5v722h-401v-419q0 -73 23 -109.5t82 -36.5q20 0 36 3.5t28.5 8t21 8t15.5 3.5q6 0 11.5 -3.5t8.5 -14t5.5 -28.5t2.5 -46
q0 -44 -5 -66.5t-14 -33t-27 -18t-41.5 -13t-51 -8.5t-55.5 -3q-75 0 -130 19t-91 58.5t-53 99.5t-17 142v457h-107q-19 0 -29 23.5t-10 78.5q0 29 2.5 49t7.5 31.5t12.5 16.5t17.5 5h106v199q0 10 5.5 18t20 13.5t39 8t60.5 2.5q37 0 61.5 -2.5t38.5 -8t20 -13.5t6 -18
v-199h577zM975 1364q7 11 17 19t25 12.5t38 6.5t56 2q46 0 72.5 -4t38 -11.5t10.5 -17.5t-10 -21l-194 -232q-8 -10 -16 -16.5t-20.5 -10.5t-31.5 -6t-48 -2q-35 0 -55.5 3t-28.5 9.5t-6.5 16.5t10.5 23zM719 960z" />
    <glyph glyph-name="t_icircumflex.liga" unicode="t&#xee;" horiz-adv-x="1199" 
d="M997 960q42 0 58.5 -18t16.5 -52v-856q0 -10 -6 -17.5t-20 -12.5t-38.5 -7.5t-60.5 -2.5q-37 0 -61.5 2.5t-38.5 7.5t-20 12.5t-6 17.5v722h-401v-419q0 -73 23 -109.5t82 -36.5q20 0 36 3.5t28.5 8t21 8t15.5 3.5q6 0 11.5 -3.5t8.5 -14t5.5 -28.5t2.5 -46
q0 -44 -5 -66.5t-14 -33t-27 -18t-41.5 -13t-51 -8.5t-55.5 -3q-75 0 -130 19t-91 58.5t-53 99.5t-17 142v457h-107q-19 0 -29 23.5t-10 78.5q0 29 2.5 49t7.5 31.5t12.5 16.5t17.5 5h106v199q0 10 5.5 18t20 13.5t39 8t60.5 2.5q37 0 61.5 -2.5t38.5 -8t20 -13.5t6 -18
v-199h577zM828 1118q-7 -11 -14 -18t-19 -10.5t-30.5 -5t-48.5 -1.5q-40 0 -61.5 3.5t-28.5 11t-1.5 20.5t19.5 31l158 223q6 10 15.5 15.5t25 9.5t37.5 5.5t53 1.5q32 0 53.5 -2t36 -6t23.5 -10t16 -14l157 -223q14 -19 19 -31.5t-2 -20t-28.5 -11t-60.5 -3.5
q-32 0 -50.5 1.5t-30 5.5t-17.5 10.5t-13 17.5l-104 150zM521 960z" />
    <glyph glyph-name="t_idieresis.liga" unicode="t&#xef;" horiz-adv-x="1199" 
d="M997 960q42 0 58.5 -18t16.5 -52v-856q0 -10 -6 -17.5t-20 -12.5t-38.5 -7.5t-60.5 -2.5q-37 0 -61.5 2.5t-38.5 7.5t-20 12.5t-6 17.5v722h-401v-419q0 -73 23 -109.5t82 -36.5q20 0 36 3.5t28.5 8t21 8t15.5 3.5q6 0 11.5 -3.5t8.5 -14t5.5 -28.5t2.5 -46
q0 -44 -5 -66.5t-14 -33t-27 -18t-41.5 -13t-51 -8.5t-55.5 -3q-75 0 -130 19t-91 58.5t-53 99.5t-17 142v457h-107q-19 0 -29 23.5t-10 78.5q0 29 2.5 49t7.5 31.5t12.5 16.5t17.5 5h106v199q0 10 5.5 18t20 13.5t39 8t60.5 2.5q37 0 61.5 -2.5t38.5 -8t20 -13.5t6 -18
v-199h577zM893 1227q0 -70 -26 -97.5t-96 -27.5q-71 0 -96 26.5t-25 93.5q0 71 26 98.5t95 27.5q72 0 97 -26.5t25 -94.5zM1229 1227q0 -70 -26 -97.5t-96 -27.5q-71 0 -95.5 26.5t-24.5 93.5q0 71 25.5 98.5t95.5 27.5q71 0 96 -26.5t25 -94.5zM548 960z" />
    <glyph glyph-name="t_imacron.liga" unicode="t&#x12b;" horiz-adv-x="1199" 
d="M997 960q42 0 58.5 -18t16.5 -52v-856q0 -10 -6 -17.5t-20 -12.5t-38.5 -7.5t-60.5 -2.5q-37 0 -61.5 2.5t-38.5 7.5t-20 12.5t-6 17.5v722h-401v-419q0 -73 23 -109.5t82 -36.5q20 0 36 3.5t28.5 8t21 8t15.5 3.5q6 0 11.5 -3.5t8.5 -14t5.5 -28.5t2.5 -46
q0 -44 -5 -66.5t-14 -33t-27 -18t-41.5 -13t-51 -8.5t-55.5 -3q-75 0 -130 19t-91 58.5t-53 99.5t-17 142v457h-107q-19 0 -29 23.5t-10 78.5q0 29 2.5 49t7.5 31.5t12.5 16.5t17.5 5h106v199q0 10 5.5 18t20 13.5t39 8t60.5 2.5q37 0 61.5 -2.5t38.5 -8t20 -13.5t6 -18
v-199h577zM1193 1323q11 0 19 -4.5t12.5 -15.5t7 -28.5t2.5 -43.5t-2.5 -43t-7 -28t-12.5 -15.5t-19 -4.5h-510q-12 0 -20.5 4.5t-13.5 15.5t-7.5 28t-2.5 43q0 25 2.5 43t7.5 28.5t13.5 15.5t20.5 5h510zM537 960z" />
    <glyph glyph-name="t_itilde.liga" unicode="t&#x129;" horiz-adv-x="1199" 
d="M997 960q42 0 58.5 -18t16.5 -52v-856q0 -10 -6 -17.5t-20 -12.5t-38.5 -7.5t-60.5 -2.5q-37 0 -61.5 2.5t-38.5 7.5t-20 12.5t-6 17.5v722h-401v-419q0 -73 23 -109.5t82 -36.5q20 0 36 3.5t28.5 8t21 8t15.5 3.5q6 0 11.5 -3.5t8.5 -14t5.5 -28.5t2.5 -46
q0 -44 -5 -66.5t-14 -33t-27 -18t-41.5 -13t-51 -8.5t-55.5 -3q-75 0 -130 19t-91 58.5t-53 99.5t-17 142v457h-107q-19 0 -29 23.5t-10 78.5q0 29 2.5 49t7.5 31.5t12.5 16.5t17.5 5h106v199q0 10 5.5 18t20 13.5t39 8t60.5 2.5q37 0 61.5 -2.5t38.5 -8t20 -13.5t6 -18
v-199h577zM1283 1336q0 -121 -57.5 -185.5t-159.5 -64.5q-39 0 -69 8t-54 21t-43.5 27.5t-37.5 27t-35.5 21t-37.5 8.5q-33 0 -47 -23.5t-14 -61.5q0 -9 -3.5 -14.5t-12 -8.5t-24 -4t-39.5 -1q-21 0 -35.5 1.5t-23 6t-12.5 12.5t-4 21q0 116 56 182.5t160 66.5
q57 0 96.5 -17.5t70 -39t56.5 -39t54 -17.5q30 0 46 21.5t16 63.5q0 17 15 22.5t61 5.5q45 0 61.5 -7.5t16.5 -32.5zM473 960z" />
    <glyph glyph-name="t_ibreve.liga" unicode="t&#x12d;" horiz-adv-x="1199" 
d="M997 960q42 0 58.5 -18t16.5 -52v-856q0 -10 -6 -17.5t-20 -12.5t-38.5 -7.5t-60.5 -2.5q-37 0 -61.5 2.5t-38.5 7.5t-20 12.5t-6 17.5v722h-401v-419q0 -73 23 -109.5t82 -36.5q20 0 36 3.5t28.5 8t21 8t15.5 3.5q6 0 11.5 -3.5t8.5 -14t5.5 -28.5t2.5 -46
q0 -44 -5 -66.5t-14 -33t-27 -18t-41.5 -13t-51 -8.5t-55.5 -3q-75 0 -130 19t-91 58.5t-53 99.5t-17 142v457h-107q-19 0 -29 23.5t-10 78.5q0 29 2.5 49t7.5 31.5t12.5 16.5t17.5 5h106v199q0 10 5.5 18t20 13.5t39 8t60.5 2.5q37 0 61.5 -2.5t38.5 -8t20 -13.5t6 -18
v-199h577zM1060 1361q2 19 19.5 29t61.5 10q26 0 43 -2t26.5 -6t13 -11t3.5 -16q0 -67 -17.5 -119t-53 -87.5t-91 -54t-130.5 -18.5q-78 0 -133 18.5t-90 54t-51.5 87t-16.5 117.5q0 20 17 28.5t65 8.5q25 0 41.5 -2t26.5 -7t14 -12.5t5 -17.5q3 -27 10 -48.5t21.5 -37
t36.5 -23.5t54 -8q29 0 51 7t38 21.5t25 36t11 52.5zM542 960z" />
    <glyph glyph-name="t_iogonek.liga" unicode="t&#x12f;" horiz-adv-x="1199" 
d="M993 960q45 0 62 -18t17 -57v-850q0 -13 -7.5 -31t-18.5 -29l-58 -59q-13 -12 -21.5 -22.5t-13 -19t-6.5 -16.5t-2 -17q0 -21 15 -31t47 -10h83q10 0 16.5 -2.5t11 -9t6 -18.5t1.5 -30q0 -21 -2 -35t-6 -23.5t-11.5 -14.5t-18.5 -8q-34 -12 -75 -18t-95 -6
q-49 0 -88.5 10t-67.5 30.5t-43 51t-15 71.5q0 21 3.5 40.5t12 38.5t23 38.5t36.5 41.5l43 43v756h-401v-419q0 -73 23 -109.5t82 -36.5q20 0 36 3.5t28.5 8t21 8t15.5 3.5q6 0 11.5 -3.5t8.5 -14t5.5 -28.5t2.5 -46q0 -44 -5 -67t-14 -33t-27 -17.5t-41.5 -13t-51 -8.5
t-55.5 -3q-75 0 -130 19t-91 58.5t-53 99.5t-17 142v457h-107q-19 0 -29 23.5t-10 78.5q0 29 2.5 49t7.5 31.5t12.5 16.5t17.5 5h106v199q0 10 5.5 18t20 13.5t39 8t60.5 2.5q37 0 61.5 -2.5t38.5 -8t20 -13.5t6 -18v-199h573zM1091 1226q0 -37 -6.5 -62.5t-23 -41
t-44.5 -22t-70 -6.5t-70 6.5t-45 22t-23.5 41t-6.5 62.5q0 36 6.5 61t23.5 41t45 23t70 7t70 -7t44.5 -23t23 -41t6.5 -61z" />
    <glyph glyph-name="t_dotlessi.liga" unicode="t&#x131;" horiz-adv-x="1199" 
d="M997 960q42 0 58.5 -18t16.5 -52v-856q0 -10 -6 -17.5t-20 -12.5t-38.5 -7.5t-60.5 -2.5q-37 0 -61.5 2.5t-38.5 7.5t-20 12.5t-6 17.5v722h-401v-419q0 -73 23 -109.5t82 -36.5q20 0 36 3.5t28.5 8t21 8t15.5 3.5q6 0 11.5 -3.5t8.5 -14t5.5 -28.5t2.5 -46
q0 -44 -5 -66.5t-14 -33t-27 -18t-41.5 -13t-51 -8.5t-55.5 -3q-75 0 -130 19t-91 58.5t-53 99.5t-17 142v457h-107q-19 0 -29 23.5t-10 78.5q0 29 2.5 49t7.5 31.5t12.5 16.5t17.5 5h106v199q0 10 5.5 18t20 13.5t39 8t60.5 2.5q37 0 61.5 -2.5t38.5 -8t20 -13.5t6 -18
v-199h577z" />
    <glyph glyph-name="t_t.liga" unicode="tt" horiz-adv-x="1344" 
d="M1288 122q0 -44 -5.5 -67t-15 -33t-27 -17t-40.5 -13t-50.5 -9t-54.5 -3q-76 0 -131 19t-91 58.5t-53 99.5t-17 142v457h-383v-419q0 -73 23 -109.5t82 -36.5q20 0 36 3.5t28.5 8t21 8t15.5 3.5q6 0 11.5 -3.5t8.5 -14t5.5 -28.5t2.5 -46t-1.5 -44.5t-4 -27.5t-6 -18.5
t-11.5 -14t-25 -13.5t-40 -12.5t-50.5 -8.5t-55.5 -3q-75 0 -130 19t-91 58.5t-53 99.5t-17 142v457h-107q-19 0 -29 23.5t-10 78.5q0 29 2.5 49t7.5 31.5t12.5 16.5t17.5 5h106v199q0 10 5.5 18t20 13.5t39 8t60.5 2.5q37 0 61.5 -2.5t38.5 -8t20 -13.5t6 -18v-199h383v247
q0 10 5.5 18t20 13t39 8t60.5 3q37 0 61.5 -3t38.5 -8t20 -13t6 -18v-247h194q10 0 17 -5t12.5 -16.5t8 -31.5t2.5 -49q0 -55 -10.5 -78.5t-28.5 -23.5h-195v-419q0 -73 22.5 -109.5t82.5 -36.5q20 0 36 3.5t28 8t21 8t16 3.5q6 0 11 -3.5t8.5 -14t6 -28.5t2.5 -46z" />
    <glyph glyph-name="t_t_f.liga" unicode="ttf" horiz-adv-x="1930" 
d="M1946 1266q0 -29 -2 -46.5t-5.5 -27t-9 -13t-11.5 -3.5q-7 0 -15.5 3.5t-21 7.5t-29.5 7.5t-39 3.5q-27 0 -47 -8.5t-32.5 -27t-19 -48t-6.5 -72.5v-82h163q9 0 16.5 -5t12.5 -16.5t7.5 -31.5t2.5 -49q0 -55 -10 -78.5t-29 -23.5h-163v-722q0 -10 -6 -17.5t-20 -12.5
t-38.5 -7.5t-60.5 -2.5q-37 0 -61.5 2.5t-38.5 7.5t-20 12.5t-6 17.5v722h-403v-419q0 -73 22.5 -109.5t82.5 -36.5q20 0 36 3.5t28 8t21 8t16 3.5q6 0 11 -3.5t8.5 -14t6 -28.5t2.5 -46q0 -44 -5 -66t-14.5 -33t-27.5 -18.5t-41 -13t-50.5 -8.5t-54.5 -3q-76 0 -131 19
t-91 58.5t-53 99.5t-17 142v457h-383v-419q0 -73 23 -109.5t82 -36.5q20 0 36 3.5t28.5 8t21 8t15.5 3.5q6 0 11.5 -3.5t8.5 -14t5.5 -28.5t2.5 -46q0 -44 -5 -66.5t-14 -33t-27.5 -18t-41.5 -13t-50.5 -8.5t-55.5 -3q-75 0 -130 19t-91 58.5t-53 99.5t-17 142v457h-107
q-19 0 -29 23.5t-10 78.5q0 29 2.5 49t7.5 31.5t12.5 16.5t17.5 5h106v199q0 10 5.5 18t20 13.5t39 8t60.5 2.5q37 0 61.5 -2.5t38.5 -8t20 -13.5t6 -18v-199h383v247q0 10 5.5 18t20 13t39 8t60.5 3q37 0 61.5 -3t38.5 -8t20 -13t6 -18v-247h403v75q0 91 18.5 159.5t57 114
t97.5 68.5t141 23q37 0 73 -7t55.5 -14t27 -13.5t12 -19t6 -32t1.5 -48.5z" />
    <glyph glyph-name="t_t_i.liga" unicode="tti" horiz-adv-x="1832" 
d="M420 756v-419q0 -73 23 -109.5t82 -36.5q20 0 36 3.5t28.5 8t21 8t15.5 3.5q6 0 11.5 -3.5t8.5 -14t5.5 -28.5t2.5 -46q0 -44 -5.5 -68t-15 -33t-26.5 -16.5t-40.5 -13t-51 -8.5t-55.5 -3q-75 0 -130 19t-91 58.5t-53 99.5t-17 142v457h-107q-19 0 -29 23.5t-10 78.5
q0 29 2.5 49t7.5 31.5t12.5 16.5t17.5 5h106v199q0 10 5.5 18t20 13.5t39 8t60.5 2.5q37 0 61.5 -2.5t38.5 -8t20 -13.5t6 -18v-199h383v247q0 10 5.5 18t20 13t39 8t60.5 3q37 0 61.5 -3t38.5 -8t20 -13t6 -18v-247h576q42 0 59 -18t17 -52v-856q0 -10 -6 -17.5t-20 -12.5
t-38.5 -7.5t-60.5 -2.5q-37 0 -61.5 2.5t-38.5 7.5t-20 12.5t-6 17.5v722h-401v-419q0 -73 22.5 -109.5t82.5 -36.5q20 0 36 3.5t28 8t21 8t16 3.5q6 0 11 -3.5t8.5 -14t6 -28.5t2.5 -46q0 -44 -5.5 -68t-15 -33t-26.5 -16.5t-40.5 -13t-51 -8.5t-54.5 -3q-76 0 -131 19
t-91 58.5t-53 99.5t-17 142v457h-383zM1726 1228q0 -76 -31 -105t-115 -29q-85 0 -114.5 28t-29.5 101q0 76 30.5 105.5t115.5 29.5q84 0 114 -28.5t30 -101.5zM1329 960z" />
    <glyph glyph-name="t_t_igrave.liga" unicode="tt&#xec;" horiz-adv-x="1832" 
d="M420 756v-419q0 -73 23 -109.5t82 -36.5q20 0 36 3.5t28.5 8t21 8t15.5 3.5q6 0 11.5 -3.5t8.5 -14t5.5 -28.5t2.5 -46q0 -44 -5.5 -68t-15 -33t-26.5 -16.5t-40.5 -13t-51 -8.5t-55.5 -3q-75 0 -130 19t-91 58.5t-53 99.5t-17 142v457h-107q-19 0 -29 23.5t-10 78.5
q0 29 2.5 49t7.5 31.5t12.5 16.5t17.5 5h106v199q0 10 5.5 18t20 13.5t39 8t60.5 2.5q37 0 61.5 -2.5t38.5 -8t20 -13.5t6 -18v-199h383v247q0 10 5.5 18t20 13t39 8t60.5 3q37 0 61.5 -3t38.5 -8t20 -13t6 -18v-247h576q42 0 59 -18t17 -52v-856q0 -10 -6 -17.5t-20 -12.5
t-38.5 -7.5t-60.5 -2.5q-37 0 -61.5 2.5t-38.5 7.5t-20 12.5t-6 17.5v722h-401v-419q0 -73 22.5 -109.5t82.5 -36.5q20 0 36 3.5t28 8t21 8t16 3.5q6 0 11 -3.5t8.5 -14t6 -28.5t2.5 -46q0 -44 -5.5 -68t-15 -33t-26.5 -16.5t-40.5 -13t-51 -8.5t-54.5 -3q-76 0 -131 19
t-91 58.5t-53 99.5t-17 142v457h-383zM1676 1135q9 -13 11 -23t-6.5 -16.5t-28 -9.5t-54.5 -3q-29 0 -48 2t-32 6t-21.5 10.5t-16.5 16.5l-193 232q-10 11 -11 21t10.5 17.5t38.5 11.5t73 4q33 0 55.5 -2t37.5 -6.5t24.5 -12.5t17.5 -19zM1174 960z" />
    <glyph glyph-name="t_t_iacute.liga" unicode="tt&#xed;" horiz-adv-x="1832" 
d="M420 756v-419q0 -73 23 -109.5t82 -36.5q20 0 36 3.5t28.5 8t21 8t15.5 3.5q6 0 11.5 -3.5t8.5 -14t5.5 -28.5t2.5 -46q0 -44 -5.5 -68t-15 -33t-26.5 -16.5t-40.5 -13t-51 -8.5t-55.5 -3q-75 0 -130 19t-91 58.5t-53 99.5t-17 142v457h-107q-19 0 -29 23.5t-10 78.5
q0 29 2.5 49t7.5 31.5t12.5 16.5t17.5 5h106v199q0 10 5.5 18t20 13.5t39 8t60.5 2.5q37 0 61.5 -2.5t38.5 -8t20 -13.5t6 -18v-199h383v247q0 10 5.5 18t20 13t39 8t60.5 3q37 0 61.5 -3t38.5 -8t20 -13t6 -18v-247h576q42 0 59 -18t17 -52v-856q0 -10 -6 -17.5t-20 -12.5
t-38.5 -7.5t-60.5 -2.5q-37 0 -61.5 2.5t-38.5 7.5t-20 12.5t-6 17.5v722h-401v-419q0 -73 22.5 -109.5t82.5 -36.5q20 0 36 3.5t28 8t21 8t16 3.5q6 0 11 -3.5t8.5 -14t6 -28.5t2.5 -46q0 -44 -5.5 -68t-15 -33t-26.5 -16.5t-40.5 -13t-51 -8.5t-54.5 -3q-76 0 -131 19
t-91 58.5t-53 99.5t-17 142v457h-383zM1609 1364q7 11 17 19t25 12.5t38 6.5t56 2q46 0 72.5 -4t38 -11.5t10.5 -17.5t-10 -21l-194 -232q-8 -10 -16 -16.5t-20.5 -10.5t-31.5 -6t-48 -2q-35 0 -55.5 3t-28.5 9.5t-6.5 16.5t10.5 23zM1353 960z" />
    <glyph glyph-name="t_t_icircumflex.liga" unicode="tt&#xee;" horiz-adv-x="1832" 
d="M420 756v-419q0 -73 23 -109.5t82 -36.5q20 0 36 3.5t28.5 8t21 8t15.5 3.5q6 0 11.5 -3.5t8.5 -14t5.5 -28.5t2.5 -46q0 -44 -5.5 -68t-15 -33t-26.5 -16.5t-40.5 -13t-51 -8.5t-55.5 -3q-75 0 -130 19t-91 58.5t-53 99.5t-17 142v457h-107q-19 0 -29 23.5t-10 78.5
q0 29 2.5 49t7.5 31.5t12.5 16.5t17.5 5h106v199q0 10 5.5 18t20 13.5t39 8t60.5 2.5q37 0 61.5 -2.5t38.5 -8t20 -13.5t6 -18v-199h383v247q0 10 5.5 18t20 13t39 8t60.5 3q37 0 61.5 -3t38.5 -8t20 -13t6 -18v-247h576q42 0 59 -18t17 -52v-856q0 -10 -6 -17.5t-20 -12.5
t-38.5 -7.5t-60.5 -2.5q-37 0 -61.5 2.5t-38.5 7.5t-20 12.5t-6 17.5v722h-401v-419q0 -73 22.5 -109.5t82.5 -36.5q20 0 36 3.5t28 8t21 8t16 3.5q6 0 11 -3.5t8.5 -14t6 -28.5t2.5 -46q0 -44 -5.5 -68t-15 -33t-26.5 -16.5t-40.5 -13t-51 -8.5t-54.5 -3q-76 0 -131 19
t-91 58.5t-53 99.5t-17 142v457h-383zM1461 1118q-7 -11 -14 -18t-19 -10.5t-30.5 -5t-48.5 -1.5q-40 0 -61.5 3.5t-28.5 11t-1.5 20.5t19.5 31l158 223q6 10 15.5 15.5t25 9.5t37.5 5.5t53 1.5q32 0 53.5 -2t36 -6t23.5 -10t16 -14l157 -223q14 -19 19 -31.5t-2 -20
t-28.5 -11t-60.5 -3.5q-32 0 -50.5 1.5t-30 5.5t-17.5 10.5t-13 17.5l-104 150zM1154 960z" />
    <glyph glyph-name="t_t_idieresis.liga" unicode="tt&#xef;" horiz-adv-x="1832" 
d="M420 756v-419q0 -73 23 -109.5t82 -36.5q20 0 36 3.5t28.5 8t21 8t15.5 3.5q6 0 11.5 -3.5t8.5 -14t5.5 -28.5t2.5 -46q0 -44 -5.5 -68t-15 -33t-26.5 -16.5t-40.5 -13t-51 -8.5t-55.5 -3q-75 0 -130 19t-91 58.5t-53 99.5t-17 142v457h-107q-19 0 -29 23.5t-10 78.5
q0 29 2.5 49t7.5 31.5t12.5 16.5t17.5 5h106v199q0 10 5.5 18t20 13.5t39 8t60.5 2.5q37 0 61.5 -2.5t38.5 -8t20 -13.5t6 -18v-199h383v247q0 10 5.5 18t20 13t39 8t60.5 3q37 0 61.5 -3t38.5 -8t20 -13t6 -18v-247h576q42 0 59 -18t17 -52v-856q0 -10 -6 -17.5t-20 -12.5
t-38.5 -7.5t-60.5 -2.5q-37 0 -61.5 2.5t-38.5 7.5t-20 12.5t-6 17.5v722h-401v-419q0 -73 22.5 -109.5t82.5 -36.5q20 0 36 3.5t28 8t21 8t16 3.5q6 0 11 -3.5t8.5 -14t6 -28.5t2.5 -46q0 -44 -5.5 -68t-15 -33t-26.5 -16.5t-40.5 -13t-51 -8.5t-54.5 -3q-76 0 -131 19
t-91 58.5t-53 99.5t-17 142v457h-383zM1527 1227q0 -70 -26 -97.5t-96 -27.5q-71 0 -96 26.5t-25 93.5q0 71 26 98.5t95 27.5q72 0 97 -26.5t25 -94.5zM1863 1227q0 -70 -26 -97.5t-96 -27.5q-71 0 -95.5 26.5t-24.5 93.5q0 71 25.5 98.5t95.5 27.5q71 0 96 -26.5t25 -94.5z
M1182 960z" />
    <glyph glyph-name="t_t_imacron.liga" unicode="tt&#x12b;" horiz-adv-x="1832" 
d="M420 756v-419q0 -73 23 -109.5t82 -36.5q20 0 36 3.5t28.5 8t21 8t15.5 3.5q6 0 11.5 -3.5t8.5 -14t5.5 -28.5t2.5 -46q0 -44 -5.5 -68t-15 -33t-26.5 -16.5t-40.5 -13t-51 -8.5t-55.5 -3q-75 0 -130 19t-91 58.5t-53 99.5t-17 142v457h-107q-19 0 -29 23.5t-10 78.5
q0 29 2.5 49t7.5 31.5t12.5 16.5t17.5 5h106v199q0 10 5.5 18t20 13.5t39 8t60.5 2.5q37 0 61.5 -2.5t38.5 -8t20 -13.5t6 -18v-199h383v247q0 10 5.5 18t20 13t39 8t60.5 3q37 0 61.5 -3t38.5 -8t20 -13t6 -18v-247h576q42 0 59 -18t17 -52v-856q0 -10 -6 -17.5t-20 -12.5
t-38.5 -7.5t-60.5 -2.5q-37 0 -61.5 2.5t-38.5 7.5t-20 12.5t-6 17.5v722h-401v-419q0 -73 22.5 -109.5t82.5 -36.5q20 0 36 3.5t28 8t21 8t16 3.5q6 0 11 -3.5t8.5 -14t6 -28.5t2.5 -46q0 -44 -5.5 -68t-15 -33t-26.5 -16.5t-40.5 -13t-51 -8.5t-54.5 -3q-76 0 -131 19
t-91 58.5t-53 99.5t-17 142v457h-383zM1827 1323q11 0 19 -4.5t12.5 -15.5t7 -28.5t2.5 -43.5t-2.5 -43t-7 -28t-12.5 -15.5t-19 -4.5h-510q-12 0 -20.5 4.5t-13.5 15.5t-7.5 28t-2.5 43q0 25 2.5 43t7.5 28.5t13.5 15.5t20.5 5h510zM1171 960z" />
    <glyph glyph-name="t_t_itilde.liga" unicode="tt&#x129;" horiz-adv-x="1832" 
d="M420 756v-419q0 -73 23 -109.5t82 -36.5q20 0 36 3.5t28.5 8t21 8t15.5 3.5q6 0 11.5 -3.5t8.5 -14t5.5 -28.5t2.5 -46q0 -44 -5.5 -68t-15 -33t-26.5 -16.5t-40.5 -13t-51 -8.5t-55.5 -3q-75 0 -130 19t-91 58.5t-53 99.5t-17 142v457h-107q-19 0 -29 23.5t-10 78.5
q0 29 2.5 49t7.5 31.5t12.5 16.5t17.5 5h106v199q0 10 5.5 18t20 13.5t39 8t60.5 2.5q37 0 61.5 -2.5t38.5 -8t20 -13.5t6 -18v-199h383v247q0 10 5.5 18t20 13t39 8t60.5 3q37 0 61.5 -3t38.5 -8t20 -13t6 -18v-247h576q42 0 59 -18t17 -52v-856q0 -10 -6 -17.5t-20 -12.5
t-38.5 -7.5t-60.5 -2.5q-37 0 -61.5 2.5t-38.5 7.5t-20 12.5t-6 17.5v722h-401v-419q0 -73 22.5 -109.5t82.5 -36.5q20 0 36 3.5t28 8t21 8t16 3.5q6 0 11 -3.5t8.5 -14t6 -28.5t2.5 -46q0 -44 -5.5 -68t-15 -33t-26.5 -16.5t-40.5 -13t-51 -8.5t-54.5 -3q-76 0 -131 19
t-91 58.5t-53 99.5t-17 142v457h-383zM1917 1336q0 -121 -57.5 -185.5t-159.5 -64.5q-39 0 -69 8t-54 21t-43.5 27.5t-37.5 27t-35.5 21t-37.5 8.5q-33 0 -47 -23.5t-14 -61.5q0 -9 -3.5 -14.5t-12 -8.5t-24 -4t-39.5 -1q-21 0 -35.5 1.5t-23 6t-12.5 12.5t-4 21
q0 116 56 182.5t160 66.5q57 0 96.5 -17.5t70 -39t56.5 -39t54 -17.5q30 0 46 21.5t16 63.5q0 17 15 22.5t61 5.5q45 0 61.5 -7.5t16.5 -32.5zM1107 960z" />
    <glyph glyph-name="t_t_ibreve.liga" unicode="tt&#x12d;" horiz-adv-x="1832" 
d="M420 756v-419q0 -73 23 -109.5t82 -36.5q20 0 36 3.5t28.5 8t21 8t15.5 3.5q6 0 11.5 -3.5t8.5 -14t5.5 -28.5t2.5 -46q0 -44 -5.5 -68t-15 -33t-26.5 -16.5t-40.5 -13t-51 -8.5t-55.5 -3q-75 0 -130 19t-91 58.5t-53 99.5t-17 142v457h-107q-19 0 -29 23.5t-10 78.5
q0 29 2.5 49t7.5 31.5t12.5 16.5t17.5 5h106v199q0 10 5.5 18t20 13.5t39 8t60.5 2.5q37 0 61.5 -2.5t38.5 -8t20 -13.5t6 -18v-199h383v247q0 10 5.5 18t20 13t39 8t60.5 3q37 0 61.5 -3t38.5 -8t20 -13t6 -18v-247h576q42 0 59 -18t17 -52v-856q0 -10 -6 -17.5t-20 -12.5
t-38.5 -7.5t-60.5 -2.5q-37 0 -61.5 2.5t-38.5 7.5t-20 12.5t-6 17.5v722h-401v-419q0 -73 22.5 -109.5t82.5 -36.5q20 0 36 3.5t28 8t21 8t16 3.5q6 0 11 -3.5t8.5 -14t6 -28.5t2.5 -46q0 -44 -5.5 -68t-15 -33t-26.5 -16.5t-40.5 -13t-51 -8.5t-54.5 -3q-76 0 -131 19
t-91 58.5t-53 99.5t-17 142v457h-383zM1695 1361q2 19 19.5 29t61.5 10q26 0 43 -2t26.5 -6t13 -11t3.5 -16q0 -67 -17.5 -119t-53 -87.5t-91 -54t-130.5 -18.5q-78 0 -133 18.5t-90 54t-51.5 87t-16.5 117.5q0 20 17 28.5t65 8.5q25 0 41.5 -2t26.5 -7t14 -12.5t5 -17.5
q3 -27 10 -48.5t21.5 -37t36.5 -23.5t54 -8q29 0 51 7t38 21.5t25 36t11 52.5zM1177 960z" />
    <glyph glyph-name="t_t_iogonek.liga" unicode="tt&#x12f;" horiz-adv-x="1832" 
d="M1759 -260q0 -21 -2 -35t-6 -23.5t-11.5 -14.5t-18.5 -8q-35 -12 -75.5 -18t-94.5 -6q-49 0 -89 10t-68 30.5t-43 51t-15 71.5q0 21 3.5 40.5t12.5 38.5t23.5 38.5t36.5 41.5l43 43v756h-401v-419q0 -73 22.5 -109.5t82.5 -36.5q20 0 36 3.5t28 8t21 8t16 3.5
q6 0 11 -3.5t8.5 -14t6 -28.5t2.5 -46q0 -44 -5.5 -68t-15 -33t-26.5 -16.5t-40.5 -13t-51 -8.5t-54.5 -3q-76 0 -131 19t-91 58.5t-53 99.5t-17 142v457h-383v-419q0 -73 23 -109.5t82 -36.5q20 0 36 3.5t28.5 8t21 8t15.5 3.5q6 0 11.5 -3.5t8.5 -14t5.5 -28.5t2.5 -46
q0 -44 -5.5 -68t-15 -33t-26.5 -16.5t-40.5 -13t-51 -8.5t-55.5 -3q-75 0 -130 19t-91 58.5t-53 99.5t-17 142v457h-107q-19 0 -29 23.5t-10 78.5q0 29 2.5 49t7.5 31.5t12.5 16.5t17.5 5h106v199q0 10 5.5 18t20 13.5t39 8t60.5 2.5q37 0 61.5 -2.5t38.5 -8t20 -13.5t6 -18
v-199h383v247q0 10 5.5 18t20 13t39 8t60.5 3q37 0 61.5 -3t38.5 -8t20 -13t6 -18v-247h576q42 0 59 -18t17 -52v-855q0 -13 -7.5 -31t-18.5 -29l-59 -59q-25 -25 -33.5 -42t-8.5 -33q0 -41 62 -41h83q10 0 17 -2.5t11 -9t5.5 -18.5t1.5 -30zM1725 1226q0 -37 -6.5 -62.5
t-23 -41t-44.5 -22t-70 -6.5q-43 0 -71 6.5t-44.5 22t-23 41t-6.5 62.5q0 36 6.5 61t23 41t44.5 23t71 7q42 0 70 -7t44.5 -23t23 -41t6.5 -61z" />
    <glyph glyph-name="t_t_dotlessi.liga" unicode="tt&#x131;" horiz-adv-x="1832" 
d="M420 756v-419q0 -73 23 -109.5t82 -36.5q20 0 36 3.5t28.5 8t21 8t15.5 3.5q6 0 11.5 -3.5t8.5 -14t5.5 -28.5t2.5 -46q0 -44 -5.5 -68t-15 -33t-26.5 -16.5t-40.5 -13t-51 -8.5t-55.5 -3q-75 0 -130 19t-91 58.5t-53 99.5t-17 142v457h-107q-19 0 -29 23.5t-10 78.5
q0 29 2.5 49t7.5 31.5t12.5 16.5t17.5 5h106v199q0 10 5.5 18t20 13.5t39 8t60.5 2.5q37 0 61.5 -2.5t38.5 -8t20 -13.5t6 -18v-199h383v247q0 10 5.5 18t20 13t39 8t60.5 3q37 0 61.5 -3t38.5 -8t20 -13t6 -18v-247h576q42 0 59 -18t17 -52v-856q0 -10 -6 -17.5t-20 -12.5
t-38.5 -7.5t-60.5 -2.5q-37 0 -61.5 2.5t-38.5 7.5t-20 12.5t-6 17.5v722h-401v-419q0 -73 22.5 -109.5t82.5 -36.5q20 0 36 3.5t28 8t21 8t16 3.5q6 0 11 -3.5t8.5 -14t6 -28.5t2.5 -46q0 -44 -5.5 -68t-15 -33t-26.5 -16.5t-40.5 -13t-51 -8.5t-54.5 -3q-76 0 -131 19
t-91 58.5t-53 99.5t-17 142v457h-383z" />
    <glyph glyph-name="f_uni1EC9.liga" unicode="f&#x1ec9;" horiz-adv-x="1135" 
d="M1008 34q0 -10 -6 -17.5t-20 -12.5t-38.5 -7.5t-60.5 -2.5q-37 0 -61.5 2.5t-38.5 7.5t-20 12.5t-6 17.5v722h-331v-722q0 -10 -6 -17.5t-20 -12.5t-38.5 -7.5t-61.5 -2.5q-36 0 -60.5 2.5t-39 7.5t-20 12.5t-5.5 17.5v722h-112q-19 0 -28.5 23.5t-9.5 78.5q0 29 2.5 49
t7 31.5t12 16.5t17.5 5h111v77q0 90 18.5 158t57 113.5t97 68.5t137.5 23q40 0 75.5 -6.5t53.5 -14t25 -14t11 -19t5.5 -32t1.5 -48.5q0 -49 -5.5 -68.5t-21.5 -19.5q-6 0 -15 3t-21 6.5t-27.5 7t-35.5 3.5q-56 0 -80.5 -36.5t-24.5 -119.5v-82h506q38 0 57 -16.5t19 -52.5
v-857zM1073 1332q0 -72 -34 -116.5t-95 -58.5q-1 -12 -1.5 -24t-0.5 -24q-2 -24 -18.5 -36.5t-56.5 -12.5q-42 0 -59 11t-17 39l-2 93q-1 39 18 48.5t55 9.5h9q23 0 32.5 19t9.5 46q0 26 -11 47t-40 21t-56 -15l-16 -9q-7 -4 -19.5 -10t-25.5 -6q-11 0 -18 8.5t-11 21
t-5.5 27t-1.5 25.5q0 17 12 28t32 22q20 10 52 18.5t68 8.5q52 0 89.5 -14.5t62 -39.5t36.5 -57.5t12 -69.5zM656 960z" />
    <glyph glyph-name="f_uni1ECB.liga" unicode="f&#x1ecb;" horiz-adv-x="1135" 
d="M1027 1226q0 -37 -6.5 -62.5t-22.5 -41t-43.5 -22t-68.5 -6.5t-69 6.5t-44.5 22t-23 41t-6.5 62.5q0 36 6.5 61t23 41t44.5 23t69 7t68.5 -7t43.5 -23t22.5 -41t6.5 -61zM1008 34q0 -10 -6 -17.5t-20 -12.5t-38.5 -7.5t-60.5 -2.5q-37 0 -61.5 2.5t-38.5 7.5t-20 12.5
t-6 17.5v722h-331v-722q0 -10 -6 -17.5t-20 -12.5t-38.5 -7.5t-61.5 -2.5q-36 0 -60.5 2.5t-39 7.5t-20 12.5t-5.5 17.5v722h-112q-19 0 -28.5 23.5t-9.5 78.5q0 29 2.5 49t7 31.5t12 16.5t17.5 5h111v79q0 91 18.5 159t56.5 113.5t96 68t137 22.5q22 0 44.5 -2t42.5 -6
t35 -9t20.5 -10.5t9 -12.5t6 -18t3.5 -28.5t1 -43.5q0 -48 -5.5 -67.5t-21.5 -19.5q-6 0 -13.5 2t-18 5t-24.5 5.5t-35 2.5q-53 0 -77 -36t-24 -119v-85h506q38 0 57 -16.5t19 -52.5v-857zM1023 -206q0 -36 -6.5 -60.5t-22.5 -39.5t-43 -21.5t-67 -6.5t-66.5 6.5t-42.5 21
t-22.5 38t-6.5 57.5q0 36 7 60.5t23 39.5t43 21.5t67 6.5t66.5 -6.5t42 -21t22 -38t6.5 -57.5z" />
    <glyph glyph-name="f_f_uni1EC9.liga" unicode="ff&#x1ec9;" horiz-adv-x="1718" 
d="M1592 34q0 -10 -6 -17.5t-20.5 -12.5t-38.5 -7.5t-61 -2.5t-61 2.5t-38.5 7.5t-20.5 12.5t-6 17.5v722h-332v-722q0 -10 -6 -17.5t-20 -12.5t-38.5 -7.5t-60.5 -2.5q-37 0 -61.5 2.5t-38.5 7.5t-20 12.5t-6 17.5v722h-331v-722q0 -10 -6 -17.5t-20 -12.5t-38.5 -7.5
t-61.5 -2.5q-36 0 -60.5 2.5t-39 7.5t-20 12.5t-5.5 17.5v722h-112q-19 0 -28.5 23.5t-9.5 78.5q0 29 2.5 49t7 31.5t12 16.5t17.5 5h111v66q0 90 18.5 158t57 113.5t97 68.5t138.5 23q43 0 78.5 -7t54 -14t25.5 -13.5t11.5 -19t6.5 -32t2 -48.5q0 -49 -6.5 -69t-21.5 -20
q-7 0 -16 3l-21 7t-28.5 7.5t-36.5 3.5q-58 0 -83 -36.5t-25 -119.5v-71h331v79q0 91 19 159t57.5 113.5t97 68t138.5 22.5q42 0 77.5 -7t51.5 -13.5t23.5 -13.5t11.5 -19.5t5.5 -32t1.5 -48.5q0 -48 -5.5 -67.5t-21.5 -19.5q-6 0 -14.5 3t-21 6.5t-28 6.5t-35.5 3
q-56 0 -81 -36t-25 -119v-85h507q38 0 57.5 -16.5t19.5 -52.5v-857zM1660 1332q0 -72 -34 -116.5t-95 -58.5q-1 -12 -1.5 -24t-0.5 -24q-2 -24 -18.5 -36.5t-56.5 -12.5q-42 0 -59 11t-17 39l-2 93q-1 39 18 48.5t55 9.5h9q23 0 32.5 19t9.5 46q0 26 -11 47t-40 21t-56 -15
l-16 -9q-7 -4 -19.5 -10t-25.5 -6q-11 0 -18 8.5t-11 21t-5.5 27t-1.5 25.5q0 17 12 28t32 22q20 10 52 18.5t68 8.5q52 0 89.5 -14.5t62 -39.5t36.5 -57.5t12 -69.5zM1243 960z" />
    <glyph glyph-name="f_f_uni1ECB.liga" unicode="ff&#x1ecb;" horiz-adv-x="1718" 
d="M1611 1226q0 -37 -6.5 -62.5t-23 -41t-44 -22t-69.5 -6.5q-41 0 -68.5 6.5t-44 22t-23.5 41t-7 62.5q0 36 7 61t23.5 41t44 23t68.5 7q42 0 69.5 -7t44 -23t23 -41t6.5 -61zM1592 34q0 -10 -6 -17.5t-20.5 -12.5t-38.5 -7.5t-61 -2.5t-61 2.5t-38.5 7.5t-20.5 12.5
t-6 17.5v722h-332v-722q0 -10 -6 -17.5t-20 -12.5t-38.5 -7.5t-60.5 -2.5q-37 0 -61.5 2.5t-38.5 7.5t-20 12.5t-6 17.5v722h-331v-722q0 -10 -6 -17.5t-20 -12.5t-39 -7.5t-61 -2.5t-60.5 2.5t-39 7.5t-20 12.5t-5.5 17.5v722h-112q-19 0 -28.5 23.5t-9.5 78.5q0 29 2.5 49
t7 31.5t12 16.5t17.5 5h111v66q0 90 18.5 158t57 113.5t97 68.5t138.5 23q44 0 78.5 -7t53.5 -14t26 -13.5t11.5 -19t6.5 -32t2 -48.5q0 -49 -6.5 -69t-21.5 -20q-7 0 -16 3t-21.5 7t-29 7.5t-36.5 3.5q-57 0 -82 -36.5t-25 -119.5v-71h331v79q0 91 19 159t57 113.5t96 68
t137 22.5q21 0 44.5 -2t43 -6t34.5 -9t20.5 -10.5t9 -12.5t6 -18t3.5 -28.5t1 -43.5q0 -48 -5.5 -67.5t-21.5 -19.5q-6 0 -13.5 2t-18 5t-25 5.5t-34.5 2.5q-54 0 -78 -36t-24 -119v-85h507q38 0 57.5 -16.5t19.5 -52.5v-857zM1606 -206q0 -36 -6.5 -60.5t-22.5 -39.5
t-43 -21.5t-67 -6.5t-66.5 6.5t-42.5 21t-22.5 38t-6.5 57.5q0 36 7 60.5t23 39.5t43 21.5t67 6.5t66.5 -6.5t42 -21t22 -38t6.5 -57.5z" />
    <glyph glyph-name="f_uni01D0.liga" unicode="f&#x1d0;" horiz-adv-x="1151" 
d="M1026 34q0 -10 -6 -17.5t-20.5 -12.5t-38.5 -7.5t-61 -2.5t-61 2.5t-38.5 7.5t-20.5 12.5t-6 17.5v722h-348v-722q0 -10 -6 -17.5t-20.5 -12.5t-38.5 -7.5t-61 -2.5t-61 2.5t-38.5 7.5t-20 12.5t-5.5 17.5v722h-112q-19 0 -28.5 23.5t-9.5 78.5q0 59 9.5 80.5t29.5 21.5
h111v75q0 183 74.5 274t228.5 91q42 0 63.5 -8t30.5 -17q20 -17 20 -102q0 -29 -1.5 -45.5t-4.5 -24.5t-7.5 -10.5t-10.5 -2.5q-8 0 -20.5 4t-33.5 4q-20 0 -36 -6.5t-27.5 -23t-18 -44t-6.5 -70.5v-94h474q37 0 61 -2.5t38.5 -7.5t20.5 -12.5t6 -17.5v-886zM977 1370
q7 10 14 16.5t19 10.5t30.5 5.5t48.5 1.5q39 0 60 -2.5t27.5 -10t1.5 -20.5t-17 -33l-131 -223q-12 -20 -41 -26t-91 -6t-90 7.5t-38 24.5l-133 223q-12 20 -17 32.5t2 20t28 10.5t60 3q32 0 51 -1t30.5 -5t17.5 -10.5t12 -17.5l77 -151z" />
    <glyph glyph-name="f_uni0209.liga" unicode="f&#x209;" horiz-adv-x="1220" 
d="M532 1273q0 -29 -1 -45.5t-3 -24.5t-6.5 -10.5t-10.5 -2.5q-5 0 -10.5 0.5t-9.5 0.5q-24 0 -37.5 -11.5t-19.5 -30.5t-7 -43.5t-1 -51.5v-94h477q35 0 58.5 -2.5t38 -7.5t20.5 -12.5t6 -17.5v-886q0 -10 -6 -17.5t-20.5 -12.5t-38.5 -7.5t-61 -2.5t-61 2.5t-38.5 7.5
t-20.5 12.5t-6 17.5v722h-348v-722q0 -10 -6 -17.5t-20.5 -12.5t-38.5 -7.5t-61 -2.5t-61 2.5t-38.5 7.5t-20 12.5t-5.5 17.5v722h-112q-19 0 -28.5 23.5t-9.5 78.5q0 59 9.5 80.5t29.5 21.5h111v75q0 91 19.5 159.5t54 114t81.5 68.5t102 23q42 0 56.5 -4t23.5 -13
q11 -9 15.5 -38t4.5 -72zM1295 1118q9 -14 11 -23.5t-6 -16t-28.5 -9.5t-54.5 -3q-29 0 -48 2t-31.5 6t-21.5 10.5t-17 16.5l-193 232q-10 12 -11 21.5t11 17t38.5 11.5t72.5 4q33 0 55.5 -2t37.5 -6.5t24.5 -12.5t17.5 -19zM952 1118q9 -14 11 -23.5t-6 -16t-28.5 -9.5
t-54.5 -3q-29 0 -48 2t-31.5 6t-21.5 10.5t-17 16.5l-193 232q-10 12 -11 21.5t11 17t38.5 11.5t72.5 4q33 0 55.5 -2t37.5 -6.5t24.5 -12.5t17.5 -19z" />
    <glyph glyph-name="f_uni020B.liga" unicode="f&#x20b;" horiz-adv-x="1151" 
d="M592 1273q0 -29 -1.5 -45.5t-4.5 -24.5t-7.5 -10.5t-10.5 -2.5q-8 0 -20.5 4t-33.5 4q-20 0 -36 -6.5t-27.5 -23t-18 -44t-6.5 -70.5v-94h474q37 0 61 -2.5t38.5 -7.5t20.5 -12.5t6 -17.5v-886q0 -10 -6 -17.5t-20.5 -12.5t-38.5 -7.5t-61 -2.5t-61 2.5t-38.5 7.5
t-20.5 12.5t-6 17.5v722h-348v-722q0 -10 -6 -17.5t-20.5 -12.5t-38.5 -7.5t-61 -2.5t-61 2.5t-38.5 7.5t-20 12.5t-5.5 17.5v722h-112q-19 0 -28.5 23.5t-9.5 78.5q0 59 9.5 80.5t29.5 21.5h111v75q0 184 74 274.5t229 90.5q42 0 63.5 -8t30.5 -17q20 -17 20 -102z
M790 1125q-2 -19 -19 -29t-62 -10q-26 0 -43 2t-26.5 6t-13 11t-3.5 16q0 60 16.5 111t50.5 88.5t86 58.5t124 21q74 0 126.5 -21.5t85.5 -58.5t48.5 -88t15.5 -109q0 -20 -17 -28.5t-65 -8.5q-51 0 -68 9t-19 30q-3 27 -8 48.5t-16.5 37t-31 23.5t-51.5 8q-57 0 -81.5 -28
t-28.5 -89z" />
    <glyph glyph-name="f_uni1E2D.liga" unicode="f&#x1e2d;" horiz-adv-x="1135" 
d="M1027 1226q0 -37 -6.5 -62.5t-22.5 -41t-43.5 -22t-68.5 -6.5t-69 6.5t-44.5 22t-23 41t-6.5 62.5q0 36 6.5 61t23 41t44.5 23t69 7t68.5 -7t43.5 -23t22.5 -41t6.5 -61zM1008 34q0 -10 -6 -17.5t-20 -12.5t-38.5 -7.5t-60.5 -2.5q-37 0 -61.5 2.5t-38.5 7.5t-20 12.5
t-6 17.5v722h-331v-722q0 -10 -6 -17.5t-20 -12.5t-38.5 -7.5t-61.5 -2.5q-36 0 -60.5 2.5t-39 7.5t-20 12.5t-5.5 17.5v722h-112q-19 0 -28.5 23.5t-9.5 78.5q0 29 2.5 49t7 31.5t12 16.5t17.5 5h111v79q0 91 18.5 159t56.5 113.5t96 68t137 22.5q22 0 44.5 -2t42.5 -6
t35 -9t20.5 -10.5t9 -12.5t6 -18t3.5 -28.5t1 -43.5q0 -48 -5.5 -67.5t-21.5 -19.5q-6 0 -13.5 2t-18 5t-24.5 5.5t-35 2.5q-53 0 -77 -36t-24 -119v-85h506q38 0 57 -16.5t19 -52.5v-857zM1236 -153q0 -121 -57.5 -185.5t-159.5 -64.5q-39 0 -69 8t-54 21t-43.5 27.5
t-37.5 27t-35.5 21t-37.5 8.5q-33 0 -47 -23.5t-14 -61.5q0 -9 -3.5 -14.5t-12 -8.5t-24 -4t-39.5 -1q-21 0 -35.5 1.5t-23 6t-12.5 12.5t-4 21q0 116 56 182.5t160 66.5q57 0 96.5 -17.5t70 -39t56.5 -39t54 -17.5q30 0 46 21.5t16 63.5q0 17 15 22.5t61 5.5
q45 0 61.5 -7.5t16.5 -32.5zM426 -529z" />
    <glyph glyph-name="f_uni1E2F.liga" unicode="f&#x1e2f;" horiz-adv-x="1151" 
d="M967 1619q7 11 15 19t21.5 12.5t35 6.5t54.5 2q46 0 71 -4t34.5 -11.5t7 -17.5t-11.5 -21l-169 -189q-8 -10 -14.5 -16.5t-17 -10.5t-28 -6t-46.5 -2q-47 0 -65 6t-18 17q0 6 3.5 13t9.5 16zM891 1227q0 -70 -26.5 -97.5t-100.5 -27.5q-75 0 -101 26.5t-26 93.5
q0 72 27 99t100 27q76 0 101.5 -26.5t25.5 -94.5zM1232 1227q0 -70 -26.5 -97.5t-101.5 -27.5q-74 0 -100 26.5t-26 93.5q0 72 26.5 99t100.5 27q75 0 101 -26.5t26 -94.5zM592 1273q0 -29 -1.5 -45.5t-4.5 -24.5t-7.5 -10.5t-10.5 -2.5q-8 0 -20.5 4t-33.5 4
q-20 0 -36 -6.5t-27.5 -23t-18 -44t-6.5 -70.5v-94h474q37 0 61 -2.5t38.5 -7.5t20.5 -12.5t6 -17.5v-886q0 -10 -6 -17.5t-20.5 -12.5t-38.5 -7.5t-61 -2.5t-61 2.5t-38.5 7.5t-20.5 12.5t-6 17.5v722h-348v-722q0 -10 -6 -17.5t-20.5 -12.5t-38.5 -7.5t-61 -2.5t-61 2.5
t-38.5 7.5t-20 12.5t-5.5 17.5v722h-112q-19 0 -28.5 23.5t-9.5 78.5q0 59 9.5 80.5t29.5 21.5h111v75q0 184 74 274.5t229 90.5q42 0 63.5 -8t30.5 -17q20 -17 20 -102z" />
    <glyph glyph-name="f_uni0268.liga" unicode="f&#x268;" horiz-adv-x="1174" 
d="M1027 1226q0 -37 -6.5 -62.5t-22.5 -41t-43.5 -22t-68.5 -6.5t-69 6.5t-44.5 22t-23 41t-6.5 62.5q0 36 6.5 61t23 41t44.5 23t69 7t68.5 -7t43.5 -23t22.5 -41t6.5 -61zM1008 34q0 -10 -6 -17.5t-20 -12.5t-38.5 -7.5t-60.5 -2.5q-37 0 -61.5 2.5t-38.5 7.5t-20 12.5
t-6 17.5v722h-331v-722q0 -10 -6 -17.5t-20 -12.5t-38.5 -7.5t-61.5 -2.5q-36 0 -60.5 2.5t-39 7.5t-20 12.5t-5.5 17.5v722h-112q-19 0 -28.5 23.5t-9.5 78.5q0 29 2.5 49t7 31.5t12 16.5t17.5 5h111v79q0 91 18.5 159t56.5 113.5t96 68t137 22.5q22 0 44.5 -2t42.5 -6
t35 -9t20.5 -10.5t9 -12.5t6 -18t3.5 -28.5t1 -43.5q0 -48 -5.5 -67.5t-21.5 -19.5q-6 0 -13.5 2t-18 5t-24.5 5.5t-35 2.5q-53 0 -77 -36t-24 -119v-85h506q38 0 57 -16.5t19 -52.5v-857zM1135 599q19 0 29 -17t10 -69q0 -26 -2.5 -43t-7.5 -27t-12.5 -13.5t-16.5 -3.5
h-506q-9 0 -16.5 3t-12.5 12.5t-7.5 26.5t-2.5 45q0 52 10 69t29 17h506z" />
    <glyph glyph-name="f_f_uni01D0.liga" unicode="ff&#x1d0;" horiz-adv-x="1717" 
d="M1549 1370q7 10 14 16.5t19 10.5t30.5 5.5t48.5 1.5q39 0 60 -2.5t27.5 -10t1.5 -20.5t-17 -33l-131 -223q-12 -20 -41 -26t-91 -6t-90 7.5t-38 24.5l-133 223q-12 20 -17 32.5t2 20t28 10.5t60 3q32 0 51 -1t30.5 -5t17.5 -10.5t12 -17.5l77 -151zM1592 34
q0 -10 -6 -17.5t-20.5 -12.5t-38.5 -7.5t-61 -2.5t-61 2.5t-38.5 7.5t-20.5 12.5t-6 17.5v722h-332v-722q0 -10 -6 -17.5t-20 -12.5t-38.5 -7.5t-60.5 -2.5q-37 0 -61.5 2.5t-38.5 7.5t-20 12.5t-6 17.5v722h-331v-722q0 -10 -6 -17.5t-20 -12.5t-38.5 -7.5t-61.5 -2.5
q-36 0 -60.5 2.5t-39 7.5t-20 12.5t-5.5 17.5v722h-112q-19 0 -28.5 23.5t-9.5 78.5q0 29 2.5 49t7 31.5t12 16.5t17.5 5h111v66q0 90 18.5 158t57 113.5t97 68.5t138.5 23q43 0 78.5 -7t54 -14t25.5 -13.5t11.5 -19t6.5 -32t2 -48.5q0 -49 -6.5 -69t-21.5 -20q-7 0 -16 3
l-21 7t-28.5 7.5t-36.5 3.5q-58 0 -83 -36.5t-25 -119.5v-71h331v79q0 91 16.5 159t50 113.5t85 68t121.5 22.5q36 0 67 -7t45 -13.5t20.5 -13.5t10 -19.5t5 -32t1.5 -48.5q0 -48 -4 -67.5t-16 -19.5q-4 0 -10.5 3t-15.5 6.5t-20.5 6.5t-26.5 3q-41 0 -59.5 -36t-18.5 -119
v-85h507q38 0 57.5 -16.5t19.5 -52.5v-857z" />
    <glyph glyph-name="f_f_uni0209.liga" unicode="ff&#x209;" horiz-adv-x="1750" 
d="M1461 1118q9 -14 11 -23.5t-6 -16t-28.5 -9.5t-54.5 -3q-29 0 -48 2t-31.5 6t-21.5 10.5t-17 16.5l-134 161q0 -22 -1 -35q-1 -16 -3 -24t-6.5 -10.5t-10.5 -2.5q-5 0 -10.5 0.5t-9.5 0.5q-24 0 -37.5 -11.5t-19.5 -30.5t-7 -43.5t-1 -51.5v-94h477q35 0 58.5 -2.5
t38 -7.5t20.5 -12.5t6 -17.5v-886q0 -10 -6 -17.5t-20.5 -12.5t-38.5 -7.5t-61 -2.5t-61 2.5t-38.5 7.5t-20.5 12.5t-6 17.5v722h-348v-722q0 -10 -6 -17.5t-20.5 -12.5t-38.5 -7.5t-61 -2.5t-61 2.5t-38.5 7.5t-20 12.5t-5.5 17.5v722h-348v-722q0 -10 -6 -17.5t-20 -12.5
t-39 -7.5t-61 -2.5t-60.5 2.5t-39 7.5t-20 12.5t-5.5 17.5v722h-112q-19 0 -28.5 23.5t-9.5 78.5q0 29 2.5 49t7 31.5t12 16.5t17.5 5h111v75q0 91 18 159.5t56.5 114t98 68.5t140.5 23q39 0 74 -6.5t55 -14t27 -14t11.5 -19t6.5 -32t2 -48.5t-2 -46.5t-6 -27t-9 -13
t-11 -3.5q-7 0 -15.5 3.5t-21 7.5t-29.5 7.5t-40 3.5q-27 0 -46.5 -8.5t-32.5 -27t-19 -48t-6 -72.5v-82h348v75q0 91 19.5 159.5t54 114t81.5 68.5t102 23q42 0 56.5 -4t23.5 -13q26 4 72 4q33 0 55.5 -2t37.5 -6.5t24.5 -12.5t17.5 -19zM1804 1118q9 -14 11 -23.5t-6 -16
t-28.5 -9.5t-54.5 -3q-29 0 -48 2t-31.5 6t-21.5 10.5t-17 16.5l-193 232q-10 12 -11 21.5t11 17t38.5 11.5t72.5 4q33 0 55.5 -2t37.5 -6.5t24.5 -12.5t17.5 -19z" />
    <glyph glyph-name="f_f_uni020B.liga" unicode="ff&#x20b;" horiz-adv-x="1717" 
d="M1354 1125q-2 -19 -19 -29t-62 -10q-26 0 -43 2t-26.5 6t-13 11t-3.5 16q0 60 16.5 111t50.5 88.5t86 58.5t124 21q74 0 126.5 -21.5t85.5 -58.5t48.5 -88t15.5 -109q0 -20 -17 -28.5t-65 -8.5q-51 0 -68 9t-19 30q-3 27 -8 48.5t-16.5 37t-31 23.5t-51.5 8
q-57 0 -81.5 -28t-28.5 -89zM1592 34q0 -10 -6 -17.5t-20.5 -12.5t-38.5 -7.5t-61 -2.5t-61 2.5t-38.5 7.5t-20.5 12.5t-6 17.5v722h-332v-722q0 -10 -6 -17.5t-20 -12.5t-38.5 -7.5t-60.5 -2.5q-37 0 -61.5 2.5t-38.5 7.5t-20 12.5t-6 17.5v722h-331v-722q0 -10 -6 -17.5
t-20 -12.5t-38.5 -7.5t-61.5 -2.5q-36 0 -60.5 2.5t-39 7.5t-20 12.5t-5.5 17.5v722h-112q-19 0 -28.5 23.5t-9.5 78.5q0 29 2.5 49t7 31.5t12 16.5t17.5 5h111v66q0 90 18.5 158t57 113.5t97 68.5t138.5 23q43 0 78.5 -7t54 -14t25.5 -13.5t11.5 -19t6.5 -32t2 -48.5
q0 -49 -6.5 -69t-21.5 -20q-7 0 -16 3l-21 7t-28.5 7.5t-36.5 3.5q-58 0 -83 -36.5t-25 -119.5v-71h331v79q0 91 16.5 159t50 113.5t85 68t121.5 22.5q36 0 67 -7t45 -13.5t20.5 -13.5t10 -19.5t5 -32t1.5 -48.5q0 -48 -4 -67.5t-16 -19.5q-4 0 -10.5 3t-15.5 6.5t-20.5 6.5
t-26.5 3q-41 0 -59.5 -36t-18.5 -119v-85h507q38 0 57.5 -16.5t19.5 -52.5v-857z" />
    <glyph glyph-name="f_f_uni1E2D.liga" unicode="ff&#x1e2d;" horiz-adv-x="1718" 
d="M1611 1226q0 -37 -6.5 -62.5t-23 -41t-44 -22t-69.5 -6.5q-41 0 -68.5 6.5t-44 22t-23.5 41t-7 62.5q0 36 7 61t23.5 41t44 23t68.5 7q42 0 69.5 -7t44 -23t23 -41t6.5 -61zM1592 34q0 -10 -6 -17.5t-20.5 -12.5t-38.5 -7.5t-61 -2.5t-61 2.5t-38.5 7.5t-20.5 12.5
t-6 17.5v722h-332v-722q0 -10 -6 -17.5t-20 -12.5t-38.5 -7.5t-60.5 -2.5q-37 0 -61.5 2.5t-38.5 7.5t-20 12.5t-6 17.5v722h-331v-722q0 -10 -6 -17.5t-20 -12.5t-39 -7.5t-61 -2.5t-60.5 2.5t-39 7.5t-20 12.5t-5.5 17.5v722h-112q-19 0 -28.5 23.5t-9.5 78.5q0 29 2.5 49
t7 31.5t12 16.5t17.5 5h111v66q0 90 18.5 158t57 113.5t97 68.5t138.5 23q44 0 78.5 -7t53.5 -14t26 -13.5t11.5 -19t6.5 -32t2 -48.5q0 -49 -6.5 -69t-21.5 -20q-7 0 -16 3t-21.5 7t-29 7.5t-36.5 3.5q-57 0 -82 -36.5t-25 -119.5v-71h331v79q0 91 19 159t57 113.5t96 68
t137 22.5q21 0 44.5 -2t43 -6t34.5 -9t20.5 -10.5t9 -12.5t6 -18t3.5 -28.5t1 -43.5q0 -48 -5.5 -67.5t-21.5 -19.5q-6 0 -13.5 2t-18 5t-25 5.5t-34.5 2.5q-54 0 -78 -36t-24 -119v-85h507q38 0 57.5 -16.5t19.5 -52.5v-857zM1819 -153q0 -121 -57.5 -185.5t-159.5 -64.5
q-39 0 -69 8t-54 21t-43.5 27.5t-37.5 27t-35.5 21t-37.5 8.5q-33 0 -47 -23.5t-14 -61.5q0 -9 -3.5 -14.5t-12 -8.5t-24 -4t-39.5 -1q-21 0 -35.5 1.5t-23 6t-12.5 12.5t-4 21q0 116 56 182.5t160 66.5q57 0 96.5 -17.5t70 -39t56.5 -39t54 -17.5q30 0 46 21.5t16 63.5
q0 17 15 22.5t61 5.5q45 0 61.5 -7.5t16.5 -32.5zM1009 -529z" />
    <glyph glyph-name="f_f_uni1E2F.liga" unicode="ff&#x1e2f;" horiz-adv-x="1717" 
d="M1174 1273q0 -29 -1.5 -45.5t-4.5 -24.5t-7.5 -10.5t-10.5 -2.5q-8 0 -20.5 4t-33.5 4q-20 0 -36 -6.5t-27.5 -23t-18 -44t-6.5 -70.5v-94h458q37 0 61 -2.5t38.5 -7.5t20.5 -12.5t6 -17.5v-886q0 -10 -6 -17.5t-20.5 -12.5t-38.5 -7.5t-61 -2.5t-61 2.5t-38.5 7.5
t-20.5 12.5t-6 17.5v722h-332v-722q0 -10 -6 -17.5t-20.5 -12.5t-38.5 -7.5t-61 -2.5t-61 2.5t-38.5 7.5t-20 12.5t-5.5 17.5v722h-331v-722q0 -10 -6 -17.5t-20 -12.5t-39 -7.5t-61 -2.5t-60.5 2.5t-39 7.5t-20 12.5t-5.5 17.5v722h-112q-19 0 -28.5 23.5t-9.5 78.5
q0 29 2.5 49t7 31.5t12 16.5t17.5 5h111v65q0 91 18 159.5t56.5 114t98 68.5t140.5 23q39 0 74 -6.5t55 -14t27 -14t11.5 -19t6.5 -32t2 -48.5t-2 -46.5t-6 -27t-9 -13t-11 -3.5q-7 0 -15.5 3.5t-21 7.5t-29.5 7.5t-40 3.5q-27 0 -46.5 -8.5t-32.5 -27t-19 -48t-6 -72.5v-72
h331v75q0 184 74 274.5t229 90.5q42 0 63.5 -8t30.5 -17q20 -17 20 -102zM1519 1619q7 11 15 19t21.5 12.5t35 6.5t54.5 2q46 0 71 -4t34.5 -11.5t7 -17.5t-11.5 -21l-169 -189q-8 -10 -14.5 -16.5t-17 -10.5t-28 -6t-46.5 -2q-47 0 -65 6t-18 17q0 6 3.5 13t9.5 16z
M1453 1227q0 -70 -26.5 -97.5t-100.5 -27.5q-75 0 -101 26.5t-26 93.5q0 72 27 99t100 27q76 0 101.5 -26.5t25.5 -94.5zM1784 1227q0 -70 -26.5 -97.5t-101.5 -27.5q-74 0 -100 26.5t-26 93.5q0 72 26.5 99t100.5 27q75 0 101 -26.5t26 -94.5z" />
    <glyph glyph-name="f_f_uni0268.liga" unicode="ff&#x268;" horiz-adv-x="1746" 
d="M1611 1226q0 -37 -6.5 -62.5t-23 -41t-44 -22t-69.5 -6.5q-41 0 -68.5 6.5t-44 22t-23.5 41t-7 62.5q0 36 7 61t23.5 41t44 23t68.5 7q42 0 69.5 -7t44 -23t23 -41t6.5 -61zM1592 34q0 -10 -6 -17.5t-20.5 -12.5t-38.5 -7.5t-61 -2.5t-61 2.5t-38.5 7.5t-20.5 12.5
t-6 17.5v722h-332v-722q0 -10 -6 -17.5t-20 -12.5t-38.5 -7.5t-60.5 -2.5q-37 0 -61.5 2.5t-38.5 7.5t-20 12.5t-6 17.5v722h-331v-722q0 -10 -6 -17.5t-20 -12.5t-39 -7.5t-61 -2.5t-60.5 2.5t-39 7.5t-20 12.5t-5.5 17.5v722h-112q-19 0 -28.5 23.5t-9.5 78.5q0 29 2.5 49
t7 31.5t12 16.5t17.5 5h111v66q0 90 18.5 158t57 113.5t97 68.5t138.5 23q44 0 78.5 -7t53.5 -14t26 -13.5t11.5 -19t6.5 -32t2 -48.5q0 -49 -6.5 -69t-21.5 -20q-7 0 -16 3t-21.5 7t-29 7.5t-36.5 3.5q-57 0 -82 -36.5t-25 -119.5v-71h331v79q0 91 19 159t57 113.5t96 68
t137 22.5q21 0 44.5 -2t43 -6t34.5 -9t20.5 -10.5t9 -12.5t6 -18t3.5 -28.5t1 -43.5q0 -48 -5.5 -67.5t-21.5 -19.5q-6 0 -13.5 2t-18 5t-25 5.5t-34.5 2.5q-54 0 -78 -36t-24 -119v-85h507q38 0 57.5 -16.5t19.5 -52.5v-857zM1707 599q19 0 29 -17t10 -69q0 -26 -2.5 -43
t-7.5 -27t-12.5 -13.5t-16.5 -3.5h-506q-9 0 -16.5 3t-12.5 12.5t-7.5 26.5t-2.5 45q0 52 10 69t29 17h506z" />
    <glyph glyph-name="t_uni01D0.liga" unicode="t&#x1d0;" horiz-adv-x="1199" 
d="M997 960q42 0 58.5 -18t16.5 -52v-856q0 -10 -6 -17.5t-20 -12.5t-38.5 -7.5t-60.5 -2.5q-37 0 -61.5 2.5t-38.5 7.5t-20 12.5t-6 17.5v722h-401v-419q0 -73 23 -109.5t82 -36.5q20 0 36 3.5t28.5 8t21 8t15.5 3.5q6 0 11.5 -3.5t8.5 -14t5.5 -28.5t2.5 -46
q0 -44 -5 -66.5t-14 -33t-27 -18t-41.5 -13t-51 -8.5t-55.5 -3q-75 0 -130 19t-91 58.5t-53 99.5t-17 142v457h-107q-19 0 -29 23.5t-10 78.5q0 29 2.5 49t7.5 31.5t12.5 16.5t17.5 5h106v199q0 10 5.5 18t20 13.5t39 8t60.5 2.5q37 0 61.5 -2.5t38.5 -8t20 -13.5t6 -18
v-199h577zM1016 1370q7 10 14 17t19 10.5t30.5 5t48.5 1.5q40 0 61 -3t28 -11t2 -20.5t-19 -31.5l-157 -223q-7 -9 -17 -15.5t-25 -10t-37 -5t-53 -1.5t-53 2t-36.5 6t-24 10t-14.5 14l-159 223q-13 19 -18 31.5t2 20.5t28.5 11t60.5 3q32 0 50.5 -1.5t30 -5.5t17.5 -10.5
t13 -16.5l103 -151zM501 960z" />
    <glyph glyph-name="t_uni0209.liga" unicode="t&#x209;" horiz-adv-x="1199" 
d="M997 960q42 0 58.5 -18t16.5 -52v-856q0 -10 -6 -17.5t-20 -12.5t-38.5 -7.5t-60.5 -2.5q-37 0 -61.5 2.5t-38.5 7.5t-20 12.5t-6 17.5v722h-401v-419q0 -73 23 -109.5t82 -36.5q20 0 36 3.5t28.5 8t21 8t15.5 3.5q6 0 11.5 -3.5t8.5 -14t5.5 -28.5t2.5 -46
q0 -44 -5 -66.5t-14 -33t-27 -18t-41.5 -13t-51 -8.5t-55.5 -3q-75 0 -130 19t-91 58.5t-53 99.5t-17 142v457h-107q-19 0 -29 23.5t-10 78.5q0 29 2.5 49t7.5 31.5t12.5 16.5t17.5 5h106v199q0 10 5.5 18t20 13.5t39 8t60.5 2.5q37 0 61.5 -2.5t38.5 -8t20 -13.5t6 -18
v-199h577zM829 1118q9 -14 11 -23.5t-6 -16t-28.5 -9.5t-54.5 -3q-29 0 -48 2t-31.5 6t-21 11t-17.5 16l-213 232q-10 11 -11 21t11 17.5t38.5 11.5t72.5 4q33 0 55.5 -2t37.5 -6.5t24.5 -12.5t17.5 -19zM1172 1118q9 -14 11 -23.5t-6 -16t-28.5 -9.5t-54.5 -3q-29 0 -48 2
t-31.5 6t-21 11t-17.5 16l-213 232q-10 11 -11 21t11 17.5t38.5 11.5t72.5 4q33 0 55.5 -2t37.5 -6.5t24.5 -12.5t17.5 -19zM329 960z" />
    <glyph glyph-name="t_uni020B.liga" unicode="t&#x20b;" horiz-adv-x="1199" 
d="M997 960q42 0 58.5 -18t16.5 -52v-856q0 -10 -6 -17.5t-20 -12.5t-38.5 -7.5t-60.5 -2.5q-37 0 -61.5 2.5t-38.5 7.5t-20 12.5t-6 17.5v722h-401v-419q0 -73 23 -109.5t82 -36.5q20 0 36 3.5t28.5 8t21 8t15.5 3.5q6 0 11.5 -3.5t8.5 -14t5.5 -28.5t2.5 -46
q0 -44 -5 -66.5t-14 -33t-27 -18t-41.5 -13t-51 -8.5t-55.5 -3q-75 0 -130 19t-91 58.5t-53 99.5t-17 142v457h-107q-19 0 -29 23.5t-10 78.5q0 29 2.5 49t7.5 31.5t12.5 16.5t17.5 5h106v199q0 10 5.5 18t20 13.5t39 8t60.5 2.5q37 0 61.5 -2.5t38.5 -8t20 -13.5t6 -18
v-199h577zM784 1125q-2 -19 -19.5 -29t-61.5 -10q-26 0 -43 2t-26.5 6t-13 11t-3.5 16q0 67 17.5 119t53 87.5t91 54t130.5 18.5q78 0 133 -18.5t90 -54t51.5 -87t16.5 -117.5q0 -20 -17 -28.5t-65 -8.5q-25 0 -41.5 2t-26.5 7t-14 12.5t-5 17.5q-3 27 -10 48.5t-21.5 37
t-36.5 23.5t-54 8q-29 0 -51 -7t-38 -21.5t-25 -36t-11 -52.5zM515 960z" />
    <glyph glyph-name="t_uni1E2D.liga" unicode="t&#x1e2d;" horiz-adv-x="1199" 
d="M997 960q42 0 58.5 -18t16.5 -52v-856q0 -10 -6 -17.5t-20 -12.5t-38.5 -7.5t-60.5 -2.5q-37 0 -61.5 2.5t-38.5 7.5t-20 12.5t-6 17.5v722h-401v-419q0 -73 23 -109.5t82 -36.5q20 0 36 3.5t28.5 8t21 8t15.5 3.5q6 0 11.5 -3.5t8.5 -14t5.5 -28.5t2.5 -46
q0 -44 -5 -66.5t-14 -33t-27 -18t-41.5 -13t-51 -8.5t-55.5 -3q-75 0 -130 19t-91 58.5t-53 99.5t-17 142v457h-107q-19 0 -29 23.5t-10 78.5q0 29 2.5 49t7.5 31.5t12.5 16.5t17.5 5h106v199q0 10 5.5 18t20 13.5t39 8t60.5 2.5q37 0 61.5 -2.5t38.5 -8t20 -13.5t6 -18
v-199h577zM1300 -153q0 -121 -57.5 -185.5t-159.5 -64.5q-39 0 -69 8t-54 21t-43.5 27.5t-37.5 27t-35.5 21t-37.5 8.5q-33 0 -47 -23.5t-14 -61.5q0 -9 -3.5 -14.5t-12 -8.5t-24 -4t-39.5 -1q-21 0 -35.5 1.5t-23 6t-12.5 12.5t-4 21q0 116 56 182.5t160 66.5
q57 0 96.5 -17.5t70 -39t56.5 -39t54 -17.5q30 0 46 21.5t16 63.5q0 17 15 22.5t61 5.5q45 0 61.5 -7.5t16.5 -32.5zM490 -529zM1092 1228q0 -76 -31 -105t-115 -29q-85 0 -114.5 28t-29.5 101q0 76 30.5 105.5t115.5 29.5q84 0 114 -28.5t30 -101.5zM695 960z" />
    <glyph glyph-name="t_uni1E2F.liga" unicode="t&#x1e2f;" horiz-adv-x="1199" 
d="M997 960q42 0 58.5 -18t16.5 -52v-856q0 -10 -6 -17.5t-20 -12.5t-38.5 -7.5t-60.5 -2.5q-37 0 -61.5 2.5t-38.5 7.5t-20 12.5t-6 17.5v722h-401v-419q0 -73 23 -109.5t82 -36.5q20 0 36 3.5t28.5 8t21 8t15.5 3.5q6 0 11.5 -3.5t8.5 -14t5.5 -28.5t2.5 -46
q0 -44 -5 -66.5t-14 -33t-27 -18t-41.5 -13t-51 -8.5t-55.5 -3q-75 0 -130 19t-91 58.5t-53 99.5t-17 142v457h-107q-19 0 -29 23.5t-10 78.5q0 29 2.5 49t7.5 31.5t12.5 16.5t17.5 5h106v199q0 10 5.5 18t20 13.5t39 8t60.5 2.5q37 0 61.5 -2.5t38.5 -8t20 -13.5t6 -18
v-199h577zM945 1619q7 11 15 19t21.5 12.5t35 6.5t54.5 2q46 0 71 -4t34.5 -11.5t7 -17.5t-11.5 -21l-169 -189q-8 -10 -14.5 -16.5t-17 -10.5t-28 -6t-46.5 -2q-47 0 -65 6t-18 17q0 6 3.5 13t9.5 16zM839 1227q0 -70 -26.5 -97.5t-100.5 -27.5q-75 0 -101 26.5t-26 93.5
q0 72 27 99t100 27q76 0 101.5 -26.5t25.5 -94.5zM1230 1227q0 -70 -26.5 -97.5t-101.5 -27.5q-74 0 -100 26.5t-26 93.5q0 72 26.5 99t100.5 27q75 0 101 -26.5t26 -94.5zM504 960z" />
    <glyph glyph-name="t_uni0268.liga" unicode="t&#x268;" horiz-adv-x="1199" 
d="M997 960q42 0 58.5 -18t16.5 -52v-856q0 -10 -6 -17.5t-20 -12.5t-38.5 -7.5t-60.5 -2.5q-37 0 -61.5 2.5t-38.5 7.5t-20 12.5t-6 17.5v722h-401v-419q0 -73 23 -109.5t82 -36.5q20 0 36 3.5t28.5 8t21 8t15.5 3.5q6 0 11.5 -3.5t8.5 -14t5.5 -28.5t2.5 -46
q0 -44 -5 -66.5t-14 -33t-27 -18t-41.5 -13t-51 -8.5t-55.5 -3q-75 0 -130 19t-91 58.5t-53 99.5t-17 142v457h-107q-19 0 -29 23.5t-10 78.5q0 29 2.5 49t7.5 31.5t12.5 16.5t17.5 5h106v199q0 10 5.5 18t20 13.5t39 8t60.5 2.5q37 0 61.5 -2.5t38.5 -8t20 -13.5t6 -18
v-199h577zM1092 1228q0 -76 -31 -105t-115 -29q-85 0 -114.5 28t-29.5 101q0 76 30.5 105.5t115.5 29.5q84 0 114 -28.5t30 -101.5zM695 960zM1192 599q19 0 29 -17t10 -69q0 -26 -2.5 -43t-7.5 -27t-12.5 -13.5t-16.5 -3.5h-506q-9 0 -16.5 3t-12.5 12.5t-7.5 26.5t-2.5 45
q0 52 10 69t29 17h506z" />
    <glyph glyph-name="t_t_uni01D0.liga" unicode="tt&#x1d0;" horiz-adv-x="1832" 
d="M420 756v-419q0 -73 23 -109.5t82 -36.5q20 0 36 3.5t28.5 8t21 8t15.5 3.5q6 0 11.5 -3.5t8.5 -14t5.5 -28.5t2.5 -46q0 -44 -5.5 -68t-15 -33t-26.5 -16.5t-40.5 -13t-51 -8.5t-55.5 -3q-75 0 -130 19t-91 58.5t-53 99.5t-17 142v457h-107q-19 0 -29 23.5t-10 78.5
q0 29 2.5 49t7.5 31.5t12.5 16.5t17.5 5h106v199q0 10 5.5 18t20 13.5t39 8t60.5 2.5q37 0 61.5 -2.5t38.5 -8t20 -13.5t6 -18v-199h383v247q0 10 5.5 18t20 13t39 8t60.5 3q37 0 61.5 -3t38.5 -8t20 -13t6 -18v-247h576q42 0 59 -18t17 -52v-856q0 -10 -6 -17.5t-20 -12.5
t-38.5 -7.5t-60.5 -2.5q-37 0 -61.5 2.5t-38.5 7.5t-20 12.5t-6 17.5v722h-401v-419q0 -73 22.5 -109.5t82.5 -36.5q20 0 36 3.5t28 8t21 8t16 3.5q6 0 11 -3.5t8.5 -14t6 -28.5t2.5 -46q0 -44 -5.5 -68t-15 -33t-26.5 -16.5t-40.5 -13t-51 -8.5t-54.5 -3q-76 0 -131 19
t-91 58.5t-53 99.5t-17 142v457h-383zM1629 1370q7 10 14 17t19 10.5t30.5 5t48.5 1.5q40 0 61 -3t28 -11t2 -20.5t-19 -31.5l-157 -223q-7 -9 -17 -15.5t-25 -10t-37 -5t-53 -1.5t-53 2t-36.5 6t-24 10t-14.5 14l-159 223q-13 19 -18 31.5t2 20.5t28.5 11t60.5 3
q32 0 50.5 -1.5t30 -5.5t17.5 -10.5t13 -16.5l103 -151zM1114 960z" />
    <glyph glyph-name="t_t_uni0209.liga" unicode="tt&#x209;" horiz-adv-x="1832" 
d="M420 756v-419q0 -73 23 -109.5t82 -36.5q20 0 36 3.5t28.5 8t21 8t15.5 3.5q6 0 11.5 -3.5t8.5 -14t5.5 -28.5t2.5 -46q0 -44 -5.5 -68t-15 -33t-26.5 -16.5t-40.5 -13t-51 -8.5t-55.5 -3q-75 0 -130 19t-91 58.5t-53 99.5t-17 142v457h-107q-19 0 -29 23.5t-10 78.5
q0 29 2.5 49t7.5 31.5t12.5 16.5t17.5 5h106v199q0 10 5.5 18t20 13.5t39 8t60.5 2.5q37 0 61.5 -2.5t38.5 -8t20 -13.5t6 -18v-199h383v247q0 10 5.5 18t20 13t39 8t60.5 3q37 0 61.5 -3t38.5 -8t20 -13t6 -18v-247h576q42 0 59 -18t17 -52v-856q0 -10 -6 -17.5t-20 -12.5
t-38.5 -7.5t-60.5 -2.5q-37 0 -61.5 2.5t-38.5 7.5t-20 12.5t-6 17.5v722h-401v-419q0 -73 22.5 -109.5t82.5 -36.5q20 0 36 3.5t28 8t21 8t16 3.5q6 0 11 -3.5t8.5 -14t6 -28.5t2.5 -46q0 -44 -5.5 -68t-15 -33t-26.5 -16.5t-40.5 -13t-51 -8.5t-54.5 -3q-76 0 -131 19
t-91 58.5t-53 99.5t-17 142v457h-383zM1441 1118q9 -14 11 -23.5t-6 -16t-28.5 -9.5t-54.5 -3q-29 0 -48 2t-31.5 6t-21 11t-17.5 16l-213 232q-10 11 -11 21t11 17.5t38.5 11.5t72.5 4q33 0 55.5 -2t37.5 -6.5t24.5 -12.5t17.5 -19zM1784 1118q9 -14 11 -23.5t-6 -16
t-28.5 -9.5t-54.5 -3q-29 0 -48 2t-31.5 6t-21 11t-17.5 16l-213 232q-10 11 -11 21t11 17.5t38.5 11.5t72.5 4q33 0 55.5 -2t37.5 -6.5t24.5 -12.5t17.5 -19zM941 960z" />
    <glyph glyph-name="t_t_uni020B.liga" unicode="tt&#x20b;" horiz-adv-x="1832" 
d="M420 756v-419q0 -73 23 -109.5t82 -36.5q20 0 36 3.5t28.5 8t21 8t15.5 3.5q6 0 11.5 -3.5t8.5 -14t5.5 -28.5t2.5 -46q0 -44 -5.5 -68t-15 -33t-26.5 -16.5t-40.5 -13t-51 -8.5t-55.5 -3q-75 0 -130 19t-91 58.5t-53 99.5t-17 142v457h-107q-19 0 -29 23.5t-10 78.5
q0 29 2.5 49t7.5 31.5t12.5 16.5t17.5 5h106v199q0 10 5.5 18t20 13.5t39 8t60.5 2.5q37 0 61.5 -2.5t38.5 -8t20 -13.5t6 -18v-199h383v247q0 10 5.5 18t20 13t39 8t60.5 3q37 0 61.5 -3t38.5 -8t20 -13t6 -18v-247h576q42 0 59 -18t17 -52v-856q0 -10 -6 -17.5t-20 -12.5
t-38.5 -7.5t-60.5 -2.5q-37 0 -61.5 2.5t-38.5 7.5t-20 12.5t-6 17.5v722h-401v-419q0 -73 22.5 -109.5t82.5 -36.5q20 0 36 3.5t28 8t21 8t16 3.5q6 0 11 -3.5t8.5 -14t6 -28.5t2.5 -46q0 -44 -5.5 -68t-15 -33t-26.5 -16.5t-40.5 -13t-51 -8.5t-54.5 -3q-76 0 -131 19
t-91 58.5t-53 99.5t-17 142v457h-383zM1396 1125q-2 -19 -19.5 -29t-61.5 -10q-26 0 -43 2t-26.5 6t-13 11t-3.5 16q0 67 17.5 119t53 87.5t91 54t130.5 18.5q78 0 133 -18.5t90 -54t51.5 -87t16.5 -117.5q0 -20 -17 -28.5t-65 -8.5q-25 0 -41.5 2t-26.5 7t-14 12.5t-5 17.5
q-3 27 -10 48.5t-21.5 37t-36.5 23.5t-54 8q-29 0 -51 -7t-38 -21.5t-25 -36t-11 -52.5zM1127 960z" />
    <glyph glyph-name="t_t_uni1E2D.liga" unicode="tt&#x1e2d;" horiz-adv-x="1832" 
d="M420 756v-419q0 -73 23 -109.5t82 -36.5q20 0 36 3.5t28.5 8t21 8t15.5 3.5q6 0 11.5 -3.5t8.5 -14t5.5 -28.5t2.5 -46q0 -44 -5.5 -68t-15 -33t-26.5 -16.5t-40.5 -13t-51 -8.5t-55.5 -3q-75 0 -130 19t-91 58.5t-53 99.5t-17 142v457h-107q-19 0 -29 23.5t-10 78.5
q0 29 2.5 49t7.5 31.5t12.5 16.5t17.5 5h106v199q0 10 5.5 18t20 13.5t39 8t60.5 2.5q37 0 61.5 -2.5t38.5 -8t20 -13.5t6 -18v-199h383v247q0 10 5.5 18t20 13t39 8t60.5 3q37 0 61.5 -3t38.5 -8t20 -13t6 -18v-247h576q42 0 59 -18t17 -52v-856q0 -10 -6 -17.5t-20 -12.5
t-38.5 -7.5t-60.5 -2.5q-37 0 -61.5 2.5t-38.5 7.5t-20 12.5t-6 17.5v722h-401v-419q0 -73 22.5 -109.5t82.5 -36.5q20 0 36 3.5t28 8t21 8t16 3.5q6 0 11 -3.5t8.5 -14t6 -28.5t2.5 -46q0 -44 -5.5 -68t-15 -33t-26.5 -16.5t-40.5 -13t-51 -8.5t-54.5 -3q-76 0 -131 19
t-91 58.5t-53 99.5t-17 142v457h-383zM1933 -153q0 -121 -57.5 -185.5t-159.5 -64.5q-39 0 -69 8t-54 21t-43.5 27.5t-37.5 27t-35.5 21t-37.5 8.5q-33 0 -47 -23.5t-14 -61.5q0 -9 -3.5 -14.5t-12 -8.5t-24 -4t-39.5 -1q-21 0 -35.5 1.5t-23 6t-12.5 12.5t-4 21
q0 116 56 182.5t160 66.5q57 0 96.5 -17.5t70 -39t56.5 -39t54 -17.5q30 0 46 21.5t16 63.5q0 17 15 22.5t61 5.5q45 0 61.5 -7.5t16.5 -32.5zM1123 -529zM1726 1228q0 -76 -31 -105t-115 -29q-85 0 -114.5 28t-29.5 101q0 76 30.5 105.5t115.5 29.5q84 0 114 -28.5
t30 -101.5zM1329 960z" />
    <glyph glyph-name="t_t_uni1E2F.liga" unicode="tt&#x1e2f;" horiz-adv-x="1832" 
d="M420 756v-419q0 -73 23 -109.5t82 -36.5q20 0 36 3.5t28.5 8t21 8t15.5 3.5q6 0 11.5 -3.5t8.5 -14t5.5 -28.5t2.5 -46q0 -44 -5.5 -68t-15 -33t-26.5 -16.5t-40.5 -13t-51 -8.5t-55.5 -3q-75 0 -130 19t-91 58.5t-53 99.5t-17 142v457h-107q-19 0 -29 23.5t-10 78.5
q0 29 2.5 49t7.5 31.5t12.5 16.5t17.5 5h106v199q0 10 5.5 18t20 13.5t39 8t60.5 2.5q37 0 61.5 -2.5t38.5 -8t20 -13.5t6 -18v-199h383v247q0 10 5.5 18t20 13t39 8t60.5 3q37 0 61.5 -3t38.5 -8t20 -13t6 -18v-247h576q42 0 59 -18t17 -52v-856q0 -10 -6 -17.5t-20 -12.5
t-38.5 -7.5t-60.5 -2.5q-37 0 -61.5 2.5t-38.5 7.5t-20 12.5t-6 17.5v722h-401v-419q0 -73 22.5 -109.5t82.5 -36.5q20 0 36 3.5t28 8t21 8t16 3.5q6 0 11 -3.5t8.5 -14t6 -28.5t2.5 -46q0 -44 -5.5 -68t-15 -33t-26.5 -16.5t-40.5 -13t-51 -8.5t-54.5 -3q-76 0 -131 19
t-91 58.5t-53 99.5t-17 142v457h-383zM1558 1619q7 11 15 19t21.5 12.5t35 6.5t54.5 2q46 0 71 -4t34.5 -11.5t7 -17.5t-11.5 -21l-169 -189q-8 -10 -14.5 -16.5t-17 -10.5t-28 -6t-46.5 -2q-47 0 -65 6t-18 17q0 6 3.5 13t9.5 16zM1452 1227q0 -70 -26.5 -97.5
t-100.5 -27.5q-75 0 -101 26.5t-26 93.5q0 72 27 99t100 27q76 0 101.5 -26.5t25.5 -94.5zM1843 1227q0 -70 -26.5 -97.5t-101.5 -27.5q-74 0 -100 26.5t-26 93.5q0 72 26.5 99t100.5 27q75 0 101 -26.5t26 -94.5zM1117 960z" />
    <glyph glyph-name="t_t_uni0268.liga" unicode="tt&#x268;" horiz-adv-x="1832" 
d="M420 756v-419q0 -73 23 -109.5t82 -36.5q20 0 36 3.5t28.5 8t21 8t15.5 3.5q6 0 11.5 -3.5t8.5 -14t5.5 -28.5t2.5 -46q0 -44 -5.5 -68t-15 -33t-26.5 -16.5t-40.5 -13t-51 -8.5t-55.5 -3q-75 0 -130 19t-91 58.5t-53 99.5t-17 142v457h-107q-19 0 -29 23.5t-10 78.5
q0 29 2.5 49t7.5 31.5t12.5 16.5t17.5 5h106v199q0 10 5.5 18t20 13.5t39 8t60.5 2.5q37 0 61.5 -2.5t38.5 -8t20 -13.5t6 -18v-199h383v247q0 10 5.5 18t20 13t39 8t60.5 3q37 0 61.5 -3t38.5 -8t20 -13t6 -18v-247h576q42 0 59 -18t17 -52v-856q0 -10 -6 -17.5t-20 -12.5
t-38.5 -7.5t-60.5 -2.5q-37 0 -61.5 2.5t-38.5 7.5t-20 12.5t-6 17.5v722h-401v-419q0 -73 22.5 -109.5t82.5 -36.5q20 0 36 3.5t28 8t21 8t16 3.5q6 0 11 -3.5t8.5 -14t6 -28.5t2.5 -46q0 -44 -5.5 -68t-15 -33t-26.5 -16.5t-40.5 -13t-51 -8.5t-54.5 -3q-76 0 -131 19
t-91 58.5t-53 99.5t-17 142v457h-383zM1679 1228q0 -76 -31 -105t-115 -29q-85 0 -114.5 28t-29.5 101q0 76 30.5 105.5t115.5 29.5q84 0 114 -28.5t30 -101.5zM1282 960zM1836 599q19 0 29 -17t10 -69q0 -26 -2.5 -43t-7.5 -27t-12.5 -13.5t-16.5 -3.5h-506q-9 0 -16.5 3
t-12.5 12.5t-7.5 26.5t-2.5 45q0 52 10 69t29 17h506z" />
    <glyph glyph-name="f_f_uni0237.liga" unicode="ff&#x237;" horiz-adv-x="1718" 
d="M757 1039q0 91 19 159t57 113.5t96 68t137 22.5q22 0 45.5 -2t43 -6t34 -9t20 -10.5t9 -12.5t6 -18t3.5 -28.5t1 -43.5q0 -48 -6 -67.5t-21 -19.5q-7 0 -14 2l-17.5 5t-24.5 5.5t-34 2.5q-54 0 -78.5 -36t-24.5 -119v-85h507q38 0 57.5 -16.5t19.5 -52.5v-911
q0 -79 -15.5 -142.5t-50.5 -108.5t-92.5 -69.5t-140.5 -24.5q-24 0 -46 2t-42 6.5t-34.5 10t-20.5 11t-9.5 13t-5.5 18.5t-3 26t-1 37q0 28 1.5 47.5t5.5 31t9.5 16t12.5 4.5t14 -2.5t16.5 -5t22.5 -5t33 -2.5q21 0 38.5 7.5t30 24.5t19 44.5t6.5 69.5v767h-332v-722
q0 -10 -6 -17.5t-20 -12.5t-38.5 -7.5t-60.5 -2.5q-37 0 -61.5 2.5t-38.5 7.5t-20 12.5t-6 17.5v722h-331v-722q0 -10 -6 -17.5t-20 -12.5t-38.5 -7.5t-61.5 -2.5q-36 0 -60.5 2.5t-39 7t-20 12t-5.5 17.5v723h-112q-19 0 -28.5 23.5t-9.5 78.5q0 29 2.5 49t7 31.5t12 16.5
t17.5 5h111v66q0 90 18.5 158t57 113.5t97 68.5t138.5 23q44 0 79 -7.5t53.5 -14t25.5 -13t11.5 -19t6.5 -32t2 -48.5q0 -49 -6.5 -69t-21.5 -20q-7 0 -16 3l-21 7t-28.5 7.5t-36.5 3.5q-58 0 -83 -36.5t-25 -119.5v-71h331v79z" />
    <glyph glyph-name=".notdef" horiz-adv-x="1038" 
d="M987 1294v-1294h-945v1294h945zM879 101v1092h-732v-1092h732zM780 845q0 -57 -16.5 -101t-46 -75t-71 -49t-90.5 -24l-5 -121q-1 -13 -22.5 -18.5t-58.5 -5.5q-23 0 -38.5 1t-25 3.5t-13.5 7t-4 12.5l-8 157q-3 40 12.5 55t45.5 15h13q37 0 62.5 10.5t41.5 28.5
t23.5 42.5t7.5 52.5q0 61 -37.5 98.5t-114.5 37.5q-35 0 -62 -6.5t-47 -14t-33 -14t-18 -6.5q-4 0 -8 2.5t-7 9.5t-4.5 20.5t-1.5 36.5q0 26 2.5 40t10.5 21q7 8 26.5 16.5t46.5 15.5t60 12t68 5q85 0 144.5 -21t96.5 -57t54 -84.5t17 -102.5zM574 284q0 -26 -5 -44.5
t-17 -30t-31.5 -16.5t-47.5 -5q-29 0 -48.5 5t-31.5 16.5t-17 30t-5 44.5q0 28 5 46.5t17 30.5t31.5 17t48.5 5q28 0 47.5 -5t31.5 -17t17 -30.5t5 -46.5zM0 -397z" />
    <glyph glyph-name="glyph1" 
 />
    <glyph glyph-name="glyph1" 
 />
    <glyph glyph-name="glyph2" 
 />
    <glyph glyph-name="uni0009" unicode="&#x9;" horiz-adv-x="463" 
 />
    <glyph glyph-name="uni0009" unicode="&#xa0;" horiz-adv-x="463" 
 />
    <glyph glyph-name="uni0009" unicode=" " horiz-adv-x="463" 
 />
    <glyph glyph-name="uni0009" unicode="&#xd;" horiz-adv-x="463" 
 />
    <glyph glyph-name="exclam" unicode="!" horiz-adv-x="667" 
d="M481 424q-1 -10 -6 -18t-17.5 -13.5t-34 -8.5t-52.5 -3q-32 0 -53 3t-33.5 8.5t-17.5 13.5t-6 18l-26 908q0 13 6 23t21.5 16.5t42 9.5t66.5 3t66 -3.5t41.5 -10t22 -16t6.5 -22.5zM512 131q0 -41 -6.5 -69t-23 -45t-43.5 -24.5t-68 -7.5t-68.5 7.5t-43.5 24.5t-22.5 45
t-6.5 69q0 42 6.5 70.5t22.5 46t43.5 25t68.5 7.5t68 -7.5t43.5 -25t23 -46t6.5 -70.5z" />
    <glyph glyph-name="quotedbl" unicode="&#x22;" horiz-adv-x="898" 
d="M707 910q0 -10 -4.5 -18t-15 -13t-27.5 -8t-43 -3q-27 0 -44.5 3t-27.5 8t-14.5 13t-4.5 18l-24 447q0 10 6 18t19.5 13.5t35.5 8t54 2.5t54 -2.5t35.5 -8t18.5 -13.5t5 -18zM326 910q0 -10 -4.5 -18t-14.5 -13t-27.5 -8t-43.5 -3q-27 0 -44 3t-27.5 8t-14.5 13t-5 18
l-23 447q-1 10 5 18t19.5 13.5t35.5 8t54 2.5q65 0 89.5 -10.5t24.5 -31.5z" />
    <glyph glyph-name="numbersign" unicode="#" horiz-adv-x="1020" 
d="M991 886q0 -24 -3 -40.5t-8 -26.5t-12.5 -14.5t-15.5 -4.5h-114l-34 -285h98q17 0 27.5 -19.5t10.5 -65.5q0 -24 -3 -41t-8 -27t-12.5 -14.5t-15.5 -4.5h-119l-37 -313q-1 -9 -5.5 -15.5t-16 -11.5t-31 -7t-49.5 -2q-32 0 -51.5 2t-29.5 7t-13.5 11.5t-2.5 15.5l38 313
h-224l-37 -313q-1 -8 -5.5 -15t-15.5 -12t-30.5 -7t-51.5 -2q-31 0 -50 2t-29.5 7t-14 11.5t-1.5 15.5l36 313h-95q-17 0 -27.5 19t-10.5 66q0 24 3 41t8 27t12 14.5t16 4.5h116l34 285h-101q-17 0 -27.5 19t-10.5 66q0 48 11 67t28 19h120l36 292q0 9 5 15.5t17 11.5
t32 7.5t51 2.5t50 -2.5t29 -7.5t12.5 -11.5t2.5 -14.5l-37 -293h224l34 292q1 8 6 15t16.5 12t31.5 7.5t52 2.5q31 0 50 -2.5t29 -7.5t12.5 -11.5t1.5 -14.5l-35 -293h96q17 0 27.5 -19.5t10.5 -65.5zM415 800l-34 -285h223l35 285h-224z" />
    <glyph glyph-name="dollar" unicode="$" horiz-adv-x="1038" 
d="M951 393q0 -86 -30.5 -155t-86.5 -119t-135 -80t-175 -38l-21 -214q-1 -8 -4.5 -14t-13 -10t-26 -6.5t-41.5 -2.5q-32 0 -51.5 3t-30.5 8.5t-14.5 14.5t-1.5 20l21 203q-43 6 -81 15.5t-69 21t-53.5 23.5t-34 23.5t-16.5 34t-5 66.5q0 34 2 56t7 34t12.5 16.5t17.5 4.5
q13 0 38 -15t64 -33t94.5 -33t130.5 -15q117 0 174 43.5t57 115.5q0 48 -24.5 79t-65.5 54.5t-92.5 42t-105.5 39.5t-105.5 49t-92.5 69t-65.5 99.5t-24.5 141.5q0 75 25 136.5t72 107.5t115.5 74.5t155.5 38.5l20 201q1 8 4.5 13.5t13 10t25.5 6.5t42 2q31 0 51.5 -3
t31.5 -8.5t14 -14.5t3 -20l-20 -189q28 -4 59 -11t58 -16.5t49 -20t30.5 -19t13 -17t7 -21t3.5 -30t1 -40.5q0 -31 -1.5 -51t-5.5 -30.5t-9 -14t-12 -3.5q-13 0 -38 13t-61.5 28t-84 28t-104.5 13q-52 0 -89 -10t-60 -28t-34 -43t-11 -55q0 -47 25 -79t66.5 -55t94 -42
t107 -40t107 -48.5t93.5 -68t66 -98t25 -138.5z" />
    <glyph glyph-name="percent" unicode="%" horiz-adv-x="1493" 
d="M656 976q0 -79 -17.5 -142.5t-54.5 -108.5t-94.5 -70t-137.5 -25q-85 0 -142 25t-91 69.5t-48 106.5t-14 137t17 137.5t53.5 108.5t94 71.5t138.5 25.5q89 0 146.5 -27t90.5 -73t46 -107t13 -128zM458 969q0 55 -6 93.5t-18 62.5t-32 35t-47 11q-25 0 -44 -10.5
t-31.5 -34t-18.5 -61t-6 -91.5q0 -62 7 -101.5t20 -62t32 -31t44 -8.5q29 0 48 11.5t30.5 35.5t16.5 61.5t5 89.5zM1436 329q0 -79 -17.5 -142.5t-54.5 -108.5t-94.5 -70t-137.5 -25q-85 0 -142 25t-91 69.5t-48 106.5t-14 137t17 137.5t53.5 108.5t94 71.5t138.5 25.5
q89 0 146.5 -27t90.5 -73t46 -107t13 -128zM1238 322q0 55 -6 93.5t-18 62.5t-32 35t-47 11q-25 0 -44 -10.5t-31.5 -34t-18.5 -61t-6 -91.5q0 -62 7 -101.5t20 -62t32 -31t44 -8.5q29 0 48 11.5t30.5 35.5t16.5 61.5t5 89.5zM383 7q-9 -12 -18.5 -19.5t-23.5 -12.5t-34 -7
t-49 -2q-33 0 -52.5 4t-28 12t-7 18.5t12.5 25.5l922 1263q9 11 18 19t23.5 13t34.5 7t49 2q33 0 52.5 -4t28 -12t6.5 -19t-12 -25z" />
    <glyph glyph-name="ampersand" unicode="&#x26;" horiz-adv-x="1443" 
d="M82 361q0 56 16.5 105.5t49.5 93.5t81.5 84t112.5 78q-36 46 -62.5 86.5t-44 77.5t-26 70.5t-8.5 66.5q0 70 25 131.5t78 106.5t135 71.5t197 26.5q105 0 181 -20t125 -56.5t73 -90t24 -120.5q0 -60 -20.5 -111t-62 -97t-103.5 -88.5t-145 -85.5q27 -31 60.5 -65.5
t69 -69t71.5 -68.5t70 -63q13 20 23.5 46t18 55t12 59t4.5 59v31q0 11 4 19t16.5 13t36 7.5t60.5 2.5q35 0 58 -1.5t36.5 -6.5t19 -13.5t5.5 -21.5v-32q0 -48 -7 -97t-20.5 -95.5t-33.5 -89t-44 -79.5q35 -27 60.5 -45t43.5 -28.5t30 -14.5t20 -4h20.5t15.5 -7t9 -25t3 -53
q0 -37 -1.5 -58t-5 -31t-12 -16.5t-28.5 -12t-48 -5.5q-22 0 -45.5 5.5t-54.5 21t-72 41t-95 65.5q-47 -32 -97 -57.5t-104.5 -42.5t-112.5 -26t-124 -9q-65 0 -127 10t-116.5 30.5t-99.5 51.5t-77 73.5t-50 97t-18 120.5zM466 1036q0 -21 7 -43.5t19.5 -47t31.5 -52
t43 -59.5q59 32 98.5 59t63.5 52.5t34 51t10 52.5q0 24 -9 45t-28 36.5t-47 24.5t-66 9q-42 0 -71.5 -9.5t-48.5 -27t-28 -41t-9 -50.5zM354 375q0 -43 16 -79t46 -62t74.5 -40.5t102.5 -14.5q30 0 59.5 5.5t58 15t54 23t47.5 29.5q-45 36 -90.5 76.5t-88.5 81.5t-82.5 81.5
t-70.5 76.5q-35 -22 -58.5 -45.5t-38.5 -47.5t-22 -49t-7 -51zM0 1294z" />
    <glyph glyph-name="quotesingle" unicode="'" horiz-adv-x="478" 
d="M332 910q0 -11 -5 -19t-16 -13t-28.5 -7.5t-43.5 -2.5q-27 0 -44.5 3t-28.5 8t-15.5 13t-5.5 18l-23 447q-1 10 5.5 18t20.5 13.5t36.5 8t54.5 2.5q33 0 55 -2.5t36 -7.5t20 -13t5 -19z" />
    <glyph glyph-name="parenleft" unicode="(" horiz-adv-x="638" 
d="M535 1368q-84 -195 -127 -402.5t-43 -425.5q0 -219 43.5 -425.5t125.5 -404.5q6 -16 6 -27.5t-11 -19.5t-33.5 -12t-62.5 -4q-28 0 -48 2t-33.5 5.5t-21 9t-10.5 12.5q-54 104 -94 209.5t-66.5 213t-39.5 217t-13 222.5q0 112 13.5 221.5t40.5 217t66.5 213.5t92.5 211
q2 5 8 9t18 7.5t32.5 5t52.5 1.5q36 0 59 -3.5t35 -10.5t13.5 -18t-3.5 -24z" />
    <glyph glyph-name="parenright" unicode=")" horiz-adv-x="638" 
d="M530 538q0 -113 -13 -222.5t-39.5 -217t-66 -213t-93.5 -209.5q-3 -7 -10.5 -12.5t-21 -9t-33.5 -5.5t-48 -2q-41 0 -63.5 4t-33.5 12t-11 19.5t6 27.5q83 196 126.5 403.5t43.5 426.5q0 218 -43 425.5t-128 402.5q-5 13 -3.5 24t14 18t35 10.5t59.5 3.5q31 0 51 -1.5
t33 -5t18.5 -7.5t8.5 -9q104 -210 158 -424.5t54 -438.5z" />
    <glyph glyph-name="asterisk" unicode="*" horiz-adv-x="1020" 
d="M859 939q20 -7 18.5 -31t-30.5 -74t-49 -62.5t-36 0.5l-199 159l40 -251q5 -21 -17 -32t-80 -11t-80 11t-17 32l40 251l-199 -159q-15 -13 -35 0t-50 63q-29 49 -30 73t18 31l238 92l-238 92q-19 7 -18 31t30 74t49.5 63t35.5 -1l199 -159l-40 251q-5 20 17 31.5t80 11.5
t80 -11.5t17 -31.5l-40 -251l199 159q16 14 35.5 0.5t49.5 -63.5q29 -49 30.5 -73t-18.5 -31l-237 -92z" />
    <glyph glyph-name="plus" unicode="+" horiz-adv-x="1020" 
d="M968 575q0 -28 -3 -47t-9 -30.5t-14 -16.5t-17 -5h-311v-339q0 -10 -5 -17.5t-17 -13t-32 -8.5t-50 -3t-50 3t-32 8.5t-17.5 13t-5.5 17.5v339h-310q-9 0 -16.5 5t-13.5 16.5t-9.5 30.5t-3.5 47q0 27 3 46.5t8.5 31t12.5 16.5t16 5h313v338q0 10 5.5 18.5t17.5 14t32 8.5
t50 3t50 -3t32 -8.5t17 -14t5 -18.5v-338h314q8 0 15.5 -5t13 -16.5t8.5 -31t3 -46.5z" />
    <glyph glyph-name="comma" unicode="," horiz-adv-x="528" 
d="M422 184q0 -40 -4 -72.5t-13 -61.5t-23 -56.5t-35 -56.5l-134 -192q-7 -10 -15.5 -17t-20.5 -11t-29 -6.5t-43 -2.5q-29 0 -47 2.5t-26 7.5t-8.5 13t4.5 19l122 276v158q0 34 8 55t25 32t43 14.5t63 3.5q35 0 60 -3.5t41.5 -14.5t24 -32t7.5 -55z" />
    <glyph glyph-name="hyphen" unicode="-" horiz-adv-x="627" 
d="M568 503q0 -58 -11 -81t-35 -23h-416q-25 0 -36 23.5t-11 80.5q0 56 11 79t36 23h416q12 0 20.5 -5t14.5 -17t8.5 -32t2.5 -48z" />
    <glyph glyph-name="hyphen" unicode="&#x2010;" horiz-adv-x="627" 
d="M568 503q0 -58 -11 -81t-35 -23h-416q-25 0 -36 23.5t-11 80.5q0 56 11 79t36 23h416q12 0 20.5 -5t14.5 -17t8.5 -32t2.5 -48z" />
    <glyph glyph-name="hyphen" unicode="&#xad;" horiz-adv-x="627" 
d="M568 503q0 -58 -11 -81t-35 -23h-416q-25 0 -36 23.5t-11 80.5q0 56 11 79t36 23h416q12 0 20.5 -5t14.5 -17t8.5 -32t2.5 -48z" />
    <glyph glyph-name="period" unicode="." horiz-adv-x="547" 
d="M422 144q0 -93 -32.5 -125t-116.5 -32t-116 31.5t-32 119.5q0 94 32.5 126t117.5 32q83 0 115 -31.5t32 -120.5z" />
    <glyph glyph-name="slash" unicode="/" horiz-adv-x="880" 
d="M252 -259q-5 -13 -13 -21t-22.5 -13t-36 -7.5t-54.5 -2.5q-41 0 -67 4t-39.5 12t-15.5 20.5t4 29.5l598 1679q4 13 12 21.5t22 13.5t36.5 7.5t54.5 2.5q42 0 67.5 -4t38.5 -12t15 -20.5t-3 -29.5z" />
    <glyph glyph-name="zero" unicode="0" horiz-adv-x="1038" 
d="M982 652q0 -155 -25 -280t-81.5 -213t-147 -135t-221.5 -47q-133 0 -220 45.5t-138 131t-71.5 209t-20.5 279.5q0 154 25.5 279.5t82 213.5t147 135t220.5 47q133 0 220.5 -45.5t138.5 -131t71 -209t20 -279.5zM717 639q0 92 -5 162.5t-15.5 122.5t-26 88t-37.5 57.5
t-50 30.5t-62 9q-59 0 -97.5 -28.5t-61 -85.5t-31.5 -142t-9 -198q0 -138 11 -228.5t34.5 -144t60.5 -75t89 -21.5q39 0 69 12.5t52.5 37.5t37.5 63t24.5 88t13 113t3.5 139z" />
    <glyph glyph-name="one" unicode="1" horiz-adv-x="1038" 
d="M944 100q0 -28 -3 -47.5t-8.5 -31t-12.5 -16.5t-16 -5h-714q-8 0 -15 5t-12.5 16.5t-8.5 31t-3 47.5q0 29 2.5 48.5t8 31.5t12.5 17.5t16 5.5h241v842l-208 -115q-23 -11 -37.5 -13.5t-23 6t-11.5 29.5t-3 59q0 24 1 39.5t5 26.5t11 18t19 15l278 180q5 4 12.5 6.5
t19.5 4t31.5 2t50.5 0.5q38 0 61.5 -1.5t35.5 -5t16 -9.5t4 -15v-1069h211q9 0 16.5 -5.5t13 -17.5t8 -31.5t2.5 -48.5z" />
    <glyph glyph-name="two" unicode="2" horiz-adv-x="1038" 
d="M956 107q0 -29 -2.5 -49.5t-7.5 -33.5t-13 -18.5t-18 -5.5h-744q-22 0 -38 4t-26 15.5t-14.5 33.5t-4.5 57q0 33 3 56.5t11 42t20.5 36t32.5 38.5l224 240q67 70 108 127.5t64 105t31.5 87.5t8.5 76q0 33 -10.5 62.5t-31 51.5t-51.5 34.5t-73 12.5q-59 0 -104.5 -15
t-80 -33.5t-57.5 -34t-36 -15.5q-9 0 -15.5 6t-10.5 20t-6.5 37.5t-2.5 57.5q0 23 1.5 38.5t4.5 27t8 20t17.5 20.5t46 30.5t82.5 36t108 29.5t123 12q101 0 176.5 -25.5t125.5 -71t74.5 -108t24.5 -134.5q0 -63 -12 -124t-50 -131.5t-107 -156t-183 -198.5l-151 -155h510
q10 0 18.5 -6t14.5 -18.5t9 -33t3 -48.5z" />
    <glyph glyph-name="three" unicode="3" horiz-adv-x="1038" 
d="M950 379q0 -97 -37 -172t-103 -126t-158 -77.5t-201 -26.5q-66 0 -124 9.5t-102.5 23.5t-73.5 29t-38 23t-13.5 18t-8 23.5t-5 34t-1.5 49.5q0 48 8 66.5t24 18.5q10 0 34.5 -13.5t62.5 -29t89 -29t116 -13.5q55 0 97 13t71.5 36.5t44 57t14.5 74.5q0 45 -17.5 81
t-52 61.5t-87 39.5t-123.5 14h-112q-13 0 -22 3.5t-15 14.5t-8.5 30.5t-2.5 50.5q0 29 2.5 47.5t8 28.5t14 14t20.5 4h113q58 0 103 13.5t75.5 38.5t46.5 60.5t16 78.5q0 33 -11 62.5t-32.5 51t-55.5 34t-80 12.5q-52 0 -98 -15.5t-82.5 -34t-62 -34.5t-37.5 -16
q-8 0 -14 3.5t-10 13.5t-6 29t-2 49q0 25 1 41.5t4 27.5t7.5 19t14.5 17.5t41 28.5t78 37t108.5 30.5t133.5 12.5q94 0 166.5 -22t122 -63.5t75 -102t25.5 -136.5q0 -59 -15 -110t-44 -91t-72.5 -68t-100.5 -42v-3q68 -8 122 -34.5t91.5 -66.5t57.5 -90.5t20 -108.5z" />
    <glyph glyph-name="four" unicode="4" horiz-adv-x="1038" 
d="M996 372q0 -51 -10.5 -77.5t-28.5 -26.5h-115v-234q0 -10 -6 -17.5t-21 -12.5t-39 -7.5t-62 -2.5q-36 0 -60.5 2.5t-39 7.5t-20 12.5t-5.5 17.5v234h-495q-14 0 -25 3.5t-18.5 16t-11 36t-3.5 62.5q0 32 1.5 55.5t5 42.5t10 36t16.5 36l402 709q5 9 17 15.5t33.5 11
t54.5 6.5t80 2q51 0 87 -2.5t57.5 -8t31.5 -13.5t10 -19v-779h115q16 0 27.5 -24.5t11.5 -81.5zM589 1073h-2l-341 -595h343v595z" />
    <glyph glyph-name="five" unicode="5" horiz-adv-x="1038" 
d="M944 420q0 -105 -36.5 -187.5t-103 -139t-160 -86.5t-207.5 -30q-60 0 -114 7.5t-97 19t-70.5 23t-36 19t-12.5 16.5t-6.5 21.5t-3.5 31.5t-1 45q0 28 2 47.5t6.5 31.5t10.5 17t14 5q10 0 30.5 -11.5t54 -25.5t81.5 -25.5t115 -11.5q58 0 105.5 12t80.5 38.5t51 66.5
t18 96q0 48 -15 85.5t-47 63.5t-83 39t-124 13q-58 0 -105.5 -6t-89.5 -6q-29 0 -41.5 14.5t-12.5 53.5v562q0 40 15.5 57.5t49.5 17.5h613q9 0 17 -6t13.5 -19t8 -34.5t2.5 -51.5q0 -60 -10.5 -87t-30.5 -27h-460v-277q35 4 69.5 5t72.5 1q105 0 186.5 -24.5t137 -72
t84.5 -118t29 -163.5z" />
    <glyph glyph-name="six" unicode="6" horiz-adv-x="1038" 
d="M976 432q0 -98 -30 -181.5t-88 -144t-143 -95t-196 -34.5q-90 0 -157 20.5t-116 59t-80 93.5t-49.5 124t-25.5 150t-7 172q0 76 7.5 159t29 163t60.5 152.5t100.5 127t149 86.5t207.5 32q38 0 76.5 -4.5t71.5 -11.5t56 -16t30.5 -15.5t11.5 -14.5t6.5 -17.5t3.5 -23.5
t1 -34q0 -31 -1.5 -51.5t-5.5 -32t-11 -16.5t-17 -5q-12 0 -31 6.5t-46 14.5t-63.5 14t-84.5 6q-81 0 -137 -30t-91 -81.5t-51 -119.5t-17 -144q22 14 50.5 28t62 24t72.5 16.5t83 6.5q98 0 168 -27t114.5 -77t65.5 -121t21 -158zM718 407q0 51 -9 89.5t-29 65t-53 40
t-80 13.5q-28 0 -55 -5t-53 -14t-50 -21.5t-45 -26.5q0 -107 12 -178.5t35.5 -113.5t59 -59.5t82.5 -17.5q46 0 80.5 17t57.5 48t35 72.5t12 90.5z" />
    <glyph glyph-name="seven" unicode="7" horiz-adv-x="1038" 
d="M955 1183q0 -29 -2 -50.5t-5.5 -40t-9.5 -35t-14 -35.5l-426 -987q-6 -13 -15.5 -21t-26.5 -12.5t-43.5 -6t-65.5 -1.5q-53 0 -84 3.5t-45.5 11t-15.5 19t7 28.5l458 1010h-544q-21 0 -31.5 27.5t-10.5 87.5q0 30 3 51.5t8.5 35.5t13 20t17.5 6h769q18 0 30 -3.5
t19 -15.5t10.5 -34t3.5 -58z" />
    <glyph glyph-name="eight" unicode="8" horiz-adv-x="1038" 
d="M976 347q0 -88 -30.5 -157t-90 -116.5t-147.5 -72t-203 -24.5q-110 0 -193 22t-139 64.5t-84 105t-28 143.5q0 55 16.5 103.5t49 90t81 78t111.5 69.5q-51 28 -92 60.5t-70 71t-44 84.5t-15 100q0 78 27.5 141.5t82 110t136.5 71.5t190 25q107 0 183.5 -23t125.5 -65
t72.5 -100.5t23.5 -129.5q0 -47 -15.5 -91.5t-43.5 -84.5t-69 -75.5t-93 -64.5q61 -32 109 -68t81 -77.5t50.5 -88.5t17.5 -102zM686 975q0 35 -10 63t-31.5 47.5t-53 29.5t-74.5 10q-84 0 -125 -38.5t-41 -106.5q0 -32 10.5 -59t32.5 -51t57 -47t83 -49q73 43 112.5 92
t39.5 109zM716 329q0 37 -12.5 67.5t-39 57.5t-66.5 52t-93 51q-46 -25 -81 -50t-58 -52.5t-34.5 -58t-11.5 -65.5q0 -78 50.5 -119t150.5 -41q98 0 146.5 42t48.5 116z" />
    <glyph glyph-name="nine" unicode="9" horiz-adv-x="1038" 
d="M959 706q0 -79 -8 -163.5t-30.5 -165.5t-62 -154t-102 -127.5t-152 -86.5t-211.5 -32q-43 0 -85.5 6t-77.5 15t-59.5 19t-35.5 20.5t-16 30.5t-5 56q0 33 1.5 53t6 31t11 14.5t15.5 3.5q12 0 34 -7t53.5 -16t71.5 -16t89 -7q84 0 142 30t94 81t53 118t19 141
q-46 -29 -111 -50.5t-149 -21.5q-103 0 -175 27t-117 78t-65.5 124t-20.5 165q0 97 29 178.5t86 141t142 92.5t197 33q90 0 157.5 -21t116 -60t81 -94.5t51 -123.5t26 -147t7.5 -165zM698 742q0 107 -12 179t-36 115t-60 61t-84 18q-47 0 -81 -16.5t-56.5 -46.5t-33.5 -71
t-11 -90q0 -53 9.5 -93.5t30 -67t53.5 -39.5t80 -13q58 0 109.5 17.5t91.5 46.5z" />
    <glyph glyph-name="colon" unicode=":" horiz-adv-x="565" 
d="M442 790q0 -42 -7 -70t-23.5 -46t-43.5 -25.5t-68 -7.5t-68 7.5t-43.5 25.5t-22.5 46t-6 70q0 43 6 72t22.5 47t43.5 26t68 8t68 -8t43.5 -26t23.5 -47t7 -72zM442 137q0 -42 -7 -70.5t-23.5 -46.5t-43.5 -25.5t-68 -7.5t-68 7.5t-43.5 25.5t-22.5 46.5t-6 70.5t6 71.5
t22.5 47.5t43.5 25.5t68 7.5t68 -7.5t43.5 -25.5t23.5 -47.5t7 -71.5z" />
    <glyph glyph-name="semicolon" unicode=";" horiz-adv-x="565" 
d="M442 790q0 -42 -7 -70t-23.5 -46t-43.5 -25.5t-68 -7.5t-68 7.5t-43.5 25.5t-22.5 46t-6 70q0 43 6 72t22.5 47t43.5 26t68 8t68 -8t43.5 -26t23.5 -47t7 -72zM442 184q0 -40 -4 -72.5t-12.5 -61.5t-22.5 -56.5t-34 -56.5l-130 -188q-7 -10 -15.5 -17t-20.5 -11.5
t-28.5 -6.5t-41.5 -2q-28 0 -45 2t-25 7.5t-8.5 13.5t4.5 19l117 272v158q0 34 8 55t24.5 32t42.5 14.5t61 3.5q34 0 58.5 -3.5t40.5 -14.5t23.5 -32t7.5 -55z" />
    <glyph glyph-name="less" unicode="&#x3c;" horiz-adv-x="1020" 
d="M915 174q0 -37 -3 -58t-9.5 -30t-16 -8t-24.5 8l-767 382q-14 8 -20.5 33.5t-6.5 76.5q0 26 2 45.5t5 32t8.5 20t12.5 11.5l766 380q29 14 41 -5.5t12 -79.5q0 -41 -1.5 -65t-5.5 -38t-11 -20t-19 -12l-576 -270l565 -262q15 -7 24.5 -14t14.5 -21.5t7 -39t2 -66.5z" />
    <glyph glyph-name="equal" unicode="=" horiz-adv-x="1020" 
d="M934 779q0 -53 -11.5 -75t-32.5 -22h-763q-21 0 -32.5 22t-11.5 75q0 51 10.5 73t33.5 22h763q23 0 33.5 -22t10.5 -73zM934 375q0 -54 -11.5 -75t-32.5 -21h-763q-21 0 -32.5 21t-11.5 75q0 51 10.5 73.5t33.5 22.5h763q23 0 33.5 -22.5t10.5 -73.5z" />
    <glyph glyph-name="greater" unicode="&#x3e;" horiz-adv-x="1020" 
d="M950 575q0 -26 -2 -45t-5.5 -32t-9 -20.5t-12.5 -10.5l-767 -380q-14 -7 -24 -6t-16.5 11t-9 29.5t-2.5 49.5q0 41 1.5 65t5.5 38t11 20.5t19 11.5l576 270l-565 262q-16 7 -25.5 14t-14.5 21.5t-6.5 39t-1.5 66.5q0 37 2.5 58t9 30t16.5 8t24 -8l768 -383
q13 -6 20.5 -32t7.5 -77z" />
    <glyph glyph-name="question" unicode="?" horiz-adv-x="949" 
d="M866 988q0 -82 -23.5 -148t-66 -114t-102 -77t-131.5 -37l-8 -195q-1 -18 -28.5 -27t-79.5 -9q-33 0 -55.5 1.5t-35.5 5.5t-19 11t-7 18l-9 236q-1 32 3 52t14.5 32t26.5 16.5t38 4.5h14q53 0 91.5 17t63.5 45t36.5 66t11.5 81q0 48 -13.5 88t-41 69t-69 44.5t-97.5 15.5
q-51 0 -90 -10t-67 -22t-46.5 -22t-28.5 -10q-7 0 -13 4.5t-10 16.5t-6.5 34t-2.5 56q0 35 3 51t13 26t38 23.5t67 25t87 19.5t100 8q118 0 202 -32.5t137.5 -87.5t78.5 -126t25 -150zM570 131q0 -41 -6.5 -69t-23 -45t-44 -24.5t-67.5 -7.5q-42 0 -69 7.5t-43.5 24.5
t-23 45t-6.5 69q0 42 6.5 70.5t23 46t43.5 25t69 7.5q40 0 67.5 -7.5t44 -25t23 -46t6.5 -70.5z" />
    <glyph glyph-name="at" unicode="@" horiz-adv-x="1840" 
d="M1711 769q0 -73 -10 -147.5t-32.5 -143t-57.5 -128.5t-84.5 -104t-114.5 -69.5t-147 -25.5q-49 0 -89 9.5t-70 28t-49.5 46t-29.5 63.5q-39 -40 -76.5 -67.5t-74 -45.5t-72.5 -26t-73 -8q-47 0 -83 11.5t-62.5 31.5t-44 46.5t-28.5 58.5t-15.5 67t-4.5 71q0 47 7.5 105
t25 118.5t46.5 117t72 101t100.5 71.5t132.5 27q34 0 63 -7t56 -22t52.5 -39t53.5 -59l17 77q4 18 24.5 27t72.5 9q26 0 43.5 -2.5t27.5 -7t13 -11t2 -15.5l-86 -447q-14 -74 4.5 -108.5t72.5 -34.5q35 0 64 19t50.5 51.5t36.5 75t24.5 89t14 94t4.5 91.5q0 80 -22 151.5
t-77.5 126t-150 86t-240.5 31.5q-98 0 -178.5 -19.5t-144.5 -54t-114 -81.5t-87 -102.5t-62.5 -118t-40.5 -126.5t-22 -128t-7 -124q0 -109 24 -195t83 -146t157.5 -91.5t246.5 -31.5q77 0 140.5 9t111 19t77.5 19t41 9q7 0 12 -3.5t8 -13.5t4.5 -27t1.5 -43q0 -22 -1 -37
t-3.5 -25.5t-6.5 -18t-10 -13t-37.5 -16.5t-84 -21.5t-123 -18.5t-154.5 -8q-190 0 -324 43.5t-219.5 126t-125 200t-39.5 264.5q0 82 11.5 167t35.5 168t62.5 161.5t91.5 148.5t122.5 128.5t156 100.5t191 65t229.5 23q183 0 313.5 -41t214.5 -116t123.5 -180.5
t39.5 -234.5zM1039 680q-30 55 -62.5 83t-73.5 28q-35 0 -62.5 -16.5t-48.5 -44t-35.5 -62t-24 -70.5t-13.5 -70.5t-4 -60.5q0 -60 22 -95t74 -35q19 0 39.5 6.5t43 21t48 38t56.5 56.5zM0 1294z" />
    <glyph glyph-name="A" unicode="A" horiz-adv-x="1241" 
d="M1201 98q12 -36 15 -57t-8 -31.5t-39 -13t-77 -2.5q-51 0 -79.5 1.5t-43.5 6t-21 12.5t-10 21l-87 260h-486l-82 -253q-4 -14 -10.5 -23.5t-21 -15t-41 -7.5t-69.5 -2q-46 0 -72 3t-36 14.5t-7 32.5t15 56l399 1148q6 17 14 27.5t25.5 16t48.5 7t82 1.5q59 0 94 -1.5
t54.5 -7t28 -16.5t14.5 -30zM607 1047h-1l-183 -550h367z" />
    <glyph glyph-name="B" unicode="B" horiz-adv-x="1148" 
d="M1078 388q0 -69 -19 -125t-52.5 -99t-80 -74t-102.5 -51t-119.5 -29.5t-141.5 -9.5h-344q-33 0 -55.5 19.5t-22.5 63.5v1128q0 44 22.5 63.5t55.5 19.5h325q119 0 201.5 -20t139 -60.5t86.5 -102.5t30 -146q0 -47 -12 -88.5t-35 -75.5t-56.5 -60t-76.5 -42
q55 -10 101.5 -35t81 -64.5t54.5 -92.5t20 -119zM738 933q0 39 -12 70t-36 51.5t-60.5 31.5t-97.5 11h-133v-336h147q57 0 91 13.5t56.5 37t33.5 55t11 66.5zM805 379q0 45 -15 80.5t-44 59.5t-74 37t-117 13h-156v-368h190q55 0 92.5 11.5t65 34t43 56t15.5 76.5z" />
    <glyph glyph-name="C" unicode="C" horiz-adv-x="1084" 
d="M1036 196q0 -25 -1.5 -42.5t-4.5 -30t-8 -21.5t-16 -20.5t-42.5 -29.5t-77 -34.5t-104 -27.5t-126.5 -11q-133 0 -240 41t-182 122.5t-115 203.5t-40 284q0 165 44 293t123 215t189.5 132t243.5 45q54 0 104 -9t92.5 -23.5t76.5 -33.5t47.5 -32.5t18.5 -22.5t8 -23
t4.5 -33t1.5 -47q0 -30 -2 -51t-7 -34t-12 -19t-16 -6q-15 0 -38 17.5t-59.5 39t-87 39t-120.5 17.5q-77 0 -137.5 -31.5t-103 -90t-64.5 -141.5t-22 -187q0 -114 23.5 -197.5t67 -137.5t105 -80.5t138.5 -26.5q70 0 121 16.5t87.5 36.5t60 36t36.5 16q10 0 16 -4t10 -16
t6 -33.5t2 -57.5z" />
    <glyph glyph-name="D" unicode="D" horiz-adv-x="1291" 
d="M1216 666q0 -178 -46.5 -304.5t-133.5 -206.5t-211.5 -117.5t-296.5 -37.5h-309q-33 0 -55.5 19.5t-22.5 63.5v1128q0 44 22.5 63.5t55.5 19.5h332q173 0 293.5 -40.5t203 -120t125.5 -196.5t43 -271zM944 657q0 92 -21.5 171t-69 137t-122 90.5t-195.5 32.5h-133v-880
h137q108 0 182 28t123.5 84.5t74 140.5t24.5 196z" />
    <glyph glyph-name="E" unicode="E" horiz-adv-x="999" 
d="M908 103q0 -29 -2.5 -48.5t-7.5 -31.5t-12.5 -17.5t-16.5 -5.5h-650q-33 0 -55.5 19.5t-22.5 63.5v1128q0 44 22.5 63.5t55.5 19.5h646q9 0 16 -5t12 -17.5t7.5 -32t2.5 -49.5q0 -28 -2.5 -47.5t-7.5 -31.5t-12 -17.5t-16 -5.5h-462v-316h391q9 0 16.5 -5.5t12.5 -17
t7.5 -31t2.5 -47.5q0 -29 -2.5 -48t-7.5 -30.5t-12.5 -16.5t-16.5 -5h-391v-365h466q9 0 16.5 -5.5t12.5 -17.5t7.5 -31.5t2.5 -48.5z" />
    <glyph glyph-name="F" unicode="F" horiz-adv-x="940" 
d="M867 1186q0 -30 -2.5 -50.5t-8 -32.5t-12.5 -18t-16 -6h-423v-348h397q9 0 16 -5t12.5 -17t8 -32t2.5 -50t-2.5 -50t-8 -33t-12.5 -18.5t-16 -5.5h-397v-482q0 -11 -6 -19t-21.5 -13.5t-40.5 -8.5t-64 -3q-38 0 -63.5 3t-40.5 8.5t-21.5 13.5t-6.5 19v1173
q0 44 22.5 63.5t55.5 19.5h609q9 0 16 -5.5t12.5 -18t8 -33.5t2.5 -51z" />
    <glyph glyph-name="G" unicode="G" horiz-adv-x="1305" 
d="M1179 1093q0 -29 -2.5 -50t-7 -33.5t-11 -17.5t-15.5 -5q-13 0 -42 18t-77 39t-114.5 39t-154.5 18q-94 0 -170 -32.5t-130 -92t-83 -143t-29 -184.5q0 -111 29.5 -195.5t82.5 -141.5t127.5 -86t164.5 -29q44 0 87 10t80 30v300h-245q-18 0 -28 22.5t-10 76.5
q0 28 2.5 47t7.5 30.5t12 17t16 5.5h437q16 0 28.5 -5.5t22 -16.5t14.5 -26.5t5 -35.5v-515q0 -30 -10.5 -52.5t-43 -35.5t-80.5 -27t-99.5 -24t-104 -15t-105.5 -5q-155 0 -277.5 44.5t-207.5 129t-130 206t-45 275.5q0 159 48 285.5t136 215t212.5 135.5t277.5 47
q84 0 153 -11.5t120.5 -28t85.5 -35.5t47.5 -33t19.5 -39.5t6 -75.5z" />
    <glyph glyph-name="H" unicode="H" horiz-adv-x="1292" 
d="M1151 36q0 -10 -6.5 -18t-21.5 -13t-40 -8t-63 -3q-39 0 -64.5 3t-40 8t-21 13t-6.5 18v523h-484v-523q0 -10 -6 -18t-21 -13t-40 -8t-64 -3q-38 0 -63.5 3t-40.5 8t-21.5 13t-6.5 18v1222q0 10 6.5 18t21.5 13t40.5 8t63.5 3q39 0 64 -3t40 -8t21 -13t6 -18v-475h484
v475q0 10 6.5 18t21 13t40 8t64.5 3q38 0 63 -3t40 -8t21.5 -13t6.5 -18v-1222z" />
    <glyph glyph-name="I" unicode="I" horiz-adv-x="546" 
d="M405 36q0 -10 -6.5 -18t-21.5 -13t-40 -8t-64 -3q-38 0 -63.5 3t-40.5 8t-21.5 13t-6.5 18v1222q0 10 6.5 18t22 13t40.5 8t63 3q39 0 64 -3t40 -8t21.5 -13t6.5 -18v-1222z" />
    <glyph glyph-name="J" unicode="J" horiz-adv-x="678" 
d="M539 360q0 -88 -16.5 -158.5t-56 -120t-103.5 -75.5t-158 -26q-30 0 -59.5 4.5t-54 11.5t-42.5 15t-24 14.5t-10 13.5t-7 18.5t-4 28.5t-1 43q0 34 1.5 57.5t5 37t10 19t16.5 5.5q9 0 21 -6.5t27 -13.5t35 -13.5t47 -6.5t47.5 7.5t34 26t20.5 49.5t7 80v889
q0 10 6.5 17.5t21 12.5t40.5 7.5t64 2.5t63 -2.5t40.5 -7.5t22 -12.5t6.5 -17.5v-900z" />
    <glyph glyph-name="K" unicode="K" horiz-adv-x="1120" 
d="M1086 39q0 -11 -5.5 -19.5t-21 -14t-42.5 -8.5t-68 -3q-65 0 -93.5 5t-41 15t-19.5 24l-391 614v-614q0 -11 -6 -19t-21 -13.5t-40 -8.5t-64 -3q-38 0 -63.5 3t-40.5 8.5t-21.5 13.5t-6.5 19v1219q0 11 6.5 19t21.5 13t40.5 8t63.5 3q39 0 64 -3t40 -8t21 -13t6 -19v-551
l379 550q7 13 17 21.5t26 13.5t41 7t64 2q40 0 66 -3t41.5 -8.5t21.5 -13.5t6 -18q0 -17 -9 -35t-34 -57l-355 -465l387 -585q22 -41 26.5 -54.5t4.5 -21.5z" />
    <glyph glyph-name="L" unicode="L" horiz-adv-x="866" 
d="M852 110q0 -30 -2.5 -50.5t-7.5 -34t-12.5 -19.5t-17.5 -6h-593q-33 0 -55.5 19.5t-22.5 63.5v1175q0 10 6.5 18t21.5 13t40.5 8t63.5 3q39 0 64 -3t40 -8t21.5 -13t6.5 -18v-1041h407q10 0 17.5 -5.5t12.5 -18t7.5 -33t2.5 -50.5z" />
    <glyph glyph-name="M" unicode="M" horiz-adv-x="1790" 
d="M1649 36q0 -10 -5.5 -18t-20 -13t-38.5 -8t-61 -3q-36 0 -60 3t-38 8t-20 13t-6 18v1053h-2l-375 -1052q-4 -13 -13 -21.5t-24.5 -13.5t-39.5 -6.5t-58 -1.5t-58 2.5t-39.5 8t-24.5 13.5t-12 19l-362 1052h-2v-1053q0 -10 -5.5 -18t-20.5 -13t-38.5 -8t-60.5 -3
q-36 0 -60 3t-38.5 8t-20 13t-5.5 18v1153q0 51 27 78t72 27h172q46 0 79 -7.5t57 -25t40 -46t28 -70.5l280 -771h4l290 769q13 42 28.5 71t36 47t48.5 25.5t65 7.5h177q27 0 46.5 -7t32 -20.5t19 -33t6.5 -44.5v-1153z" />
    <glyph glyph-name="N" unicode="N" horiz-adv-x="1349" 
d="M1208 92q0 -23 -8 -41t-21.5 -30t-32 -17.5t-37.5 -5.5h-112q-35 0 -60.5 7t-47 25.5t-41.5 50t-45 81.5l-322 605q-28 54 -57 116.5t-52 121.5h-2q4 -72 6 -143.5t2 -147.5v-677q0 -10 -5.5 -18t-19 -13.5t-36.5 -8.5t-59 -3q-35 0 -58 3t-36 8.5t-18 13.5t-5 18v1163
q0 47 27.5 70.5t67.5 23.5h141q38 0 64 -6.5t46.5 -21.5t38.5 -41.5t37 -65.5l252 -473q22 -43 43.5 -84.5t41.5 -83t39 -81.5t37 -80h1q-3 70 -4.5 146t-1.5 145v607q0 10 6 18t20 14t37 8.5t59 2.5q34 0 57 -2.5t35.5 -8.5t17.5 -14t5 -18v-1163z" />
    <glyph glyph-name="O" unicode="O" horiz-adv-x="1385" 
d="M1305 662q0 -161 -40 -288t-119 -215.5t-195.5 -135t-269.5 -46.5q-151 0 -263.5 39.5t-187.5 120.5t-112.5 206t-37.5 296q0 157 40 282.5t119 213.5t195.5 135t270.5 47q147 0 259.5 -39t188 -120t114 -204.5t38.5 -291.5zM1029 648q0 102 -16 185.5t-54.5 143
t-102.5 92t-160 32.5q-97 0 -162 -36.5t-105 -97.5t-56.5 -142.5t-16.5 -172.5q0 -106 16 -190.5t54 -144.5t102 -91.5t161 -31.5t162 36t105 98t56.5 144.5t16.5 175.5z" />
    <glyph glyph-name="P" unicode="P" horiz-adv-x="1090" 
d="M1027 901q0 -109 -34 -193t-99 -141.5t-159.5 -87.5t-222.5 -30h-108v-413q0 -10 -6.5 -18t-21.5 -13t-40 -8t-64 -3q-38 0 -63.5 3t-40.5 8t-21 13t-6 18v1164q0 47 24.5 70.5t64.5 23.5h305q46 0 87.5 -3.5t99.5 -15t117.5 -42.5t101.5 -78.5t64 -111t22 -142.5z
M752 882q0 68 -24 112t-59 65t-73.5 26.5t-79.5 5.5h-112v-439h118q63 0 105.5 17t69.5 47.5t41 73t14 92.5z" />
    <glyph glyph-name="Q" unicode="Q" horiz-adv-x="1405" 
d="M1427 -123q0 -36 -3.5 -58t-9.5 -34t-13 -15.5t-15 -3.5q-33 0 -86.5 18t-115.5 51.5t-126.5 82t-119.5 111.5q-46 -21 -111.5 -36.5t-145.5 -15.5q-151 0 -263.5 38.5t-187.5 119.5t-112.5 206.5t-37.5 298.5q0 157 40 282.5t119 213t195.5 134.5t270.5 47
q145 0 256.5 -39t188 -119.5t116 -203.5t39.5 -291q0 -87 -11.5 -163.5t-33.5 -141.5t-54 -119t-73 -95q62 -54 110 -82t80.5 -42t52 -20.5t30.5 -17t16 -36t5 -70.5zM1029 650q0 101 -16 184t-54.5 142.5t-102.5 92t-160 32.5q-97 0 -162 -36t-105 -97t-56.5 -142.5
t-16.5 -171.5q0 -107 16 -192t54 -145t102 -91.5t161 -31.5t162 36t105 98t56.5 145t16.5 177z" />
    <glyph glyph-name="R" unicode="R" horiz-adv-x="1153" 
d="M1101 34q0 -11 -4 -18.5t-19 -12.5t-44 -7t-79 -2q-42 0 -67 2t-39.5 7.5t-20.5 14t-10 20.5l-116 289q-21 49 -41 87t-44.5 63.5t-56.5 38.5t-74 13h-82v-493q0 -10 -6.5 -18t-21.5 -13t-40 -8t-64 -3q-38 0 -63.5 3t-40.5 8t-21 13t-6 18v1175q0 44 22.5 63.5
t55.5 19.5h335q51 0 84 -2t60 -5q78 -11 140.5 -38t106 -70.5t66.5 -103t23 -136.5q0 -65 -16.5 -118.5t-48.5 -95.5t-79 -73t-107 -50q29 -14 54.5 -34t48 -48.5t42.5 -65t39 -82.5l109 -255q15 -38 20 -55.5t5 -27.5zM762 912q0 64 -29 108t-95 62q-20 5 -45.5 8t-70.5 3
h-118v-367h134q56 0 98 13.5t70 38t42 58.5t14 76z" />
    <glyph glyph-name="S" unicode="S" horiz-adv-x="968" 
d="M908 388q0 -102 -38 -179t-103 -128.5t-152 -77.5t-186 -26q-67 0 -124.5 11t-101.5 26.5t-73.5 32.5t-42.5 30t-18.5 37.5t-5.5 70.5q0 31 2 52t6.5 34t12 18.5t17.5 5.5q14 0 39.5 -16.5t65.5 -36.5t95.5 -36.5t128.5 -16.5q48 0 86 11.5t64.5 32.5t40.5 52t14 69
q0 44 -24 75.5t-62.5 56t-87.5 46t-101 45.5t-101 54.5t-87.5 73t-62.5 100.5t-24 139q0 93 34.5 163.5t93 117t138 69.5t168.5 23q46 0 92 -7t86 -19t71 -27t41 -25t13.5 -17t6 -18.5t3.5 -29t1 -43.5q0 -29 -1.5 -49t-5 -33t-10 -19t-17.5 -6t-35 14t-59 30.5t-81 30
t-101 13.5q-43 0 -75 -10.5t-53.5 -29t-32 -44.5t-10.5 -55q0 -43 23.5 -74.5t63 -56t89.5 -46t102 -45.5t102 -54.5t89 -73t63 -100t24 -135.5z" />
    <glyph glyph-name="T" unicode="T" horiz-adv-x="1014" 
d="M1002 1186q0 -29 -2.5 -49.5t-7.5 -33t-12.5 -18.5t-16.5 -6h-324v-1043q0 -10 -6.5 -18t-21.5 -13t-40.5 -8t-63.5 -3t-63.5 3t-40.5 8t-21.5 13t-6.5 18v1043h-324q-10 0 -17 6t-12 18.5t-7.5 33t-2.5 49.5q0 30 2.5 51t7.5 33.5t12 18t17 5.5h912q9 0 16.5 -5.5
t12.5 -18t7.5 -33.5t2.5 -51z" />
    <glyph glyph-name="U" unicode="U" horiz-adv-x="1337" 
d="M1197 482q0 -119 -35 -213t-103 -159t-168 -99t-230 -34q-122 0 -219 30.5t-164 92.5t-102.5 154.5t-35.5 216.5v787q0 10 6 18t21.5 13t40.5 8t64 3q38 0 63 -3t40 -8t21.5 -13t6.5 -18v-764q0 -77 19 -133.5t54.5 -93.5t85 -55.5t110.5 -18.5q62 0 111 19t83 55.5
t52.5 90t18.5 121.5v779q0 10 6 18t21 13t40.5 8t63.5 3t62.5 -3t39.5 -8t21 -13t6 -18v-776z" />
    <glyph glyph-name="V" unicode="V" horiz-adv-x="1211" 
d="M785 46q-5 -17 -13 -27.5t-26 -16t-49 -7t-81 -1.5q-40 0 -68.5 0.5t-48.5 2.5t-32.5 6t-21 10t-13 14.5t-8.5 21.5l-385 1147q-12 36 -14.5 57t10 31.5t42.5 13t84 2.5q46 0 72 -2t40 -7t19.5 -15t10.5 -25l315 -998h1l309 993q4 17 10 27.5t20.5 16.5t41.5 8t74 2
q46 0 71.5 -3t35 -14.5t6 -32.5t-15.5 -56z" />
    <glyph glyph-name="W" unicode="W" horiz-adv-x="1856" 
d="M1503 67q-6 -24 -16.5 -38.5t-31.5 -22t-54 -10t-84 -2.5q-57 0 -91.5 2.5t-54.5 10t-29 22t-14 38.5l-207 820h-2l-196 -820q-5 -23 -14 -37.5t-28.5 -22.5t-53 -10.5t-88.5 -2.5q-58 0 -92.5 2.5t-54.5 10t-29 22t-15 38.5l-294 1129q-9 36 -10 56.5t11.5 31.5t41 13.5
t79.5 2.5q47 0 74.5 -1.5t41.5 -7t19 -16t8 -29.5l227 -991h1l236 984q4 19 10.5 31t22 18.5t42.5 9t72 2.5q48 0 76.5 -2t44 -8.5t22.5 -18.5t11 -32l244 -984h2l227 988q3 16 8 27.5t19 18t40 9t73 2.5q44 0 68.5 -2.5t35.5 -13.5t9.5 -32.5t-10.5 -58.5z" />
    <glyph glyph-name="X" unicode="X" horiz-adv-x="1128" 
d="M1063 99q18 -35 23.5 -56t-6.5 -32t-43.5 -14t-87.5 -3q-47 0 -74 2t-42.5 6.5t-22.5 12.5t-12 20l-243 467l-242 -467q-6 -12 -13 -20t-22.5 -12.5t-43 -6.5t-72.5 -2q-52 0 -80.5 3t-38.5 14t-4 32t25 56l310 565l-288 531q-18 36 -24.5 57.5t5 32t42.5 13t88 2.5
q47 0 74.5 -2t43.5 -6.5t22.5 -12.5t12.5 -20l227 -428l221 428q6 12 12.5 20t21 12.5t40 6.5t70.5 2q50 0 79 -2.5t40 -13.5t5.5 -32t-22.5 -57l-288 -528z" />
    <glyph glyph-name="Y" unicode="Y" horiz-adv-x="1064" 
d="M664 491v-455q0 -10 -6.5 -18t-21.5 -13t-40.5 -8t-63.5 -3q-39 0 -64 3t-40.5 8t-21.5 13t-6 18v455l-354 705q-19 37 -24.5 57.5t6 31t42.5 13t86 2.5q46 0 73.5 -2t43.5 -7.5t23.5 -14.5t14.5 -23l144 -318q21 -46 41.5 -97t41.5 -107h2q19 54 39 105t39 97l142 316
q5 16 12.5 25.5t22.5 15.5t41 8t69 2q57 0 88.5 -2.5t43 -13t5.5 -31.5t-24 -57z" />
    <glyph glyph-name="Z" unicode="Z" horiz-adv-x="979" 
d="M936 104q0 -29 -2.5 -49t-7.5 -32.5t-12.5 -17.5t-16.5 -5h-763q-40 0 -61.5 23t-21.5 67v44q0 20 2.5 36.5t8.5 33.5t17.5 37t28.5 48l502 796h-498q-12 0 -20.5 5.5t-14 17.5t-8 32t-2.5 48q0 30 2.5 50.5t8 33t14 17.5t20.5 5h715q41 0 60.5 -21t19.5 -59v-49
q0 -27 -2.5 -46.5t-9 -38t-17.5 -38t-28 -46.5l-494 -785h541q19 0 29 -24t10 -83z" />
    <glyph glyph-name="bracketleft" unicode="[" horiz-adv-x="665" 
d="M578 -248q0 -50 -9 -70t-26 -20h-309q-17 0 -31 5t-24 15t-16 26t-6 38v1586q0 21 6 37t16 26.5t24 15t31 4.5h309q8 0 15 -4.5t11.5 -15t6.5 -27.5t2 -43q0 -51 -9 -70.5t-26 -19.5h-151v-1393h151q8 0 15 -4t11.5 -15t6.5 -28t2 -43z" />
    <glyph glyph-name="backslash" unicode="\" horiz-adv-x="880" 
d="M866 -218q8 -25 9 -40.5t-10.5 -22.5t-36.5 -9.5t-69 -2.5q-40 0 -64.5 2t-38.5 6t-20 11.5t-11 18.5l-586 1651q-9 26 -10 41t10.5 22t36.5 9.5t69 2.5q40 0 64.5 -2t38.5 -6t20 -11.5t10 -18.5z" />
    <glyph glyph-name="bracketright" unicode="]" horiz-adv-x="665" 
d="M510 -254q0 -22 -6.5 -38t-16.5 -26t-24 -15t-31 -5h-310q-17 0 -26 20t-9 70q0 26 2.5 43t7 28t11 15t14.5 4h152v1393h-152q-17 0 -26 19.5t-9 70.5q0 26 2.5 43t7 27.5t11 15t14.5 4.5h310q17 0 31 -4.5t24 -15t16.5 -26.5t6.5 -37v-1586z" />
    <glyph glyph-name="asciicircum" unicode="^" horiz-adv-x="1020" 
d="M968 596q13 -28 16 -45t-7.5 -26t-36 -11.5t-69.5 -2.5q-39 0 -64.5 2.5t-42 8t-25 14t-13.5 20.5l-221 541l-5 -1l-212 -540q-5 -12 -13.5 -20.5t-24.5 -14t-41.5 -8t-64.5 -2.5q-44 0 -68.5 2.5t-35 11.5t-7.5 26t16 45l288 656q6 13 18 22.5t32.5 16t49.5 10t69 3.5
t69.5 -3.5t49.5 -10t32 -16t18 -22.5z" />
    <glyph glyph-name="underscore" unicode="_" horiz-adv-x="1020" 
d="M1026 -272q0 -50 -9.5 -71.5t-31.5 -21.5h-950q-23 0 -32.5 21t-9.5 71t9.5 72t32.5 22h950q22 0 31.5 -21t9.5 -72z" />
    <glyph glyph-name="grave" unicode="`" horiz-adv-x="615" 
d="M502 1135q9 -13 11 -23t-6.5 -16.5t-28 -9.5t-54.5 -3q-29 0 -48 2t-32 6t-21.5 10.5t-16.5 16.5l-193 232q-10 11 -11 21t10.5 17.5t38.5 11.5t73 4q33 0 55.5 -2t37.5 -6.5t24.5 -12.5t17.5 -19zM0 960z" />
    <glyph glyph-name="a" unicode="a" horiz-adv-x="1011" 
d="M886 31q0 -14 -10 -22t-31.5 -11.5t-63.5 -3.5q-45 0 -65.5 3.5t-29 11.5t-8.5 22v71q-55 -59 -125.5 -92t-156.5 -33q-71 0 -130.5 18.5t-103 55t-67.5 90.5t-24 126q0 78 30.5 135.5t91 95t150.5 55.5t209 18h87v54q0 42 -8.5 73.5t-28 52.5t-52 31t-80.5 10
q-63 0 -112.5 -14t-87.5 -31t-63.5 -31t-41.5 -14q-11 0 -19.5 7t-14 20t-8.5 32t-3 42q0 31 5 49t19 32.5t49 32t82 32.5t102.5 24.5t114.5 9.5q105 0 179.5 -20.5t122.5 -63t70 -109.5t22 -159v-600zM639 413h-96q-61 0 -104 -9t-70 -27t-39.5 -43.5t-12.5 -58.5
q0 -56 35.5 -88t98.5 -32q53 0 97.5 27t90.5 79v152z" />
    <glyph glyph-name="b" unicode="b" horiz-adv-x="1099" 
d="M1024 492q0 -119 -26 -214t-75 -162t-120.5 -103t-162.5 -36q-45 0 -84 8.5t-74.5 27.5t-70 48t-70.5 70v-97q0 -11 -5.5 -18.5t-18 -12.5t-33.5 -7t-51 -2q-31 0 -51.5 2t-33 7t-17.5 12.5t-5 18.5v1315q0 10 6 18t20.5 13.5t38.5 8.5t61 3t61 -3t38.5 -8.5t20.5 -13.5
t6 -18v-493q34 34 68 58t68 39.5t70 22.5t76 7q99 0 168 -39.5t112.5 -106.5t63.5 -156.5t20 -188.5zM763 474q0 57 -8.5 110t-29.5 94t-54.5 65.5t-84.5 24.5q-25 0 -49 -7t-49.5 -24t-52.5 -44t-57 -67v-296q53 -68 101.5 -103.5t101.5 -35.5q49 0 83 25t56.5 65t32.5 91
t10 102z" />
    <glyph glyph-name="c" unicode="c" horiz-adv-x="857" 
d="M801 176q0 -26 -1.5 -43.5t-4 -29.5t-6 -19.5t-15.5 -19t-41 -28t-66 -29.5t-80.5 -21t-89.5 -8q-103 0 -182.5 32t-133.5 94.5t-81.5 152.5t-27.5 206q0 134 33.5 231.5t93.5 161.5t142 95t180 31q40 0 78.5 -7t72 -19t60 -27t37.5 -26t15.5 -18.5t7 -19.5t4 -29.5
t1.5 -42.5q0 -58 -10 -81.5t-26 -23.5q-17 0 -36 14t-45 31t-62 31t-86 14q-98 0 -150 -75.5t-52 -221.5q0 -72 13 -127t38.5 -92t64 -55.5t89.5 -18.5q52 0 89.5 15.5t65.5 34.5t47 34.5t32 15.5q9 0 15 -5t9.5 -18.5t5.5 -34.5t2 -54z" />
    <glyph glyph-name="d" unicode="d" horiz-adv-x="1099" 
d="M972 34q0 -11 -5 -18.5t-17 -12.5t-32.5 -7t-50.5 -2q-32 0 -52 2t-32.5 7t-18 12.5t-5.5 18.5v99q-69 -74 -144.5 -115t-167.5 -41q-102 0 -172.5 39.5t-115 106.5t-64.5 156.5t-20 188.5q0 119 25.5 214t74.5 162t122 103t168 36q75 0 136 -30.5t121 -89.5v483
q0 10 5.5 18t20 13.5t38.5 8.5t61 3t61 -3t38 -8.5t20 -13.5t6 -18v-1312zM722 630q-54 68 -103.5 104t-103.5 36q-49 0 -84.5 -24.5t-57 -65.5t-32 -91.5t-10.5 -103.5q0 -56 9 -109t29.5 -94.5t54.5 -66.5t86 -25q26 0 50.5 7.5t50 24.5t52.5 44.5t59 67.5v296z" />
    <glyph glyph-name="e" unicode="e" horiz-adv-x="1031" 
d="M950 506q0 -46 -20.5 -68t-56.5 -22h-543q0 -57 13.5 -103.5t43 -79t76 -49.5t111.5 -17q66 0 116 9.5t86.5 21t60.5 21t39 9.5q9 0 15 -3.5t10 -12.5t5.5 -25.5t1.5 -41.5q0 -22 -1 -37.5t-3 -26.5t-6 -18.5t-10.5 -14.5t-35.5 -19t-74 -23.5t-103 -20t-124 -8.5
q-119 0 -208.5 30t-149.5 91t-89.5 154t-29.5 218q0 119 31 214.5t90 162t143.5 101.5t190.5 35q112 0 191.5 -33t130.5 -91.5t75 -138.5t24 -174v-40zM706 578q3 106 -42.5 166.5t-140.5 60.5q-48 0 -83.5 -18t-59 -48.5t-36 -72t-14.5 -88.5h376z" />
    <glyph glyph-name="f" unicode="f" horiz-adv-x="648" 
d="M664 1266q0 -29 -2 -46.5t-6 -27t-9 -13t-11 -3.5q-7 0 -15.5 3.5t-21 7.5t-29.5 7.5t-40 3.5q-27 0 -46.5 -8.5t-32.5 -27t-19 -48t-6 -72.5v-82h163q9 0 16.5 -5t12.5 -16.5t7.5 -31.5t2.5 -49q0 -55 -10 -78.5t-29 -23.5h-163v-722q0 -10 -6 -17.5t-20 -12.5t-39 -7.5
t-61 -2.5t-60.5 2.5t-39 7.5t-20 12.5t-5.5 17.5v722h-112q-19 0 -28.5 23.5t-9.5 78.5q0 29 2.5 49t7 31.5t12 16.5t17.5 5h111v75q0 91 18 159.5t56.5 114t98 68.5t140.5 23q39 0 74 -6.5t55 -14t27 -14t11.5 -19t6.5 -32t2 -48.5z" />
    <glyph glyph-name="g" unicode="g" horiz-adv-x="971" 
d="M930 864q0 -48 -11 -71t-27 -23h-105q22 -24 31.5 -54.5t9.5 -63.5q0 -78 -26 -138.5t-74.5 -102t-117 -63t-152.5 -21.5q-43 0 -82 10.5t-60 24.5q-12 -13 -21.5 -31t-9.5 -40q0 -29 25.5 -47.5t71.5 -20.5l217 -8q76 -3 135.5 -21.5t100 -52t62 -80.5t21.5 -107
q0 -66 -29 -124.5t-87 -101.5t-145.5 -68t-204.5 -25q-114 0 -194.5 18t-132 50t-75 76.5t-23.5 97.5q0 33 8.5 63t25 57.5t40.5 52.5t55 48q-43 23 -66.5 62.5t-23.5 86.5q0 59 27 107.5t70 87.5q-35 35 -56 84t-21 122q0 78 27.5 139.5t76.5 104t117 65t150 22.5
q42 0 80.5 -5t71.5 -14h283q17 0 27.5 -22t10.5 -74zM607 653q0 72 -40 112t-113 40q-37 0 -65 -12.5t-46.5 -34t-27.5 -50t-9 -59.5q0 -68 40 -107.5t111 -39.5q38 0 66 12t46.5 33t28 48.5t9.5 57.5zM666 -59q0 45 -36 69t-99 26l-179 5q-26 -19 -41.5 -36.5t-25 -33.5
t-12.5 -31t-3 -31q0 -50 50.5 -76t142.5 -26q57 0 96 11.5t63 30.5t34 42.5t10 49.5z" />
    <glyph glyph-name="h" unicode="h" horiz-adv-x="1099" 
d="M978 34q0 -10 -6 -17.5t-20 -12.5t-38.5 -7.5t-60.5 -2.5q-37 0 -61.5 2.5t-38.5 7.5t-20 12.5t-6 17.5v509q0 65 -9.5 102t-27.5 63.5t-46.5 41t-66.5 14.5q-48 0 -97 -35t-102 -102v-593q0 -10 -6 -17.5t-20.5 -12.5t-38.5 -7.5t-61 -2.5t-61 2.5t-38.5 7.5t-20.5 12.5
t-6 17.5v1315q0 10 6 18t20.5 13.5t38.5 8.5t61 3t61 -3t38.5 -8.5t20.5 -13.5t6 -18v-493q65 64 132.5 95.5t140.5 31.5q91 0 153.5 -30t101 -82t55.5 -121.5t17 -168.5v-547z" />
    <glyph glyph-name="i" unicode="i" horiz-adv-x="503" 
d="M378 34q0 -10 -6 -17.5t-20.5 -12.5t-38.5 -7.5t-61 -2.5t-61 2.5t-38.5 7.5t-20.5 12.5t-6 17.5v890q0 10 6 17.5t20.5 13t38.5 8.5t61 3t61 -3t38.5 -8.5t20.5 -13t6 -17.5v-890zM397 1228q0 -76 -31 -105t-115 -29q-85 0 -114.5 28t-29.5 101q0 76 30.5 105.5
t115.5 29.5q84 0 114 -28.5t30 -101.5z" />
    <glyph glyph-name="j" unicode="j" horiz-adv-x="523" 
d="M397 4q0 -105 -18 -170t-54.5 -109.5t-91.5 -67t-129 -22.5q-41 0 -70 5.5t-42 11.5t-18 15t-7 20.5t-3 26t-1 37.5q0 28 1.5 46.5t5.5 29.5t9 16t13 5q5 0 20.5 -2.5t33.5 -2.5q26 0 45 8t31 25.5t18 45t6 87.5v915q0 10 6 17.5t20 13t38 8.5t61 3t61 -3t38.5 -8.5
t20.5 -13t6 -17.5v-920zM416 1228q0 -76 -30.5 -105t-115.5 -29q-84 0 -114 28t-30 101q0 76 31 105.5t115 29.5q85 0 114.5 -28.5t29.5 -101.5z" />
    <glyph glyph-name="k" unicode="k" horiz-adv-x="983" 
d="M955 33q0 -10 -5.5 -17.5t-20 -12t-39.5 -7t-65 -2.5q-41 0 -66.5 2t-42 6.5t-25.5 12.5t-16 21l-297 470v-472q0 -10 -6 -17.5t-20.5 -12.5t-38.5 -7.5t-61 -2.5t-61 2.5t-38.5 7.5t-20.5 12.5t-6 17.5v1315q0 10 6 18t20.5 13.5t38.5 8.5t61 3t61 -3t38.5 -8.5
t20.5 -13.5t6 -18v-783l264 355q8 12 18 21t26.5 14t41 7.5t62.5 2.5q37 0 62.5 -2.5t41 -7.5t21.5 -12.5t6 -18.5q0 -15 -7.5 -32t-22.5 -36l-261 -296l302 -467q12 -20 17.5 -34.5t5.5 -26.5z" />
    <glyph glyph-name="l" unicode="l" horiz-adv-x="503" 
d="M378 34q0 -10 -6 -17.5t-20.5 -12.5t-38.5 -7.5t-61 -2.5t-61 2.5t-38.5 7.5t-20.5 12.5t-6 17.5v1315q0 10 6 18t20.5 13.5t38.5 8.5t61 3t61 -3t38.5 -8.5t20.5 -13.5t6 -18v-1315z" />
    <glyph glyph-name="m" unicode="m" horiz-adv-x="1666" 
d="M1545 34q0 -10 -6 -17.5t-20 -12.5t-38 -7.5t-61 -2.5q-38 0 -62 2.5t-38.5 7.5t-20 12.5t-5.5 17.5v529q0 45 -8.5 82t-26 63.5t-44 41t-63.5 14.5q-45 0 -91 -35t-100 -102v-593q0 -10 -6 -17.5t-20.5 -12.5t-38.5 -7.5t-60 -2.5q-37 0 -61 2.5t-38.5 7.5t-20.5 12.5
t-6 17.5v529q0 45 -8.5 82t-25.5 63.5t-44 41t-63 14.5q-46 0 -92 -35t-99 -102v-593q0 -10 -6 -17.5t-20.5 -12.5t-38.5 -7.5t-61 -2.5t-61 2.5t-38.5 7.5t-20.5 12.5t-6 17.5v892q0 10 5 17.5t18 12.5t33.5 7.5t51.5 2.5q32 0 53 -2.5t32.5 -7.5t16.5 -12.5t5 -17.5v-103
q74 80 147.5 120t153.5 40q55 0 99 -11.5t78.5 -33t59.5 -51.5t42 -67q40 43 78.5 74t76 50.5t75 29t76.5 9.5q89 0 150 -30t98.5 -81.5t53.5 -120.5t16 -146v-571z" />
    <glyph glyph-name="n" unicode="n" horiz-adv-x="1099" 
d="M978 34q0 -10 -6 -17.5t-20 -12.5t-38.5 -7.5t-60.5 -2.5q-37 0 -61.5 2.5t-38.5 7.5t-20 12.5t-6 17.5v509q0 65 -9.5 102t-27.5 63.5t-46.5 41t-66.5 14.5q-48 0 -97 -35t-102 -102v-593q0 -10 -6 -17.5t-20.5 -12.5t-38.5 -7.5t-61 -2.5t-61 2.5t-38.5 7.5t-20.5 12.5
t-6 17.5v892q0 10 5 17.5t18 12.5t33.5 7.5t51.5 2.5q32 0 53 -2.5t32.5 -7.5t16.5 -12.5t5 -17.5v-103q74 80 150.5 120t159.5 40q91 0 153.5 -30t101 -81.5t55.5 -120.5t17 -166v-551z" />
    <glyph glyph-name="o" unicode="o" horiz-adv-x="1101" 
d="M1028 489q0 -114 -30 -208t-91 -162t-153 -105t-215 -37q-119 0 -207 33t-146 96t-86 155t-28 210q0 114 30.5 208.5t91.5 162t152.5 104.5t214.5 37q120 0 208 -32.5t145.5 -95.5t85.5 -155t28 -211zM769 479q0 66 -10.5 121.5t-35.5 96.5t-66.5 64t-104.5 23
q-56 0 -98 -20.5t-69 -60t-40.5 -95t-13.5 -126.5q0 -66 11 -121.5t35.5 -96.5t66.5 -63.5t104 -22.5q57 0 99 20.5t69 59.5t40 94.5t13 126.5z" />
    <glyph glyph-name="p" unicode="p" horiz-adv-x="1099" 
d="M1024 493q0 -119 -25.5 -214.5t-74.5 -162.5t-122 -103t-167 -36q-39 0 -71.5 7.5t-63 23t-60.5 38.5t-62 54v-420q0 -10 -6 -18t-20.5 -13.5t-38.5 -8.5t-61 -3t-61 3t-38.5 8.5t-20.5 13.5t-6 18v1246q0 10 5 17.5t17.5 12.5t33 7.5t51.5 2.5q30 0 50.5 -2.5t33 -7.5
t17.5 -12.5t5 -17.5v-105q39 40 76.5 70.5t76.5 51t80.5 30.5t88.5 10q98 0 167 -38.5t112.5 -105.5t63.5 -156t20 -190zM762 475q0 57 -8.5 109.5t-29 93.5t-54 65.5t-83.5 24.5q-25 0 -49.5 -7.5t-50 -24.5t-52.5 -44t-57 -67v-294q53 -67 101 -103.5t100 -36.5
q49 0 83.5 25t56.5 65.5t32.5 91.5t10.5 102z" />
    <glyph glyph-name="q" unicode="q" horiz-adv-x="1099" 
d="M972 -320q0 -10 -6 -18t-20 -13.5t-38 -8.5t-61 -3t-61 3t-38.5 8.5t-20 13.5t-5.5 18v424q-36 -33 -70 -57.5t-68 -40t-70 -22.5t-76 -7q-98 0 -167 39.5t-112.5 106.5t-63.5 156.5t-20 188.5q0 119 26 214t76 162t123 103t169 36q37 0 71 -7.5t68 -26t70.5 -48
t80.5 -72.5v97q0 10 5.5 17.5t18 12.5t32.5 7.5t52 2.5q30 0 50.5 -2.5t32.5 -7.5t17 -12.5t5 -17.5v-1246zM722 630q-54 68 -103.5 104t-103.5 36q-49 0 -84.5 -24.5t-57 -65.5t-32 -91.5t-10.5 -103.5q0 -56 9 -109.5t29.5 -94.5t54.5 -66t86 -25q26 0 50.5 7.5t50 24.5
t52.5 44.5t59 67.5v296z" />
    <glyph glyph-name="r" unicode="r" horiz-adv-x="728" 
d="M699 843q0 -36 -2 -59t-6 -36t-10.5 -18t-16.5 -5q-8 0 -18 3.5t-22.5 7.5t-27.5 7.5t-33 3.5q-21 0 -42 -8.5t-43.5 -26.5t-47 -48t-52.5 -74v-556q0 -10 -6 -17.5t-20.5 -12.5t-38.5 -7.5t-61 -2.5t-61 2.5t-38.5 7.5t-20.5 12.5t-6 17.5v892q0 10 5 17.5t18 12.5
t33.5 7.5t51.5 2.5q32 0 53 -2.5t32.5 -7.5t16.5 -12.5t5 -17.5v-111q35 50 66 82.5t59 51.5t56 26.5t56 7.5q13 0 28 -1.5t31 -5t28 -8t17.5 -9.5t8 -11t4.5 -16.5t3 -31.5t1 -57z" />
    <glyph glyph-name="s" unicode="s" horiz-adv-x="817" 
d="M754 286q0 -76 -28.5 -134t-80.5 -97t-123 -58.5t-154 -19.5q-50 0 -95.5 7.5t-81.5 19t-60 23.5t-35 22.5t-17 33t-6 66.5q0 29 2 46.5t6 28t10 14t15 3.5q11 0 32.5 -12.5t53.5 -27.5t74.5 -28t96.5 -13q34 0 60.5 7t46 20t29.5 33t10 46q0 30 -18.5 51.5t-49 37.5
t-69 30t-79 31t-79 39t-69 54t-49 77t-18.5 108q0 64 25 117.5t72 91.5t114.5 59t151.5 21q42 0 81.5 -6t71.5 -15t54 -19.5t31.5 -18t13.5 -15t6 -18t3.5 -26t1.5 -38.5q0 -27 -1.5 -44t-5 -27t-9.5 -13.5t-14 -3.5q-9 0 -28 10.5t-47.5 22.5t-66 22.5t-85.5 10.5
q-34 0 -59 -7t-41 -20t-24 -30.5t-8 -37.5q0 -31 19 -52t50 -37t70.5 -30t80 -30.5t80 -38.5t70.5 -54t50 -76.5t19 -105.5z" />
    <glyph glyph-name="t" unicode="t" horiz-adv-x="710" 
d="M654 122q0 -44 -5.5 -67.5t-14.5 -33t-26.5 -17t-41 -13t-51 -8.5t-55.5 -3q-75 0 -130 19t-91 58.5t-53 99.5t-17 142v457h-107q-19 0 -29 23.5t-10 78.5q0 29 2.5 49t7.5 31.5t12.5 16.5t17.5 5h106v199q0 10 5.5 18t20 13.5t39 8t60.5 2.5q37 0 61.5 -2.5t38.5 -8
t20 -13.5t6 -18v-199h194q10 0 17.5 -5t12.5 -16.5t7.5 -31.5t2.5 -49q0 -55 -10 -78.5t-29 -23.5h-195v-419q0 -73 23 -109.5t82 -36.5q20 0 36 3.5t28.5 8t21 8t15.5 3.5q6 0 11.5 -3.5t8.5 -14t5.5 -28.5t2.5 -46z" />
    <glyph glyph-name="u" unicode="u" horiz-adv-x="1099" 
d="M972 34q0 -10 -5 -17.5t-17.5 -12.5t-33 -7.5t-51.5 -2.5q-33 0 -53.5 2.5t-32.5 7.5t-17 12.5t-5 17.5v103q-74 -80 -150.5 -120t-158.5 -40q-92 0 -154.5 30t-101 82t-55 120.5t-16.5 170.5v546q0 10 5.5 17.5t20 12.5t39 7.5t60.5 2.5q37 0 61 -2.5t38.5 -7.5
t20.5 -12.5t6 -17.5v-504q0 -70 9 -107t27.5 -63.5t47 -41t66.5 -14.5q48 0 96.5 35t103.5 102v593q0 10 5.5 17.5t20 12.5t38.5 7.5t61 2.5t61 -2.5t38 -7.5t20 -12.5t6 -17.5v-892z" />
    <glyph glyph-name="v" unicode="v" horiz-adv-x="969" 
d="M947 927q0 -5 -0.5 -12t-2 -15.5t-4 -19.5t-6.5 -25l-268 -807q-5 -17 -13.5 -27.5t-28 -16.5t-53 -8t-87.5 -2q-53 0 -86.5 2.5t-52.5 8.5t-27.5 16.5t-13.5 26.5l-268 807q-6 20 -9.5 36t-4 23t-0.5 13q0 10 5.5 17.5t19.5 12.5t38.5 7t61.5 2q41 0 66 -2.5t39.5 -7
t20.5 -13t10 -20.5l203 -655l6 -25l6 25l200 655q3 12 9.5 20.5t20.5 13t37.5 7t61.5 2.5q37 0 60.5 -2t36.5 -7t18 -12.5t5 -17.5z" />
    <glyph glyph-name="w" unicode="w" horiz-adv-x="1526" 
d="M1491 928q0 -11 -3 -27t-11 -46l-238 -807q-5 -17 -13 -27.5t-24.5 -16.5t-47 -8t-79.5 -2t-80 2.5t-48.5 8.5t-25.5 16.5t-12 26.5l-150 542l-2 9l-2 -9l-138 -542q-4 -17 -11.5 -27.5t-25.5 -16.5t-49 -8t-80 -2q-50 0 -80.5 2.5t-48 8.5t-25.5 16.5t-12 26.5l-236 807
q-9 29 -11.5 45.5t-2.5 27.5q0 10 5.5 17.5t20 12t39 6.5t61.5 2q40 0 65 -2t39 -7t19.5 -13.5t8.5 -20.5l177 -655l2 -12l2 12l166 655q3 12 9.5 20.5t19.5 13.5t36.5 7t60.5 2t60 -2.5t36.5 -7t19 -12t8.5 -17.5l178 -660l3 -11l2 12l170 655q2 12 8 20.5t20 13.5t38 7
t61 2t60.5 -2t37 -6.5t18.5 -12t5 -17.5z" />
    <glyph glyph-name="x" unicode="x" horiz-adv-x="941" 
d="M901 52q8 -17 7.5 -28t-14.5 -18t-43 -9.5t-77 -2.5q-45 0 -72.5 1.5t-43 6t-23 11t-11.5 16.5l-165 317l-165 -317q-4 -10 -11 -16.5t-21.5 -11t-40.5 -6t-68 -1.5q-44 0 -70 2.5t-38 9.5t-12.5 18t8.5 28l247 439l-228 412q-9 18 -9.5 30.5t12.5 19.5t41.5 10t77.5 3
q44 0 70.5 -1.5t41.5 -4.5t22 -9.5t12 -16.5l159 -298l158 298q3 8 9 14t19 10t35.5 6t61.5 2q44 0 70.5 -2t38 -9t11 -19.5t-11.5 -32.5l-222 -405z" />
    <glyph glyph-name="y" unicode="y" horiz-adv-x="970" 
d="M643 0l-108 -316q-9 -25 -49 -36t-117 -11q-40 0 -64 3.5t-36 11.5t-13 20t6 29l119 299q-13 6 -23.5 18.5t-15.5 26.5l-307 820q-13 35 -13 53.5t12 29t40.5 14.5t75.5 4q43 0 68 -1.5t39 -7.5t21 -18.5t14 -35.5l210 -597h3l192 609q6 26 15.5 34.5t31.5 12.5t77 4
q43 0 71.5 -4t42 -15t13.5 -29.5t-8 -43.5z" />
    <glyph glyph-name="z" unicode="z" horiz-adv-x="814" 
d="M750 103q0 -29 -3 -49.5t-8 -32.5t-13 -16.5t-18 -4.5h-583q-27 0 -41.5 18t-14.5 59v46q0 18 1.5 32.5t6 28t12 27.5t19.5 31l334 516h-316q-19 0 -30.5 24t-11.5 77q0 29 2.5 48.5t7.5 31t13 16.5t19 5h545q14 0 24 -3t16.5 -11t10 -22t3.5 -35v-49q0 -20 -2 -35.5
t-6 -29.5t-11.5 -28t-17.5 -30l-332 -515h352q9 0 17 -4t13.5 -15t8.5 -30.5t3 -49.5z" />
    <glyph glyph-name="braceleft" unicode="{" horiz-adv-x="704" 
d="M632 -238q0 -26 -2.5 -42.5t-7.5 -26.5t-12 -15t-15 -7q-23 -6 -44 -8t-47 -2q-79 0 -131 25t-83 72.5t-43.5 119.5t-12.5 186v172q0 63 -8 100t-25 65.5t-43.5 47.5t-64.5 25q-10 2 -17 7.5t-12 16t-7.5 28.5t-2.5 44q0 27 2 45.5t6.5 29.5t11 15.5t16.5 6.5
q70 10 107 68t37 171v129q0 114 12.5 185.5t44 120t83.5 73t130 24.5q26 0 47 -2.5t43 -7.5q9 -1 16 -6t12 -15t7.5 -27.5t2.5 -42.5q0 -26 -3 -43t-8 -28t-13 -15.5t-16 -4.5l-37 -1q-25 -1 -41.5 -9.5t-27 -30t-15 -58t-4.5 -113.5v-124q0 -77 -11 -129t-35.5 -94
t-63.5 -72.5t-96 -43.5q57 -13 96 -43t63.5 -72.5t35.5 -94.5t11 -128v-168q0 -76 4.5 -112.5t14 -58t24 -30.5t36.5 -10h37q14 -1 24 -5.5t15.5 -15t7.5 -27.5t2 -44z" />
    <glyph glyph-name="bar" unicode="|" horiz-adv-x="973" 
d="M605 -323q0 -10 -5.5 -18t-19.5 -13.5t-36.5 -8t-57.5 -2.5q-34 0 -56.5 2.5t-36.5 8t-19.5 13.5t-5.5 18v1726q0 10 5.5 18t19.5 13.5t36.5 8.5t56.5 3q35 0 57.5 -3t36.5 -8.5t19.5 -13.5t5.5 -18v-1726z" />
    <glyph glyph-name="braceright" unicode="}" horiz-adv-x="704" 
d="M684 574q0 -28 -2.5 -46t-6.5 -29t-11 -16t-16 -6q-38 -5 -65 -29.5t-44.5 -61t-26 -81.5t-8.5 -112v-129q0 -114 -12.5 -185.5t-44 -119.5t-83.5 -73t-130 -25q-25 0 -46 2.5t-46 7.5q-8 2 -14.5 7t-11.5 15t-8 26.5t-3 42.5t3 43t8.5 28t13 15.5t15.5 5.5h38
q25 1 41.5 9.5t27 30t15 58.5t4.5 113v125q0 76 11 135t35 109.5t63.5 88t96.5 50.5q-57 13 -96.5 36t-63.5 57t-35 79t-11 122v167q0 76 -4.5 112.5t-13.5 58.5t-24 30.5t-37 9.5l-36 1q-15 0 -25 4.5t-16 14.5t-8 27.5t-2 44.5q0 25 2.5 42.5t8 27.5t12.5 15t16 6
q23 6 44 8t46 2q79 0 131 -24.5t83 -72.5t43.5 -119.5t12.5 -186.5v-172q0 -62 8 -92.5t24.5 -50.5t43.5 -32t65 -19q9 -1 16.5 -6.5t12 -16.5t7.5 -28.5t3 -43.5z" />
    <glyph glyph-name="asciitilde" unicode="~" horiz-adv-x="1020" 
d="M966 1070q-1 -79 -24 -138t-60 -97.5t-85.5 -57.5t-101.5 -19q-43 0 -76 8t-59 21.5t-46.5 31.5t-41 39t-36.5 40t-31.5 33t-31.5 21.5t-38 7.5q-25 0 -43 -10.5t-29 -30t-16.5 -46t-5.5 -58.5q0 -19 -22.5 -27t-69.5 -8q-27 0 -45 2.5t-28.5 8t-14.5 13.5t-4 18v27
q0 80 20.5 140t57 99.5t86 58.5t107.5 19q43 0 76 -7.5t59.5 -21t47 -31t40.5 -38.5t36 -40t31 -33t31.5 -22t38.5 -8q24 0 42 10.5t29.5 29.5t17 46t5.5 62q0 17 24 24.5t67 7.5q28 0 46 -2.5t28.5 -8t15 -13.5t3.5 -19v-32z" />
    <glyph glyph-name="exclamdown" unicode="&#xa1;" horiz-adv-x="667" 
d="M186.059 767.052q1 9.99902 5.99902 17.998q5 7.99902 17.498 13.498q12.499 5.49902 33.9961 8.49902t52.4932 3q31.9961 0 52.9941 -3q20.9971 -3 33.4961 -8.49902q12.498 -5.49902 17.4971 -13.498q5 -7.99902 6 -17.998l25.9961 -907.89
q0 -12.998 -5.99902 -22.9971q-5.99902 -9.99805 -21.4971 -16.498q-15.498 -6.49902 -41.9951 -9.49805q-26.4971 -3 -66.4922 -3t-65.9912 3.5q-25.9971 3.49902 -41.4951 9.99805t-21.9971 15.998q-6.5 9.49902 -6.5 22.4971zM155.062 1060.02q0 40.9951 6.49902 68.9922
q6.49902 27.9961 22.9971 44.9941t43.4951 24.4971t67.9912 7.49902q40.9951 0 68.4922 -7.49902q27.4961 -7.49902 43.4941 -24.4971t22.498 -44.9941q6.49902 -27.9971 6.49902 -68.9922q0 -41.9941 -6.49902 -70.4912q-6.5 -28.4961 -22.498 -45.9941t-43.4941 -24.9971
q-27.4971 -7.49902 -68.4922 -7.49902q-40.9941 0 -67.9912 7.49902t-43.4951 24.9971t-22.9971 45.9941q-6.49902 28.4971 -6.49902 70.4912z" />
    <glyph glyph-name="cent" unicode="&#xa2;" horiz-adv-x="1020" 
d="M896 331q0 -43 -4.5 -64.5t-15 -33.5t-28.5 -24t-39.5 -23t-47 -19.5t-54.5 -13.5v-138q0 -10 -4.5 -17.5t-16.5 -12.5t-32 -7.5t-50 -2.5t-50 2.5t-32 7.5t-16.5 12.5t-4.5 17.5v134q-163 26 -247.5 148t-84.5 330q0 112 24 198t67.5 148.5t104.5 101t135 54.5v137
q0 10 4.5 18t16.5 13.5t32 8t50 2.5t50.5 -2.5t32 -8t16.5 -13.5t5 -18v-132q22 -3 46.5 -10t47 -17t41.5 -22t30.5 -23t16 -19.5t7.5 -20t4 -28t1 -38.5q0 -19 -2 -38t-7 -34t-14 -25t-22 -10q-16 0 -33.5 14t-43 31t-61 31.5t-87.5 14.5q-44 0 -80.5 -16.5t-64 -52.5
t-43 -92t-15.5 -136q0 -77 14 -132.5t41.5 -91t67 -52.5t90.5 -17t87 15.5t62 34.5t45 34.5t32 15.5q9 0 15 -9t9 -24.5t4 -37.5t1 -48z" />
    <glyph glyph-name="sterling" unicode="&#xa3;" horiz-adv-x="1038" 
d="M958 101q0 -28 -3 -47.5t-8.5 -31.5t-12.5 -17t-16 -5h-802q-9 0 -16 5t-12.5 17t-8.5 31.5t-3 47.5q0 29 2.5 48.5t8 31.5t13 17t16.5 5h106v356h-106q-9 0 -16 4.5t-12.5 16t-8.5 30.5t-3 48q0 28 2.5 47t8 30.5t13 16.5t16.5 5h106v92q0 122 27 210.5t79 145.5
t129 83.5t177 26.5q44 0 84.5 -6.5t74.5 -18t61.5 -27t40 -28.5t18 -21.5t8.5 -21t4.5 -30.5t1.5 -44q0 -28 -2.5 -47t-7.5 -30.5t-12 -16.5t-15 -5q-14 0 -31.5 14t-44 30.5t-62.5 30.5t-86 14t-85 -16.5t-57 -48t-32 -78t-10 -106.5v-102h269q9 0 16.5 -5t12.5 -16.5
t8 -30.5t3 -47q0 -29 -3 -48t-8.5 -30.5t-12.5 -16t-16 -4.5h-269v-356h436q9 0 16.5 -5t12.5 -17t8 -31.5t3 -48.5z" />
    <glyph glyph-name="currency" unicode="&#xa4;" horiz-adv-x="1020" 
d="M830 858q37 -47 58.5 -116t21.5 -156t-24.5 -157t-68.5 -121l135 -206q16 -27 21 -45t-4.5 -28t-35 -14t-69.5 -4q-38 0 -61.5 1.5t-38 5.5t-21.5 11t-12 17l-85 160q-29 -13 -65.5 -21t-81.5 -8q-40 0 -73.5 5.5t-57.5 16.5l-85 -159q-5 -11 -12 -18t-21.5 -10.5t-38 -5
t-61.5 -1.5q-44 0 -69.5 3.5t-35.5 13.5t-5 27.5t22 44.5l131 201q-42 49 -64.5 116.5t-22.5 157.5q0 92 24 163.5t65 120.5l-135 210q-17 27 -22 44.5t4.5 27.5t35 14t69.5 4q38 0 61.5 -2t38 -5.5t21.5 -10.5t12 -17l86 -160q29 13 68 21t84 8q42 0 76.5 -6.5t62.5 -20.5
l85 159q4 11 11 18t21.5 11t38 5.5t62.5 1.5q44 0 69.5 -4t35 -14t4 -27.5t-21.5 -44.5zM685 574q0 52 -10 95t-32 73.5t-56 48t-82 17.5q-44 0 -76.5 -17t-54 -47t-32.5 -69.5t-11 -85.5q0 -59 11.5 -102t34 -72t57 -43.5t79.5 -14.5q44 0 76.5 17t53.5 45.5t31.5 68.5
t10.5 86z" />
    <glyph glyph-name="yen" unicode="&#xa5;" horiz-adv-x="1038" 
d="M651 642v-36h250q14 0 23 -19t9 -65q0 -49 -9.5 -69t-22.5 -20h-250v-125h250q14 0 23 -19.5t9 -66.5q0 -48 -9.5 -68t-22.5 -20h-250v-102q0 -10 -6.5 -17.5t-21.5 -12t-40.5 -6.5t-63.5 -2t-63.5 2t-40.5 6.5t-21.5 12t-6.5 17.5v102h-249q-14 0 -23.5 20t-9.5 68
q0 47 9.5 66.5t23.5 19.5h249v125h-249q-14 0 -23.5 20t-9.5 69q0 46 9.5 65t23.5 19h249v36l-322 554q-21 35 -28.5 56t2.5 32t40 13.5t84 2.5q43 0 70 -1.5t43 -5.5t24.5 -12t14.5 -22l110 -208q29 -56 54.5 -111.5t48.5 -109.5q24 54 49 109t55 112l110 208q7 14 14 22.5
t21.5 12t40.5 5t70 1.5q48 0 75.5 -2.5t36.5 -12.5t1 -31.5t-29 -57.5z" />
    <glyph glyph-name="brokenbar" unicode="&#xa6;" horiz-adv-x="1020" 
d="M627 771q0 -10 -5.5 -18t-19 -13.5t-36.5 -8.5t-57 -3t-57 3t-36.5 8.5t-19 13.5t-5.5 18v643q0 10 5.5 18t19 13t36.5 8t57 3t57 -3t36.5 -8t19 -13t5.5 -18v-643zM627 -339q0 -10 -5.5 -18t-19 -13t-36.5 -8t-57 -3t-57 3t-36.5 8t-19 13t-5.5 18v648q0 10 5.5 17.5
t19 13.5t36.5 8.5t57 2.5t57 -2.5t36.5 -8.5t19 -13.5t5.5 -17.5v-648z" />
    <glyph glyph-name="section" unicode="&#xa7;" horiz-adv-x="1020" 
d="M937 571q0 -45 -12.5 -85.5t-35.5 -76t-54.5 -64.5t-70.5 -51q40 -38 60 -85.5t20 -107.5q0 -76 -28.5 -134t-80.5 -97t-122.5 -58.5t-153.5 -19.5q-56 0 -103 9.5t-83 21.5t-58.5 25t-29 19t-10 12.5t-5.5 17.5t-3.5 26t-1.5 37q0 29 2 47t6 28.5t10 14t15 3.5
q14 0 34.5 -12.5t51 -28t73 -28t99.5 -12.5q33 0 59.5 6.5t45 20.5t28.5 33.5t10 46.5q0 25 -8 44.5t-26.5 36.5t-49.5 33.5t-76 34.5l-88 35q-64 26 -113.5 56t-83 67.5t-51 86t-17.5 112.5q0 43 13 83.5t36 76t55.5 65t71.5 50.5q-39 38 -59 87.5t-20 117.5q0 69 26.5 123
t75 91t114.5 56.5t145 19.5q43 0 83 -6.5t72 -16t54.5 -20.5t29.5 -17t10.5 -12t6 -17t4 -27.5t1.5 -40.5q0 -27 -1.5 -44t-5.5 -27t-9.5 -14t-13.5 -4q-11 0 -28.5 10.5t-44.5 23t-64.5 23.5t-87.5 11q-34 0 -58 -8.5t-39 -22t-21.5 -30.5t-6.5 -35q0 -26 8 -46.5
t26.5 -38.5t49.5 -34.5t76 -35.5l87 -35q65 -26 114 -55.5t83 -67.5t51 -86t17 -111zM695 548q0 53 -31 86t-99 59l-78 33q-18 7 -33.5 14t-28.5 14q-50 -22 -73.5 -62.5t-23.5 -85.5q0 -25 7.5 -46t23.5 -38.5t40.5 -32t59.5 -28.5l78 -31q18 -7 33 -14.5t28 -15.5
q50 23 73.5 64t23.5 84z" />
    <glyph glyph-name="dieresis" unicode="&#xa8;" horiz-adv-x="849" 
d="M356 1227q0 -70 -26.5 -97.5t-100.5 -27.5q-75 0 -101 26.5t-26 93.5q0 72 27 99t100 27q76 0 101.5 -26.5t25.5 -94.5zM747 1227q0 -70 -26.5 -97.5t-101.5 -27.5q-74 0 -100 26.5t-26 93.5q0 72 26.5 99t100.5 27q75 0 101 -26.5t26 -94.5zM0 960z" />
    <glyph glyph-name="copyright" unicode="&#xa9;" horiz-adv-x="1709" 
d="M858 135q147 0 245.5 43t157.5 118.5t84 178.5t25 222q0 131 -26.5 232.5t-87.5 171t-160.5 105.5t-244.5 36q-134 0 -230.5 -37t-159 -108.5t-92.5 -176.5t-30 -242q0 -138 29 -240.5t91.5 -169.5t161 -100t237.5 -33zM1552 711q0 -186 -47 -324t-137 -229t-220.5 -136
t-299.5 -45q-171 0 -300 43.5t-216 130t-130.5 215.5t-43.5 299q0 187 47 325t137 229t220.5 136t297.5 45q171 0 300 -44.5t216.5 -131t131.5 -215.5t44 -298zM1123 425q0 -22 -1 -37.5t-3 -26t-5.5 -17t-12.5 -15.5t-31.5 -23t-53.5 -26t-69.5 -19.5t-81.5 -7.5
q-90 0 -159 27.5t-116 81.5t-71 132.5t-24 179.5q0 115 29 199t80.5 138.5t122.5 81t155 26.5q37 0 71 -6t63 -16t52 -23.5t33.5 -24t14.5 -17t6.5 -16.5t3.5 -24t1 -33q0 -16 -2 -32t-6 -29t-11.5 -21t-19.5 -8q-14 0 -29.5 12.5t-37 27t-52 26.5t-76.5 12
q-86 0 -132.5 -65.5t-46.5 -192.5q0 -65 10.5 -113.5t33.5 -81t58 -48.5t84 -16q43 0 74.5 13.5t55 30t40 30t29.5 13.5q6 0 10.5 -4t7.5 -14.5t4.5 -28t1.5 -45.5z" />
    <glyph glyph-name="ordfeminine" unicode="&#xaa;" horiz-adv-x="852" 
d="M721 648q0 -7 -3.5 -12.5t-13 -9t-26 -5.5t-41.5 -2q-27 0 -44.5 2t-27 6t-13 9.5t-3.5 13.5v41h-3q-34 -38 -85 -60.5t-116 -22.5q-57 0 -102 13t-76.5 39t-48 65t-16.5 91q0 55 21 95.5t64 66.5t108 38.5t155 12.5h65v31q0 24 -5 42t-18.5 30t-35.5 18.5t-57 6.5
q-43 0 -76.5 -9.5t-58 -20t-41.5 -19.5t-28 -9q-21 0 -32 23t-11 67q0 15 2 26.5t6 20t12.5 15t40.5 20.5t89 28t127 14q77 0 132.5 -14.5t91 -45.5t52 -78.5t16.5 -111.5v-415zM730 411q0 -46 -9.5 -65.5t-31.5 -19.5h-538q-22 0 -31.5 19.5t-9.5 65.5q0 48 9.5 67.5
t31.5 19.5h538q22 0 31.5 -19t9.5 -68zM515 912h-58q-42 0 -70 -5.5t-46 -17t-25.5 -28t-7.5 -37.5q0 -37 24 -56.5t65 -19.5q18 0 33.5 4t29.5 12t27.5 20.5t27.5 28.5v99z" />
    <glyph glyph-name="guillemotleft" unicode="&#xab;" horiz-adv-x="1103" 
d="M943 157q6 -12 5 -20.5t-11.5 -14.5t-33 -9t-58.5 -3q-29 0 -47.5 1t-30.5 4.5t-18.5 8.5t-11.5 14l-222 346q-13 21 -12.5 42.5t16.5 47.5l206 328q5 8 12 14.5t18.5 10t29.5 5t47 1.5q36 0 58.5 -3.5t33.5 -10t11.5 -16t-5.5 -22.5l-190 -355zM331 525l200 -383
q7 -13 6.5 -23.5t-11 -17.5t-32.5 -11t-59 -4q-29 0 -47.5 2t-30.5 5.5t-19 10t-12 15.5l-224 365q-13 22 -12.5 44t16.5 47l213 347q6 9 12.5 15.5t18.5 10t30.5 5.5t48.5 2q36 0 58.5 -3.5t33 -11t11.5 -17.5t-6 -23z" />
    <glyph glyph-name="logicalnot" unicode="&#xac;" horiz-adv-x="1020" 
d="M934 277q0 -10 -5 -18.5t-17 -14t-31 -8.5t-48 -3t-48.5 3t-31 8.5t-17 14t-5.5 18.5v214h-645q-10 0 -17 4.5t-12 16t-7.5 30.5t-2.5 46t3 45t8.5 29.5t13 16.5t16.5 5h760q43 0 64.5 -20t21.5 -68v-319z" />
    <glyph glyph-name="registered" unicode="&#xae;" horiz-adv-x="1038" 
d="M933 1016q0 -86 -32.5 -160.5t-88.5 -129.5t-132 -86.5t-163 -31.5q-89 0 -164.5 30.5t-130.5 84t-86 128t-31 163.5q0 86 32.5 160t88.5 129t132 86.5t163 31.5q90 0 165.5 -30.5t130.5 -84t85.5 -128t30.5 -162.5zM815 1012q0 67 -22 123t-61 97t-93.5 63.5
t-118.5 22.5q-67 0 -121.5 -23.5t-93.5 -64.5t-60.5 -95.5t-21.5 -116.5q0 -67 22 -123.5t61.5 -97.5t93 -63.5t118.5 -22.5q67 0 122 23.5t93.5 64.5t60 95.5t21.5 117.5zM714 834q0 -5 -2.5 -8.5t-10.5 -5.5t-21.5 -3t-35.5 -1t-35 1.5t-20.5 4.5t-11 8t-5.5 13l-17 66
q-10 34 -22.5 45.5t-36.5 11.5h-24v-127q0 -13 -11.5 -18t-48.5 -5q-39 0 -52 5t-13 18v342q0 27 13 42t41 15h128q35 0 66.5 -6t55 -20t37.5 -37.5t14 -57.5q0 -45 -25.5 -73t-68.5 -39q26 -7 46 -25t33 -53l20 -59q7 -25 7 -34zM568 1102q0 9 -3 17.5t-9.5 14.5t-18 9.5
t-28.5 3.5h-37v-94h36q34 0 47 14t13 35z" />
    <glyph glyph-name="macron" unicode="&#xaf;" horiz-adv-x="799" 
d="M656 1323q11 0 19 -4.5t12.5 -15.5t7 -28.5t2.5 -43.5t-2.5 -43t-7 -28t-12.5 -15.5t-19 -4.5h-510q-12 0 -20.5 4.5t-13.5 15.5t-7.5 28t-2.5 43q0 25 2.5 43t7.5 28.5t13.5 15.5t20.5 5h510zM0 960z" />
    <glyph glyph-name="macron" unicode="&#x2c9;" horiz-adv-x="799" 
d="M656 1323q11 0 19 -4.5t12.5 -15.5t7 -28.5t2.5 -43.5t-2.5 -43t-7 -28t-12.5 -15.5t-19 -4.5h-510q-12 0 -20.5 4.5t-13.5 15.5t-7.5 28t-2.5 43q0 25 2.5 43t7.5 28.5t13.5 15.5t20.5 5h510zM0 960z" />
    <glyph glyph-name="degree" unicode="&#xb0;" horiz-adv-x="701" 
d="M627 1127q0 -56 -20.5 -104t-58 -84t-89 -56.5t-113.5 -20.5t-112 19t-86 52.5t-55 80.5t-19 103t21 104t58 83.5t88.5 56.5t112.5 21q62 0 112.5 -19t86 -52.5t55 -80.5t19.5 -103zM455 1121q0 24 -8 45.5t-22 36.5t-34 23t-43 8q-21 0 -40.5 -8.5t-33 -23.5
t-21.5 -35.5t-8 -43.5q0 -24 8 -45.5t22 -36.5t34 -23.5t43 -8.5q21 0 40.5 8.5t33.5 24t21.5 36t7.5 43.5zM0 1294z" />
    <glyph glyph-name="plusminus" unicode="&#xb1;" horiz-adv-x="1020" 
d="M951 756q0 -52 -12 -73.5t-30 -21.5h-300v-328q0 -9 -5 -16.5t-16.5 -12.5t-30.5 -8t-47 -3t-47.5 3t-31 8t-16.5 12.5t-5 16.5v328h-300q-17 0 -29 21.5t-12 73.5q0 26 3 44.5t8 29.5t12 15.5t16 4.5h302v329q0 10 5 17t16.5 12.5t31 8.5t47.5 3t47 -3t30.5 -8.5
t16.5 -12.5t5 -17v-329h303q8 0 15 -4.5t12.5 -15.5t8.5 -29.5t3 -44.5zM938 96q0 -27 -3.5 -46t-9 -30t-13 -15.5t-15.5 -4.5h-772q-8 0 -15.5 4.5t-13 15.5t-9 30t-3.5 46q0 28 2.5 46.5t7.5 30t12 16.5t16 5h778q8 0 15 -5t12.5 -16.5t8 -30t2.5 -46.5z" />
    <glyph glyph-name="uni00B2" unicode="&#xb2;" horiz-adv-x="692" 
d="M637 793q0 -42 -6.5 -60t-21.5 -18h-486q-17 0 -29 2.5t-19 10.5t-10 23t-3 41q0 24 2.5 40.5t8.5 30.5t16 26t25 28l132 130q35 35 58 63t35.5 52.5t17 46t4.5 41.5q0 38 -24 61t-70 23q-31 0 -57 -9t-46.5 -19.5t-36 -19.5t-24.5 -9q-6 0 -11 4t-8.5 14t-5 26.5
t-1.5 43.5q0 29 3.5 45.5t13.5 26.5t33 22.5t55.5 23.5t71.5 18.5t82 7.5q68 0 118.5 -15.5t84.5 -44t50.5 -68.5t16.5 -87q0 -35 -7 -69.5t-30.5 -76t-68 -92t-119.5 -118.5l-72 -67h298q12 0 21 -18t9 -60z" />
    <glyph glyph-name="uni00B3" unicode="&#xb3;" horiz-adv-x="688" 
d="M625 946q0 -64 -26.5 -110.5t-72 -77t-107 -45.5t-131.5 -15q-46 0 -83.5 5.5t-65.5 13.5t-44.5 15.5t-21 12t-8 11t-5.5 16t-3 25.5t-1 41q0 31 5.5 45t17.5 14q7 0 21.5 -7t37 -15.5t52.5 -15.5t67 -7q63 0 96.5 23t33.5 68q0 22 -9 40.5t-29 31t-50.5 18.5t-73.5 6
h-61q-11 0 -17 3t-10 11.5t-5.5 23t-1.5 36.5q0 21 2 34t5.5 20.5t9.5 10.5t15 3h64q72 0 107 25.5t35 71.5q0 36 -24 57t-76 21q-33 0 -61.5 -8t-50.5 -19t-37.5 -19t-23.5 -8q-13 0 -18 15t-5 54q0 17 1 29t2.5 19.5t4 12.5t8.5 11t28 18t53 22.5t71.5 18t87.5 7.5
q66 0 116 -14.5t82.5 -40.5t48.5 -63t16 -81q0 -71 -36 -120t-111 -67v-2q40 -3 74 -18t57.5 -38.5t36.5 -54t13 -64.5z" />
    <glyph glyph-name="acute" unicode="&#xb4;" horiz-adv-x="616" 
d="M256 1364q7 11 17 19t25 12.5t38 6.5t56 2q46 0 72.5 -4t38 -11.5t10.5 -17.5t-10 -21l-194 -232q-8 -10 -16 -16.5t-20.5 -10.5t-31.5 -6t-48 -2q-35 0 -55.5 3t-28.5 9.5t-6.5 16.5t10.5 23zM0 960z" />
    <glyph glyph-name="mu" unicode="&#xb5;" horiz-adv-x="1154" 
d="M1140 108q0 -45 -5.5 -68t-14 -31.5t-22.5 -13.5t-33 -9t-40 -6t-44 -2q-88 0 -145 34.5t-82 113.5q-66 -76 -130 -109t-127 -33q-46 0 -80.5 12t-56.5 39q3 -26 6 -55t6 -59.5t4.5 -59.5t1.5 -53v-128q0 -10 -6 -18t-20.5 -13.5t-38.5 -8.5t-61 -3t-61 3t-38.5 8.5
t-20.5 13.5t-6 18v1246q0 10 6 17.5t20.5 12.5t38.5 7.5t61 2.5t61 -2.5t38.5 -7.5t20.5 -12.5t6 -17.5v-541q0 -88 38 -138.5t111 -50.5q49 0 97.5 34.5t102.5 101.5v594q0 10 6 17.5t20 12.5t38.5 7.5t61.5 2.5q36 0 60.5 -2.5t38.5 -7.5t20 -12.5t6 -17.5v-616
q0 -34 4 -57t12 -37t22 -20.5t34 -6.5q13 0 22.5 1.5t17 3t13 3t11.5 1.5q7 0 11.5 -3t8 -13t5 -27.5t1.5 -46.5z" />
    <glyph glyph-name="paragraph" unicode="&#xb6;" horiz-adv-x="1224" 
d="M1068 -203q0 -8 -4.5 -14t-15.5 -10.5t-29 -6.5t-46 -2q-27 0 -45.5 2t-29.5 6.5t-15.5 10.5t-4.5 14v1322h-176v-1322q0 -8 -4.5 -14t-15.5 -10.5t-29.5 -6.5t-45.5 -2q-55 0 -75 8.5t-20 24.5v708q-101 0 -181 25.5t-135.5 75.5t-84.5 122t-29 165q0 87 30 160.5
t86.5 127t139 83.5t207.5 30h463q29 0 44.5 -17t15.5 -46v-1434z" />
    <glyph glyph-name="periodcentered" unicode="&#xb7;" horiz-adv-x="548" 
d="M422 598q0 -93 -32.5 -125.5t-116.5 -32.5t-116 32t-32 120q0 93 32.5 125.5t117.5 32.5q83 0 115 -32t32 -120z" />
    <glyph glyph-name="periodcentered" unicode="&#x2219;" horiz-adv-x="548" 
d="M422 598q0 -93 -32.5 -125.5t-116.5 -32.5t-116 32t-32 120q0 93 32.5 125.5t117.5 32.5q83 0 115 -32t32 -120z" />
    <glyph glyph-name="cedilla" unicode="&#xb8;" horiz-adv-x="621" 
d="M485 -66q17 -39 25.5 -68t8.5 -56q0 -46 -17 -79t-46 -54t-68 -31.5t-84 -10.5q-43 0 -81 6t-62.5 13t-35 12t-15 13t-6.5 20.5t-2 34.5q0 40 7.5 55.5t27.5 15.5h116q29 0 43.5 12.5t14.5 34.5q0 12 -5 27t-12 31l-41 90h202z" />
    <glyph glyph-name="uni00B9" unicode="&#xb9;" horiz-adv-x="517" 
d="M407 737q0 -7 -4.5 -12.5t-15.5 -9t-31 -5t-50 -1.5t-49.5 1.5t-31 5t-16.5 9t-5 12.5v574l-120 -58q-17 -8 -27.5 -9t-16.5 5.5t-8.5 21.5t-2.5 40q0 19 1 31.5t4 21t8 14.5t14 12l172 104q5 2 11 4t16 3t25.5 1.5t40.5 0.5q29 0 46.5 -1.5t26.5 -4t11 -6t2 -8.5v-746z
" />
    <glyph glyph-name="ordmasculine" unicode="&#xba;" horiz-adv-x="891" 
d="M796 966q0 -81 -23.5 -147.5t-68.5 -113.5t-112 -72t-152 -25q-92 0 -159 22.5t-110.5 67t-64.5 110t-21 150.5q0 82 22.5 148t67.5 112.5t112.5 71.5t158.5 25q87 0 152.5 -23.5t109 -68.5t66 -110t22.5 -147zM756 411q0 -46 -9 -65.5t-31 -19.5h-552q-22 0 -32 19.5
t-10 65.5q0 48 10 67.5t32 19.5h552q22 0 31 -19t9 -68zM570 958q0 42 -6.5 77t-21.5 60t-39.5 39.5t-62.5 14.5q-33 0 -58 -13t-40.5 -36.5t-23 -58t-7.5 -78.5q0 -43 6 -78t21 -59.5t40 -38t62 -13.5q32 0 56.5 10.5t40.5 32.5t24.5 57t8.5 84z" />
    <glyph glyph-name="guillemotright" unicode="&#xbb;" horiz-adv-x="1103" 
d="M781 119q-6 -9 -12.5 -15.5t-18.5 -10t-30.5 -5.5t-47.5 -2q-37 0 -59 3.5t-33 11t-11.5 17.5t5.5 23l195 375l-200 383q-7 13 -6.5 23.5t11 17.5t32.5 11t60 4q29 0 47.5 -2t30 -5.5t18.5 -10t12 -15.5l224 -366q13 -21 12.5 -43t-16.5 -48zM376 139q-6 -9 -12.5 -15
t-18.5 -9.5t-30 -5t-47 -1.5q-37 0 -59 3t-33 9.5t-11.5 16.5t6.5 23l190 355l-203 369q-7 12 -6 20.5t11.5 14.5t33 9t59.5 3q29 0 47.5 -1t30 -4.5t18 -9t12.5 -13.5l221 -347q13 -20 12.5 -41.5t-16.5 -47.5z" />
    <glyph glyph-name="onequarter" unicode="&#xbc;" horiz-adv-x="1347" 
d="M1288 184q0 -34 -7 -51t-19 -17h-64v-97q0 -6 -4.5 -11t-16.5 -8t-31 -4.5t-48 -1.5q-28 0 -47 1.5t-30 4.5t-16 8t-5 11v97h-277q-10 0 -18 2.5t-12.5 10t-7 23t-2.5 41.5q0 21 1 36t3.5 27t7 22.5t11.5 23.5l208 329q3 4 12 8.5t25.5 7.5t41.5 4.5t62 1.5q42 0 69 -2
t44 -5.5t23.5 -8.5t6.5 -11v-376h64q10 0 18 -15t8 -51zM1000 504h-2l-161 -254h163v254zM291 7q-9 -12 -18.5 -19.5t-23.5 -12.5t-34 -7t-49 -2q-33 0 -52.5 4t-28 12t-7 18.5t12.5 25.5l922 1263q9 11 18 19t23.5 13t34.5 7t49 2q33 0 52.5 -4t28 -12t6.5 -19t-12 -25z
M438 667q0 -7 -4 -11.5t-15.5 -8t-31.5 -5t-51 -1.5q-30 0 -50.5 1.5t-32 4.5t-16.5 8t-5 12v462l-120 -56q-18 -7 -29 -9t-17 3.5t-8 19t-2 38.5q0 17 0.5 29t3.5 21t8.5 14.5t13.5 10.5l176 99q4 2 9.5 3t14.5 2t25 1.5t41 0.5q30 0 48 -1t27.5 -3.5t12 -5.5t2.5 -7v-622z
" />
    <glyph glyph-name="onehalf" unicode="&#xbd;" horiz-adv-x="1415" 
d="M438 667q0 -7 -4 -11.5t-15.5 -8t-31.5 -5t-51 -1.5q-30 0 -50.5 1.5t-32 4.5t-16.5 8t-5 12v462l-120 -56q-18 -7 -29 -9t-17 3.5t-8 19t-2 38.5q0 17 0.5 29t3.5 21t8.5 14.5t13.5 10.5l176 99q4 2 9.5 3t14.5 2t25 1.5t41 0.5q30 0 48 -1t27.5 -3.5t12 -5.5t2.5 -7
v-622zM1344 70q0 -38 -6.5 -54t-18.5 -16h-445q-18 0 -30 2t-19 10.5t-9.5 25t-2.5 43.5q0 18 1.5 31t6 23.5t13 21t22.5 23.5l126 110q29 27 48.5 47t31.5 37.5t17.5 34.5t5.5 36q0 29 -22 48t-58 19q-30 0 -54 -7t-43.5 -16t-33.5 -16.5t-23 -7.5q-5 0 -9.5 3.5t-7.5 12.5
t-5 24.5t-2 38.5q0 27 3.5 39.5t11 20.5t28.5 18.5t50.5 20t68 15.5t82.5 6q63 0 109.5 -13.5t77 -38t45.5 -59.5t15 -77q0 -31 -8 -61t-29 -62.5t-57 -68.5t-91 -77l-81 -64h262q15 0 22.5 -18t7.5 -55zM291 7q-9 -12 -18.5 -19.5t-23.5 -12.5t-34 -7t-49 -2q-33 0 -52.5 4
t-28 12t-7 18.5t12.5 25.5l922 1263q9 11 18 19t23.5 13t34.5 7t49 2q33 0 52.5 -4t28 -12t6.5 -19t-12 -25z" />
    <glyph glyph-name="threequarters" unicode="&#xbe;" horiz-adv-x="1437" 
d="M608 839q0 -50 -23 -89t-64.5 -65.5t-99.5 -40.5t-128 -14q-41 0 -76.5 4.5t-63.5 11.5t-48 15.5t-29 17.5t-13 27t-4 49q0 32 5.5 42t15.5 10q9 0 22.5 -6.5t34 -14.5t49.5 -14.5t71 -6.5q31 0 53 6t35.5 15.5t20 22.5t6.5 28q0 18 -7 32.5t-24 24.5t-44.5 15t-68.5 5
h-63q-10 0 -16.5 2.5t-10 9.5t-5 19.5t-1.5 31.5t1.5 31t5 18.5t9.5 8.5t14 2h68q64 0 95 20.5t31 55.5q0 27 -21 45.5t-71 18.5q-29 0 -55 -7.5t-47.5 -16t-36.5 -16t-23 -7.5q-5 0 -9.5 2.5t-7.5 9.5t-4.5 19t-1.5 31q0 15 0.5 25.5t2 17.5t4.5 11t8.5 9t26.5 15.5
t52 19.5t71 15t86 6q61 0 107.5 -11t78 -32.5t47 -53.5t15.5 -72q0 -28 -8.5 -53t-25.5 -45t-42.5 -35t-59.5 -23q42 -4 73.5 -16.5t52 -32t30.5 -45t10 -53.5zM378 7q-9 -12 -18.5 -19.5t-23.5 -12.5t-34 -7t-49 -2q-33 0 -52.5 4t-28 12t-7 18.5t12.5 25.5l922 1263
q9 11 18 19t23.5 13t34.5 7t49 2q33 0 52.5 -4t28 -12t6.5 -19t-12 -25zM1378 184q0 -34 -7 -51t-19 -17h-64v-97q0 -6 -4.5 -11t-16.5 -8t-31 -4.5t-48 -1.5q-28 0 -47 1.5t-30 4.5t-16 8t-5 11v97h-277q-10 0 -18 2.5t-12.5 10t-7 23t-2.5 41.5q0 21 1 36t3.5 27t7 22.5
t11.5 23.5l208 329q3 4 12 8.5t25.5 7.5t41.5 4.5t62 1.5q42 0 69 -2t44 -5.5t23.5 -8.5t6.5 -11v-376h64q10 0 18 -15t8 -51zM1090 504h-2l-161 -254h163v254z" />
    <glyph glyph-name="questiondown" unicode="&#xbf;" horiz-adv-x="949" 
d="M83.1055 204.121q0 81.9893 23.4971 147.981t65.9922 113.986t101.987 76.9902q59.4932 28.9971 131.484 36.9951l7.99902 194.977q1 17.998 28.4961 26.9971q27.4971 8.99902 79.4902 8.99902q32.9961 0 55.4932 -1.5q22.498 -1.5 35.4961 -5.5
q12.998 -3.99902 18.998 -10.998q5.99902 -6.99902 6.99902 -17.998l8.99902 -235.971q1 -31.9961 -3 -51.9941q-4 -19.9971 -14.498 -31.9961q-10.499 -11.998 -26.4971 -16.498q-15.998 -4.49902 -37.9951 -4.49902h-13.998q-52.9941 0 -91.4893 -16.998
t-63.4922 -44.9951q-24.9971 -27.9961 -36.4951 -65.9912q-11.499 -37.9951 -11.499 -80.9902q0 -47.9941 13.498 -87.9893q13.499 -39.9951 40.9951 -68.9922q27.4971 -28.9961 68.9922 -44.4941q41.4941 -15.498 97.4873 -15.498q50.9941 0 89.9893 9.99902
t66.9922 21.9971q27.9961 11.998 46.4941 21.9971t28.4961 9.99902q7 0 12.999 -4.49902q5.99902 -4.5 9.99902 -16.498q3.99902 -11.999 6.49902 -33.9961q2.49902 -21.9971 2.49902 -55.9932q0 -34.9961 -2.99902 -50.9941q-3 -15.998 -12.999 -25.9961
q-9.99805 -9.99902 -37.9951 -23.498q-27.9961 -13.498 -66.9912 -24.9961q-38.9961 -11.499 -86.9902 -19.498t-99.9873 -7.99902q-117.985 0 -201.976 32.4961q-83.9893 32.4961 -137.483 87.4893q-53.4932 54.9932 -78.4902 125.984t-24.9971 149.982zM379.069 1061.02
q0 40.9951 6.49902 68.9922q6.5 27.9961 22.998 44.9941t43.9941 24.4971q27.4971 7.49902 67.4922 7.49902q41.9941 0 68.9912 -7.49902t43.4951 -24.4971t22.9971 -44.9941q6.49902 -27.9971 6.49902 -68.9922q0 -41.9941 -6.49902 -70.4912
q-6.49902 -28.4961 -22.9971 -45.9941t-43.4951 -24.9971t-68.9912 -7.49902q-39.9951 0 -67.4922 7.49902q-27.4961 7.49902 -43.9941 24.9971t-22.998 45.9941q-6.49902 28.4971 -6.49902 70.4912z" />
    <glyph glyph-name="Agrave" unicode="&#xc0;" horiz-adv-x="1241" 
d="M1201 98q12 -36 15 -57t-8 -31.5t-39 -13t-77 -2.5q-51 0 -79.5 1.5t-43.5 6t-21 12.5t-10 21l-87 260h-486l-82 -253q-4 -14 -10.5 -23.5t-21 -15t-41 -7.5t-69.5 -2q-46 0 -72 3t-36 14.5t-7 32.5t15 56l399 1148q6 17 14 27.5t25.5 16t48.5 7t82 1.5q59 0 94 -1.5
t54.5 -7t28 -16.5t14.5 -30zM607 1047h-1l-183 -550h367zM700 1439q11 -14 13.5 -24t-6.5 -16.5t-29 -9.5t-54 -3q-31 0 -52 2t-36 6.5t-25.5 11t-20.5 15.5l-222 200q-15 13 -19.5 25t5 21.5t35 15.5t71.5 6q37 0 61.5 -1.5t42 -6.5t30.5 -14t26 -24zM145 1294z" />
    <glyph glyph-name="Aacute" unicode="&#xc1;" horiz-adv-x="1241" 
d="M1201 98q12 -36 15 -57t-8 -31.5t-39 -13t-77 -2.5q-51 0 -79.5 1.5t-43.5 6t-21 12.5t-10 21l-87 260h-486l-82 -253q-4 -14 -10.5 -23.5t-21 -15t-41 -7.5t-69.5 -2q-46 0 -72 3t-36 14.5t-7 32.5t15 56l399 1148q6 17 14 27.5t25.5 16t48.5 7t82 1.5q59 0 94 -1.5
t54.5 -7t28 -16.5t14.5 -30zM607 1047h-1l-183 -550h367zM676 1643q13 15 25.5 24t30 14t42.5 6.5t62 1.5q46 0 71.5 -6t35 -15.5t4.5 -21.5t-19 -25l-222 -200q-10 -9 -20.5 -15.5t-25.5 -11t-36 -6.5t-52 -2q-34 0 -54.5 3t-29 9.5t-6.5 16.5t14 24zM379 1294z" />
    <glyph glyph-name="Acircumflex" unicode="&#xc2;" horiz-adv-x="1241" 
d="M1201 98q12 -36 15 -57t-8 -31.5t-39 -13t-77 -2.5q-51 0 -79.5 1.5t-43.5 6t-21 12.5t-10 21l-87 260h-486l-82 -253q-4 -14 -10.5 -23.5t-21 -15t-41 -7.5t-69.5 -2q-46 0 -72 3t-36 14.5t-7 32.5t15 56l399 1148q6 17 14 27.5t25.5 16t48.5 7t82 1.5q59 0 94 -1.5
t54.5 -7t28 -16.5t14.5 -30zM607 1047h-1l-183 -550h367zM626 1689q32 0 54 -1t37 -5.5t27 -12.5t25 -22l198 -214q13 -14 15.5 -23.5t-6 -15t-29.5 -7.5t-56 -2q-41 0 -67 1.5t-41.5 5t-24 9.5t-16.5 15l-118 137l-122 -134q-9 -11 -17.5 -17t-24 -10t-40.5 -5.5t-67 -1.5
q-34 0 -54 2.5t-28.5 8t-6.5 14.5t14 23l195 214q11 13 24 21t30.5 12.5t41.5 6t57 1.5zM162 1294z" />
    <glyph glyph-name="Atilde" unicode="&#xc3;" horiz-adv-x="1241" 
d="M1201 98q12 -36 15 -57t-8 -31.5t-39 -13t-77 -2.5q-51 0 -79.5 1.5t-43.5 6t-21 12.5t-10 21l-87 260h-486l-82 -253q-4 -14 -10.5 -23.5t-21 -15t-41 -7.5t-69.5 -2q-46 0 -72 3t-36 14.5t-7 32.5t15 56l399 1148q6 17 14 27.5t25.5 16t48.5 7t82 1.5q59 0 94 -1.5
t54.5 -7t28 -16.5t14.5 -30zM607 1047h-1l-183 -550h367zM828 1636q0 16 17 21t62 5t60.5 -7.5t15.5 -30.5q0 -115 -56.5 -175t-162.5 -60q-57 0 -96.5 15.5t-70.5 34t-56.5 34t-55.5 15.5q-34 0 -48.5 -19t-14.5 -54q0 -9 -4.5 -14t-14.5 -7.5t-24.5 -3.5t-35.5 -1
q-45 0 -60.5 7.5t-15.5 30.5q0 57 15 101t43.5 73.5t69 45t91.5 15.5q57 0 96.5 -15.5t70 -34.5t56.5 -34.5t56 -15.5q29 0 46 16.5t17 57.5zM166 1294z" />
    <glyph glyph-name="Adieresis" unicode="&#xc4;" horiz-adv-x="1241" 
d="M1201 98q12 -36 15 -57t-8 -31.5t-39 -13t-77 -2.5q-51 0 -79.5 1.5t-43.5 6t-21 12.5t-10 21l-87 260h-486l-82 -253q-4 -14 -10.5 -23.5t-21 -15t-41 -7.5t-69.5 -2q-46 0 -72 3t-36 14.5t-7 32.5t15 56l399 1148q6 17 14 27.5t25.5 16t48.5 7t82 1.5q59 0 94 -1.5
t54.5 -7t28 -16.5t14.5 -30zM607 1047h-1l-183 -550h367zM537 1534q0 -70 -27.5 -98t-104.5 -28t-104 27t-27 95q0 71 28 98.5t104 27.5q78 0 104.5 -26.5t26.5 -95.5zM974 1534q0 -70 -28 -98t-105 -28t-103.5 27t-26.5 95q0 71 27.5 98.5t104.5 27.5t104 -26.5t27 -95.5z
M172 1294z" />
    <glyph glyph-name="Aring" unicode="&#xc5;" horiz-adv-x="1241" 
d="M1201 98q12 -36 15 -57t-8 -31.5t-39 -13t-77 -2.5q-51 0 -79.5 1.5t-43.5 6t-21 12.5t-10 21l-87 260h-486l-82 -253q-4 -14 -10.5 -23.5t-21 -15t-41 -7.5t-69.5 -2q-46 0 -72 3t-36 14.5t-7 32.5t15 56l399 1148q6 17 14 27.5t25.5 16t48.5 7t82 1.5q59 0 94 -1.5
t54.5 -7t28 -16.5t14.5 -30zM607 1047h-1l-183 -550h367zM862 1558q0 -48 -16.5 -86t-47 -63.5t-76 -39.5t-103.5 -14q-59 0 -102.5 13t-72.5 38t-43.5 61.5t-14.5 83.5q0 48 16 85.5t47 63.5t75.5 39.5t102.5 13.5q116 0 175.5 -49.5t59.5 -145.5zM709 1553q0 39 -20 63
t-67 24q-41 0 -62 -22t-21 -62q0 -42 20 -65t67 -23q42 0 62.5 23t20.5 62zM284 1294z" />
    <glyph glyph-name="AE" unicode="&#xc6;" horiz-adv-x="1588" 
d="M1494 103q0 -29 -2.5 -48.5t-7.5 -31.5t-12 -17.5t-16 -5.5h-649q-33 0 -55 19.5t-22 63.5v198h-390l-118 -240q-6 -14 -14 -23.5t-24 -14.5t-43 -7t-72 -2q-32 0 -54 1t-35.5 5t-19 11t-5.5 18t5.5 27.5t18.5 43.5l570 1140q8 18 17.5 28.5t28 16.5t49.5 7.5t82 1.5h725
q9 0 16.5 -5t12.5 -17.5t7.5 -32t2.5 -49.5q0 -28 -2.5 -47.5t-7.5 -31.5t-12.5 -17.5t-16.5 -5.5h-461v-317h390q10 0 17.5 -5t12.5 -17t7.5 -31.5t2.5 -47.5q0 -29 -2.5 -48.5t-7.5 -31.5t-12.5 -17t-17.5 -5h-390v-362h466q9 0 16 -5.5t12 -17.5t7.5 -31.5t2.5 -48.5z
M730 1088h-5l-304 -606h309v606z" />
    <glyph glyph-name="Ccedilla" unicode="&#xc7;" horiz-adv-x="1084" 
d="M769 -66q18 -39 26.5 -68t8.5 -56q0 -46 -17 -79t-46 -54t-68 -31.5t-84 -10.5q-43 0 -81 6t-62.5 13t-35 12t-15 13t-6.5 20.5t-2 34.5q0 40 7.5 55.5t27.5 15.5h116q29 0 43.5 12.5t14.5 34.5q0 12 -5 27t-12 31l-34 77q-86 11 -167 48.5t-149.5 113t-109 197.5
t-40.5 284q0 165 44 293t123 215t189.5 132t243.5 45q54 0 104 -9t92.5 -23.5t76.5 -33.5t47.5 -32.5t18.5 -22.5t8 -23t4.5 -33t1.5 -47q0 -30 -2 -51t-7 -34t-12 -19t-16 -6q-15 0 -38 17.5t-59.5 39t-87 39t-120.5 17.5q-77 0 -137.5 -31.5t-103 -90t-64.5 -141.5
t-22 -187q0 -114 23.5 -197.5t67 -137.5t105 -80.5t138.5 -26.5q67 0 119 16t89 36.5t60.5 36.5t36.5 16q10 0 16 -4t10 -16t6 -33.5t2 -57.5q0 -25 -1.5 -42.5t-4.5 -30t-8 -21.5t-16 -20.5t-42.5 -29.5t-69.5 -33t-76 -23.5t-72 -11.5z" />
    <glyph glyph-name="Egrave" unicode="&#xc8;" horiz-adv-x="999" 
d="M908 103q0 -29 -2.5 -48.5t-7.5 -31.5t-12.5 -17.5t-16.5 -5.5h-650q-33 0 -55.5 19.5t-22.5 63.5v1128q0 44 22.5 63.5t55.5 19.5h646q9 0 16 -5t12 -17.5t7.5 -32t2.5 -49.5q0 -28 -2.5 -47.5t-7.5 -31.5t-12 -17.5t-16 -5.5h-462v-316h391q9 0 16.5 -5.5t12.5 -17
t7.5 -31t2.5 -47.5q0 -29 -2.5 -48t-7.5 -30.5t-12.5 -16.5t-16.5 -5h-391v-365h466q9 0 16.5 -5.5t12.5 -17.5t7.5 -31.5t2.5 -48.5zM618 1439q11 -14 13.5 -24t-6.5 -16.5t-29 -9.5t-54 -3q-31 0 -52 2t-36 6.5t-25.5 11t-20.5 15.5l-222 200q-15 13 -19.5 25t5 21.5
t35 15.5t71.5 6q37 0 61.5 -1.5t42 -6.5t30.5 -14t26 -24zM63 1294z" />
    <glyph glyph-name="Eacute" unicode="&#xc9;" horiz-adv-x="999" 
d="M908 103q0 -29 -2.5 -48.5t-7.5 -31.5t-12.5 -17.5t-16.5 -5.5h-650q-33 0 -55.5 19.5t-22.5 63.5v1128q0 44 22.5 63.5t55.5 19.5h646q9 0 16 -5t12 -17.5t7.5 -32t2.5 -49.5q0 -28 -2.5 -47.5t-7.5 -31.5t-12 -17.5t-16 -5.5h-462v-316h391q9 0 16.5 -5.5t12.5 -17
t7.5 -31t2.5 -47.5q0 -29 -2.5 -48t-7.5 -30.5t-12.5 -16.5t-16.5 -5h-391v-365h466q9 0 16.5 -5.5t12.5 -17.5t7.5 -31.5t2.5 -48.5zM600 1643q13 15 25.5 24t30 14t42.5 6.5t62 1.5q46 0 71.5 -6t35 -15.5t4.5 -21.5t-19 -25l-222 -200q-10 -9 -20.5 -15.5t-25.5 -11
t-36 -6.5t-52 -2q-34 0 -54.5 3t-29 9.5t-6.5 16.5t14 24zM303 1294z" />
    <glyph glyph-name="Ecircumflex" unicode="&#xca;" horiz-adv-x="999" 
d="M908 103q0 -29 -2.5 -48.5t-7.5 -31.5t-12.5 -17.5t-16.5 -5.5h-650q-33 0 -55.5 19.5t-22.5 63.5v1128q0 44 22.5 63.5t55.5 19.5h646q9 0 16 -5t12 -17.5t7.5 -32t2.5 -49.5q0 -28 -2.5 -47.5t-7.5 -31.5t-12 -17.5t-16 -5.5h-462v-316h391q9 0 16.5 -5.5t12.5 -17
t7.5 -31t2.5 -47.5q0 -29 -2.5 -48t-7.5 -30.5t-12.5 -16.5t-16.5 -5h-391v-365h466q9 0 16.5 -5.5t12.5 -17.5t7.5 -31.5t2.5 -48.5zM527 1689q32 0 54 -1t37 -5.5t27 -12.5t25 -22l198 -214q13 -14 15.5 -23.5t-6 -15t-29.5 -7.5t-56 -2q-41 0 -67 1.5t-41.5 5t-24 9.5
t-16.5 15l-118 137l-122 -134q-9 -11 -17.5 -17t-24 -10t-40.5 -5.5t-67 -1.5q-34 0 -54 2.5t-28.5 8t-6.5 14.5t14 23l195 214q11 13 24 21t30.5 12.5t41.5 6t57 1.5zM63 1294z" />
    <glyph glyph-name="Edieresis" unicode="&#xcb;" horiz-adv-x="999" 
d="M908 103q0 -29 -2.5 -48.5t-7.5 -31.5t-12.5 -17.5t-16.5 -5.5h-650q-33 0 -55.5 19.5t-22.5 63.5v1128q0 44 22.5 63.5t55.5 19.5h646q9 0 16 -5t12 -17.5t7.5 -32t2.5 -49.5q0 -28 -2.5 -47.5t-7.5 -31.5t-12 -17.5t-16 -5.5h-462v-316h391q9 0 16.5 -5.5t12.5 -17
t7.5 -31t2.5 -47.5q0 -29 -2.5 -48t-7.5 -30.5t-12.5 -16.5t-16.5 -5h-391v-365h466q9 0 16.5 -5.5t12.5 -17.5t7.5 -31.5t2.5 -48.5zM442 1534q0 -70 -27.5 -98t-104.5 -28t-104 27t-27 95q0 71 28 98.5t104 27.5q78 0 104.5 -26.5t26.5 -95.5zM879 1534q0 -70 -28 -98
t-105 -28t-103.5 27t-26.5 95q0 71 27.5 98.5t104.5 27.5t104 -26.5t27 -95.5zM77 1294z" />
    <glyph glyph-name="Igrave" unicode="&#xcc;" horiz-adv-x="546" 
d="M405 36q0 -10 -6.5 -18t-21.5 -13t-40 -8t-64 -3q-38 0 -63.5 3t-40.5 8t-21.5 13t-6.5 18v1222q0 10 6.5 18t22 13t40.5 8t63 3q39 0 64 -3t40 -8t21.5 -13t6.5 -18v-1222zM389 1439q11 -14 13.5 -24t-6.5 -16.5t-29 -9.5t-54 -3q-31 0 -52 2t-36 6.5t-25.5 11
t-20.5 15.5l-222 200q-15 13 -19.5 25t5 21.5t35 15.5t71.5 6q37 0 61.5 -1.5t42 -6.5t30.5 -14t26 -24zM-166 1294z" />
    <glyph glyph-name="Iacute" unicode="&#xcd;" horiz-adv-x="546" 
d="M405 36q0 -10 -6.5 -18t-21.5 -13t-40 -8t-64 -3q-38 0 -63.5 3t-40.5 8t-21.5 13t-6.5 18v1222q0 10 6.5 18t22 13t40.5 8t63 3q39 0 64 -3t40 -8t21.5 -13t6.5 -18v-1222zM335 1643q13 15 25.5 24t30 14t42.5 6.5t62 1.5q46 0 71.5 -6t35 -15.5t4.5 -21.5t-19 -25
l-222 -200q-10 -9 -20.5 -15.5t-25.5 -11t-36 -6.5t-52 -2q-34 0 -54.5 3t-29 9.5t-6.5 16.5t14 24zM38 1294z" />
    <glyph glyph-name="Icircumflex" unicode="&#xce;" horiz-adv-x="546" 
d="M405 36q0 -10 -6.5 -18t-21.5 -13t-40 -8t-64 -3q-38 0 -63.5 3t-40.5 8t-21.5 13t-6.5 18v1222q0 10 6.5 18t22 13t40.5 8t63 3q39 0 64 -3t40 -8t21.5 -13t6.5 -18v-1222zM276 1689q32 0 54 -1t37 -5.5t27 -12.5t25 -22l198 -214q13 -14 15.5 -23.5t-6 -15t-29.5 -7.5
t-56 -2q-41 0 -67 1.5t-41.5 5t-24 9.5t-16.5 15l-118 137l-122 -134q-9 -11 -17.5 -17t-24 -10t-40.5 -5.5t-67 -1.5q-34 0 -54 2.5t-28.5 8t-6.5 14.5t14 23l195 214q11 13 24 21t30.5 12.5t41.5 6t57 1.5zM-188 1294z" />
    <glyph glyph-name="Idieresis" unicode="&#xcf;" horiz-adv-x="546" 
d="M405 36q0 -10 -6.5 -18t-21.5 -13t-40 -8t-64 -3q-38 0 -63.5 3t-40.5 8t-21.5 13t-6.5 18v1222q0 10 6.5 18t22 13t40.5 8t63 3q39 0 64 -3t40 -8t21.5 -13t6.5 -18v-1222zM187 1534q0 -70 -27.5 -98t-104.5 -28t-104 27t-27 95q0 71 28 98.5t104 27.5q78 0 104.5 -26.5
t26.5 -95.5zM624 1534q0 -70 -28 -98t-105 -28t-103.5 27t-26.5 95q0 71 27.5 98.5t104.5 27.5t104 -26.5t27 -95.5zM-178 1294z" />
    <glyph glyph-name="Eth" unicode="&#xd0;" horiz-adv-x="1309" 
d="M1235 666q0 -178 -46.5 -304.5t-134 -206.5t-212 -117.5t-296.5 -37.5h-309q-33 0 -55 19.5t-22 63.5v485h-106q-9 0 -16.5 4.5t-12.5 16t-7.5 31.5t-2.5 50q0 29 2.5 48.5t7.5 31t12.5 16.5t16.5 5h106v440q0 44 22 63.5t55 19.5h333q172 0 293 -40.5t203.5 -120
t125.5 -196.5t43 -271zM962 657q0 92 -21.5 171t-68.5 137t-122 90.5t-193 32.5h-135v-317h197q9 0 16.5 -5t12.5 -17t7.5 -31.5t2.5 -47.5q0 -29 -2.5 -48.5t-7.5 -31.5t-12.5 -17t-16.5 -5h-197v-360h137q108 0 181.5 28t123 84.5t74 140.5t24.5 196z" />
    <glyph glyph-name="Ntilde" unicode="&#xd1;" horiz-adv-x="1349" 
d="M1208 92q0 -23 -8 -41t-21.5 -30t-32 -17.5t-37.5 -5.5h-112q-35 0 -60.5 7t-47 25.5t-41.5 50t-45 81.5l-322 605q-28 54 -57 116.5t-52 121.5h-2q4 -72 6 -143.5t2 -147.5v-677q0 -10 -5.5 -18t-19 -13.5t-36.5 -8.5t-59 -3q-35 0 -58 3t-36 8.5t-18 13.5t-5 18v1163
q0 47 27.5 70.5t67.5 23.5h141q38 0 64 -6.5t46.5 -21.5t38.5 -41.5t37 -65.5l252 -473q22 -43 43.5 -84.5t41.5 -83t39 -81.5t37 -80h1q-3 70 -4.5 146t-1.5 145v607q0 10 6 18t20 14t37 8.5t59 2.5q34 0 57 -2.5t35.5 -8.5t17.5 -14t5 -18v-1163zM878 1636q0 16 17 21
t62 5t60.5 -7.5t15.5 -30.5q0 -115 -56.5 -175t-162.5 -60q-57 0 -96.5 15.5t-70.5 34t-56.5 34t-55.5 15.5q-34 0 -48.5 -19t-14.5 -54q0 -9 -4.5 -14t-14.5 -7.5t-24.5 -3.5t-35.5 -1q-45 0 -60.5 7.5t-15.5 30.5q0 57 15 101t43.5 73.5t69 45t91.5 15.5q57 0 96.5 -15.5
t70 -34.5t56.5 -34.5t56 -15.5q29 0 46 16.5t17 57.5zM216 1294z" />
    <glyph glyph-name="Ograve" unicode="&#xd2;" horiz-adv-x="1385" 
d="M1305 662q0 -161 -40 -288t-119 -215.5t-195.5 -135t-269.5 -46.5q-151 0 -263.5 39.5t-187.5 120.5t-112.5 206t-37.5 296q0 157 40 282.5t119 213.5t195.5 135t270.5 47q147 0 259.5 -39t188 -120t114 -204.5t38.5 -291.5zM1029 648q0 102 -16 185.5t-54.5 143
t-102.5 92t-160 32.5q-97 0 -162 -36.5t-105 -97.5t-56.5 -142.5t-16.5 -172.5q0 -106 16 -190.5t54 -144.5t102 -91.5t161 -31.5t162 36t105 98t56.5 144.5t16.5 175.5zM796 1439q11 -14 13.5 -24t-6.5 -16.5t-29 -9.5t-54 -3q-31 0 -52 2t-36 6.5t-25.5 11t-20.5 15.5
l-222 200q-15 13 -19.5 25t5 21.5t35 15.5t71.5 6q37 0 61.5 -1.5t42 -6.5t30.5 -14t26 -24zM241 1294z" />
    <glyph glyph-name="Oacute" unicode="&#xd3;" horiz-adv-x="1385" 
d="M1305 662q0 -161 -40 -288t-119 -215.5t-195.5 -135t-269.5 -46.5q-151 0 -263.5 39.5t-187.5 120.5t-112.5 206t-37.5 296q0 157 40 282.5t119 213.5t195.5 135t270.5 47q147 0 259.5 -39t188 -120t114 -204.5t38.5 -291.5zM1029 648q0 102 -16 185.5t-54.5 143
t-102.5 92t-160 32.5q-97 0 -162 -36.5t-105 -97.5t-56.5 -142.5t-16.5 -172.5q0 -106 16 -190.5t54 -144.5t102 -91.5t161 -31.5t162 36t105 98t56.5 144.5t16.5 175.5zM758 1643q13 15 25.5 24t30 14t42.5 6.5t62 1.5q46 0 71.5 -6t35 -15.5t4.5 -21.5t-19 -25l-222 -200
q-10 -9 -20.5 -15.5t-25.5 -11t-36 -6.5t-52 -2q-34 0 -54.5 3t-29 9.5t-6.5 16.5t14 24zM461 1294z" />
    <glyph glyph-name="Ocircumflex" unicode="&#xd4;" horiz-adv-x="1385" 
d="M1305 662q0 -161 -40 -288t-119 -215.5t-195.5 -135t-269.5 -46.5q-151 0 -263.5 39.5t-187.5 120.5t-112.5 206t-37.5 296q0 157 40 282.5t119 213.5t195.5 135t270.5 47q147 0 259.5 -39t188 -120t114 -204.5t38.5 -291.5zM1029 648q0 102 -16 185.5t-54.5 143
t-102.5 92t-160 32.5q-97 0 -162 -36.5t-105 -97.5t-56.5 -142.5t-16.5 -172.5q0 -106 16 -190.5t54 -144.5t102 -91.5t161 -31.5t162 36t105 98t56.5 144.5t16.5 175.5zM697 1689q32 0 54 -1t37 -5.5t27 -12.5t25 -22l198 -214q13 -14 15.5 -23.5t-6 -15t-29.5 -7.5t-56 -2
q-41 0 -67 1.5t-41.5 5t-24 9.5t-16.5 15l-118 137l-122 -134q-9 -11 -17.5 -17t-24 -10t-40.5 -5.5t-67 -1.5q-34 0 -54 2.5t-28.5 8t-6.5 14.5t14 23l195 214q11 13 24 21t30.5 12.5t41.5 6t57 1.5zM233 1294z" />
    <glyph glyph-name="Otilde" unicode="&#xd5;" horiz-adv-x="1385" 
d="M1305 662q0 -161 -40 -288t-119 -215.5t-195.5 -135t-269.5 -46.5q-151 0 -263.5 39.5t-187.5 120.5t-112.5 206t-37.5 296q0 157 40 282.5t119 213.5t195.5 135t270.5 47q147 0 259.5 -39t188 -120t114 -204.5t38.5 -291.5zM1029 648q0 102 -16 185.5t-54.5 143
t-102.5 92t-160 32.5q-97 0 -162 -36.5t-105 -97.5t-56.5 -142.5t-16.5 -172.5q0 -106 16 -190.5t54 -144.5t102 -91.5t161 -31.5t162 36t105 98t56.5 144.5t16.5 175.5zM899 1636q0 16 17 21t62 5t60.5 -7.5t15.5 -30.5q0 -115 -56.5 -175t-162.5 -60q-57 0 -96.5 15.5
t-70.5 34t-56.5 34t-55.5 15.5q-34 0 -48.5 -19t-14.5 -54q0 -9 -4.5 -14t-14.5 -7.5t-24.5 -3.5t-35.5 -1q-45 0 -60.5 7.5t-15.5 30.5q0 57 15 101t43.5 73.5t69 45t91.5 15.5q57 0 96.5 -15.5t70 -34.5t56.5 -34.5t56 -15.5q29 0 46 16.5t17 57.5zM237 1294z" />
    <glyph glyph-name="Odieresis" unicode="&#xd6;" horiz-adv-x="1385" 
d="M1305 662q0 -161 -40 -288t-119 -215.5t-195.5 -135t-269.5 -46.5q-151 0 -263.5 39.5t-187.5 120.5t-112.5 206t-37.5 296q0 157 40 282.5t119 213.5t195.5 135t270.5 47q147 0 259.5 -39t188 -120t114 -204.5t38.5 -291.5zM1029 648q0 102 -16 185.5t-54.5 143
t-102.5 92t-160 32.5q-97 0 -162 -36.5t-105 -97.5t-56.5 -142.5t-16.5 -172.5q0 -106 16 -190.5t54 -144.5t102 -91.5t161 -31.5t162 36t105 98t56.5 144.5t16.5 175.5zM608 1534q0 -70 -27.5 -98t-104.5 -28t-104 27t-27 95q0 71 28 98.5t104 27.5q78 0 104.5 -26.5
t26.5 -95.5zM1045 1534q0 -70 -28 -98t-105 -28t-103.5 27t-26.5 95q0 71 27.5 98.5t104.5 27.5t104 -26.5t27 -95.5zM243 1294z" />
    <glyph glyph-name="multiply" unicode="&#xd7;" horiz-adv-x="1020" 
d="M643 577l277 -276q7 -7 10 -15t3 -16q0 -18 -13.5 -39t-32 -38.5t-38.5 -29.5t-33 -12q-8 0 -14.5 3.5t-12.5 8.5l-279 280l-278 -276q-6 -6 -14 -9.5t-17 -3.5q-18 0 -38.5 13.5t-38 32t-29 38.5t-11.5 33q0 15 12 27l280 279l-277 278q-5 6 -9 14t-4 16q0 19 13.5 39.5
t32 38t38.5 29.5t34 12q15 0 27 -13l279 -280l277 277q6 6 13.5 9.5t17.5 3.5q18 0 39 -14t38.5 -32.5t29 -38t11.5 -32.5q0 -6 -2.5 -13.5t-9.5 -13.5z" />
    <glyph glyph-name="Oslash" unicode="&#xd8;" horiz-adv-x="1394" 
d="M1314 662q0 -161 -40.5 -288t-120 -215.5t-197 -135t-271.5 -46.5q-53 0 -101.5 6.5t-87.5 18.5l-95 -194q-4 -8 -12 -14t-21.5 -9.5t-33.5 -5.5t-48 -2q-36 0 -58.5 4t-33 11.5t-11.5 17.5t5 23l118 241q-55 38 -97.5 91t-71 122.5t-43 157t-14.5 194.5q0 157 40 282.5
t119.5 213.5t197 135t272.5 47q52 0 97.5 -6.5t92.5 -19.5l91 188q4 8 12 13.5t21.5 9.5t34 6t48.5 2q36 0 58 -4t33 -11.5t11.5 -17.5t-5.5 -23l-115 -236q55 -39 97.5 -92.5t71 -122.5t43 -154t14.5 -187zM1048 654q0 100 -20 181t-63 142l-377 -770q24 -9 50 -14t59 -5
q100 0 167 35.5t108 98.5t58.5 148t17.5 184zM808 1088q-24 10 -50.5 15t-60.5 5q-101 0 -168 -36.5t-107.5 -99t-57.5 -145.5t-17 -176q0 -104 19 -189t63 -145z" />
    <glyph glyph-name="Ugrave" unicode="&#xd9;" horiz-adv-x="1337" 
d="M1197 482q0 -119 -35 -213t-103 -159t-168 -99t-230 -34q-122 0 -219 30.5t-164 92.5t-102.5 154.5t-35.5 216.5v787q0 10 6 18t21.5 13t40.5 8t64 3q38 0 63 -3t40 -8t21.5 -13t6.5 -18v-764q0 -77 19 -133.5t54.5 -93.5t85 -55.5t110.5 -18.5q62 0 111 19t83 55.5
t52.5 90t18.5 121.5v779q0 10 6 18t21 13t40.5 8t63.5 3t62.5 -3t39.5 -8t21 -13t6 -18v-776zM760 1439q11 -14 13.5 -24t-6.5 -16.5t-29 -9.5t-54 -3q-31 0 -52 2t-36 6.5t-25.5 11t-20.5 15.5l-222 200q-15 13 -19.5 25t5 21.5t35 15.5t71.5 6q37 0 61.5 -1.5t42 -6.5
t30.5 -14t26 -24zM205 1294z" />
    <glyph glyph-name="Uacute" unicode="&#xda;" horiz-adv-x="1337" 
d="M1197 482q0 -119 -35 -213t-103 -159t-168 -99t-230 -34q-122 0 -219 30.5t-164 92.5t-102.5 154.5t-35.5 216.5v787q0 10 6 18t21.5 13t40.5 8t64 3q38 0 63 -3t40 -8t21.5 -13t6.5 -18v-764q0 -77 19 -133.5t54.5 -93.5t85 -55.5t110.5 -18.5q62 0 111 19t83 55.5
t52.5 90t18.5 121.5v779q0 10 6 18t21 13t40.5 8t63.5 3t62.5 -3t39.5 -8t21 -13t6 -18v-776zM741 1643q13 15 25.5 24t30 14t42.5 6.5t62 1.5q46 0 71.5 -6t35 -15.5t4.5 -21.5t-19 -25l-222 -200q-10 -9 -20.5 -15.5t-25.5 -11t-36 -6.5t-52 -2q-34 0 -54.5 3t-29 9.5
t-6.5 16.5t14 24zM444 1294z" />
    <glyph glyph-name="Ucircumflex" unicode="&#xdb;" horiz-adv-x="1337" 
d="M1197 482q0 -119 -35 -213t-103 -159t-168 -99t-230 -34q-122 0 -219 30.5t-164 92.5t-102.5 154.5t-35.5 216.5v787q0 10 6 18t21.5 13t40.5 8t64 3q38 0 63 -3t40 -8t21.5 -13t6.5 -18v-764q0 -77 19 -133.5t54.5 -93.5t85 -55.5t110.5 -18.5q62 0 111 19t83 55.5
t52.5 90t18.5 121.5v779q0 10 6 18t21 13t40.5 8t63.5 3t62.5 -3t39.5 -8t21 -13t6 -18v-776zM668 1689q32 0 54 -1t37 -5.5t27 -12.5t25 -22l198 -214q13 -14 15.5 -23.5t-6 -15t-29.5 -7.5t-56 -2q-41 0 -67 1.5t-41.5 5t-24 9.5t-16.5 15l-118 137l-122 -134
q-9 -11 -17.5 -17t-24 -10t-40.5 -5.5t-67 -1.5q-34 0 -54 2.5t-28.5 8t-6.5 14.5t14 23l195 214q11 13 24 21t30.5 12.5t41.5 6t57 1.5zM204 1294z" />
    <glyph glyph-name="Udieresis" unicode="&#xdc;" horiz-adv-x="1337" 
d="M1197 482q0 -119 -35 -213t-103 -159t-168 -99t-230 -34q-122 0 -219 30.5t-164 92.5t-102.5 154.5t-35.5 216.5v787q0 10 6 18t21.5 13t40.5 8t64 3q38 0 63 -3t40 -8t21.5 -13t6.5 -18v-764q0 -77 19 -133.5t54.5 -93.5t85 -55.5t110.5 -18.5q62 0 111 19t83 55.5
t52.5 90t18.5 121.5v779q0 10 6 18t21 13t40.5 8t63.5 3t62.5 -3t39.5 -8t21 -13t6 -18v-776zM580 1534q0 -70 -27.5 -98t-104.5 -28t-104 27t-27 95q0 71 28 98.5t104 27.5q78 0 104.5 -26.5t26.5 -95.5zM1017 1534q0 -70 -28 -98t-105 -28t-103.5 27t-26.5 95
q0 71 27.5 98.5t104.5 27.5t104 -26.5t27 -95.5zM215 1294z" />
    <glyph glyph-name="Yacute" unicode="&#xdd;" horiz-adv-x="1064" 
d="M664 491v-455q0 -10 -6.5 -18t-21.5 -13t-40.5 -8t-63.5 -3q-39 0 -64 3t-40.5 8t-21.5 13t-6 18v455l-354 705q-19 37 -24.5 57.5t6 31t42.5 13t86 2.5q46 0 73.5 -2t43.5 -7.5t23.5 -14.5t14.5 -23l144 -318q21 -46 41.5 -97t41.5 -107h2q19 54 39 105t39 97l142 316
q5 16 12.5 25.5t22.5 15.5t41 8t69 2q57 0 88.5 -2.5t43 -13t5.5 -31.5t-24 -57zM639 1643q13 15 25.5 24t30 14t42.5 6.5t62 1.5q46 0 71.5 -6t35 -15.5t4.5 -21.5t-19 -25l-222 -200q-10 -9 -20.5 -15.5t-25.5 -11t-36 -6.5t-52 -2q-34 0 -54.5 3t-29 9.5t-6.5 16.5t14 24
zM342 1294z" />
    <glyph glyph-name="Thorn" unicode="&#xde;" horiz-adv-x="1090" 
d="M1027 695q0 -110 -33.5 -194t-98 -141.5t-157.5 -87.5t-213 -30h-121v-212q0 -10 -6.5 -17.5t-21.5 -12.5t-40 -7t-64 -2q-38 0 -63.5 2t-40.5 7t-21 12.5t-6 17.5v1232q0 10 6 17.5t21 12.5t40.5 7.5t63.5 2.5q39 0 64 -2.5t40 -7.5t21.5 -12.5t6.5 -17.5v-175h131
q46 0 88 -3.5t84 -11.5q74 -14 133.5 -45.5t101 -79t63.5 -111t22 -141.5zM752 675q0 76 -33 127t-99 70q-23 8 -48.5 10t-53.5 2h-114v-438h135q54 0 94 17t66 47t39.5 72.5t13.5 92.5z" />
    <glyph glyph-name="germandbls" unicode="&#xdf;" horiz-adv-x="1136" 
d="M1084 296q0 -66 -24 -124.5t-70.5 -101t-115 -67t-156.5 -24.5q-34 0 -65.5 5t-57 12.5t-44 16t-26.5 16.5t-12.5 27t-4.5 58q0 26 2.5 43.5t7 29t11.5 16t15 4.5q12 0 25 -7t30.5 -15.5t41 -15.5t56.5 -7t58 9t41.5 24t25 36t8.5 44q0 30 -14 52t-36.5 41.5t-52 37.5
t-59.5 38t-59 44.5t-52 56.5t-36.5 73.5t-13.5 96.5q0 49 14 89.5t40.5 72t64.5 53.5t85 33q7 19 9.5 38.5t2.5 42.5q0 30 -9 58t-28.5 49t-50 34.5t-73.5 13.5q-50 0 -85 -16.5t-57 -47t-31.5 -74t-9.5 -96.5v-923q0 -11 -6 -20.5t-20 -15.5t-38.5 -9t-61.5 -3t-61 3
t-38.5 9t-20.5 15.5t-6 20.5v918q0 104 29 186t85.5 138.5t139 86t189.5 29.5q99 0 175.5 -25t128 -69.5t78 -106t26.5 -135.5q0 -49 -7.5 -95t-22 -82t-27 -46.5t-33.5 -10.5q-37 0 -62 -7.5t-40.5 -20.5t-22.5 -31t-7 -37q0 -40 24.5 -68.5t61 -53.5t79 -51t78.5 -61
t60.5 -84t24.5 -120z" />
    <glyph glyph-name="agrave" unicode="&#xe0;" horiz-adv-x="1011" 
d="M886 31q0 -14 -10 -22t-31.5 -11.5t-63.5 -3.5q-45 0 -65.5 3.5t-29 11.5t-8.5 22v71q-55 -59 -125.5 -92t-156.5 -33q-71 0 -130.5 18.5t-103 55t-67.5 90.5t-24 126q0 78 30.5 135.5t91 95t150.5 55.5t209 18h87v54q0 42 -8.5 73.5t-28 52.5t-52 31t-80.5 10
q-63 0 -112.5 -14t-87.5 -31t-63.5 -31t-41.5 -14q-11 0 -19.5 7t-14 20t-8.5 32t-3 42q0 31 5 49t19 32.5t49 32t82 32.5t102.5 24.5t114.5 9.5q105 0 179.5 -20.5t122.5 -63t70 -109.5t22 -159v-600zM639 413h-96q-61 0 -104 -9t-70 -27t-39.5 -43.5t-12.5 -58.5
q0 -56 35.5 -88t98.5 -32q53 0 97.5 27t90.5 79v152zM613 1135q9 -13 11 -23t-6.5 -16.5t-28 -9.5t-54.5 -3q-29 0 -48 2t-32 6t-21.5 10.5t-16.5 16.5l-193 232q-10 11 -11 21t10.5 17.5t38.5 11.5t73 4q33 0 55.5 -2t37.5 -6.5t24.5 -12.5t17.5 -19zM111 960z" />
    <glyph glyph-name="aacute" unicode="&#xe1;" horiz-adv-x="1011" 
d="M886 31q0 -14 -10 -22t-31.5 -11.5t-63.5 -3.5q-45 0 -65.5 3.5t-29 11.5t-8.5 22v71q-55 -59 -125.5 -92t-156.5 -33q-71 0 -130.5 18.5t-103 55t-67.5 90.5t-24 126q0 78 30.5 135.5t91 95t150.5 55.5t209 18h87v54q0 42 -8.5 73.5t-28 52.5t-52 31t-80.5 10
q-63 0 -112.5 -14t-87.5 -31t-63.5 -31t-41.5 -14q-11 0 -19.5 7t-14 20t-8.5 32t-3 42q0 31 5 49t19 32.5t49 32t82 32.5t102.5 24.5t114.5 9.5q105 0 179.5 -20.5t122.5 -63t70 -109.5t22 -159v-600zM639 413h-96q-61 0 -104 -9t-70 -27t-39.5 -43.5t-12.5 -58.5
q0 -56 35.5 -88t98.5 -32q53 0 97.5 27t90.5 79v152zM551 1364q7 11 17 19t25 12.5t38 6.5t56 2q46 0 72.5 -4t38 -11.5t10.5 -17.5t-10 -21l-194 -232q-8 -10 -16 -16.5t-20.5 -10.5t-31.5 -6t-48 -2q-35 0 -55.5 3t-28.5 9.5t-6.5 16.5t10.5 23zM295 960z" />
    <glyph glyph-name="acircumflex" unicode="&#xe2;" horiz-adv-x="1011" 
d="M886 31q0 -14 -10 -22t-31.5 -11.5t-63.5 -3.5q-45 0 -65.5 3.5t-29 11.5t-8.5 22v71q-55 -59 -125.5 -92t-156.5 -33q-71 0 -130.5 18.5t-103 55t-67.5 90.5t-24 126q0 78 30.5 135.5t91 95t150.5 55.5t209 18h87v54q0 42 -8.5 73.5t-28 52.5t-52 31t-80.5 10
q-63 0 -112.5 -14t-87.5 -31t-63.5 -31t-41.5 -14q-11 0 -19.5 7t-14 20t-8.5 32t-3 42q0 31 5 49t19 32.5t49 32t82 32.5t102.5 24.5t114.5 9.5q105 0 179.5 -20.5t122.5 -63t70 -109.5t22 -159v-600zM639 413h-96q-61 0 -104 -9t-70 -27t-39.5 -43.5t-12.5 -58.5
q0 -56 35.5 -88t98.5 -32q53 0 97.5 27t90.5 79v152zM411 1118q-7 -11 -14 -18t-19 -10.5t-30.5 -5t-48.5 -1.5q-40 0 -61.5 3.5t-28.5 11t-1.5 20.5t19.5 31l158 223q6 10 15.5 15.5t25 9.5t37.5 5.5t53 1.5q32 0 53.5 -2t36 -6t23.5 -10t16 -14l157 -223q14 -19 19 -31.5
t-2 -20t-28.5 -11t-60.5 -3.5q-32 0 -50.5 1.5t-30 5.5t-17.5 10.5t-13 17.5l-104 150zM104 960z" />
    <glyph glyph-name="atilde" unicode="&#xe3;" horiz-adv-x="1011" 
d="M886 31q0 -14 -10 -22t-31.5 -11.5t-63.5 -3.5q-45 0 -65.5 3.5t-29 11.5t-8.5 22v71q-55 -59 -125.5 -92t-156.5 -33q-71 0 -130.5 18.5t-103 55t-67.5 90.5t-24 126q0 78 30.5 135.5t91 95t150.5 55.5t209 18h87v54q0 42 -8.5 73.5t-28 52.5t-52 31t-80.5 10
q-63 0 -112.5 -14t-87.5 -31t-63.5 -31t-41.5 -14q-11 0 -19.5 7t-14 20t-8.5 32t-3 42q0 31 5 49t19 32.5t49 32t82 32.5t102.5 24.5t114.5 9.5q105 0 179.5 -20.5t122.5 -63t70 -109.5t22 -159v-600zM639 413h-96q-61 0 -104 -9t-70 -27t-39.5 -43.5t-12.5 -58.5
q0 -56 35.5 -88t98.5 -32q53 0 97.5 27t90.5 79v152zM865 1336q0 -121 -57.5 -185.5t-159.5 -64.5q-39 0 -69 8t-54 21t-43.5 27.5t-37.5 27t-35.5 21t-37.5 8.5q-33 0 -47 -23.5t-14 -61.5q0 -9 -3.5 -14.5t-12 -8.5t-24 -4t-39.5 -1q-21 0 -35.5 1.5t-23 6t-12.5 12.5
t-4 21q0 116 56 182.5t160 66.5q57 0 96.5 -17.5t70 -39t56.5 -39t54 -17.5q30 0 46 21.5t16 63.5q0 17 15 22.5t61 5.5q45 0 61.5 -7.5t16.5 -32.5zM55 960z" />
    <glyph glyph-name="adieresis" unicode="&#xe4;" horiz-adv-x="1011" 
d="M886 31q0 -14 -10 -22t-31.5 -11.5t-63.5 -3.5q-45 0 -65.5 3.5t-29 11.5t-8.5 22v71q-55 -59 -125.5 -92t-156.5 -33q-71 0 -130.5 18.5t-103 55t-67.5 90.5t-24 126q0 78 30.5 135.5t91 95t150.5 55.5t209 18h87v54q0 42 -8.5 73.5t-28 52.5t-52 31t-80.5 10
q-63 0 -112.5 -14t-87.5 -31t-63.5 -31t-41.5 -14q-11 0 -19.5 7t-14 20t-8.5 32t-3 42q0 31 5 49t19 32.5t49 32t82 32.5t102.5 24.5t114.5 9.5q105 0 179.5 -20.5t122.5 -63t70 -109.5t22 -159v-600zM639 413h-96q-61 0 -104 -9t-70 -27t-39.5 -43.5t-12.5 -58.5
q0 -56 35.5 -88t98.5 -32q53 0 97.5 27t90.5 79v152zM443 1227q0 -70 -26.5 -97.5t-100.5 -27.5q-75 0 -101 26.5t-26 93.5q0 72 27 99t100 27q76 0 101.5 -26.5t25.5 -94.5zM834 1227q0 -70 -26.5 -97.5t-101.5 -27.5q-74 0 -100 26.5t-26 93.5q0 72 26.5 99t100.5 27
q75 0 101 -26.5t26 -94.5zM87 960z" />
    <glyph glyph-name="aring" unicode="&#xe5;" horiz-adv-x="1011" 
d="M886 31q0 -14 -10 -22t-31.5 -11.5t-63.5 -3.5q-45 0 -65.5 3.5t-29 11.5t-8.5 22v71q-55 -59 -125.5 -92t-156.5 -33q-71 0 -130.5 18.5t-103 55t-67.5 90.5t-24 126q0 78 30.5 135.5t91 95t150.5 55.5t209 18h87v54q0 42 -8.5 73.5t-28 52.5t-52 31t-80.5 10
q-63 0 -112.5 -14t-87.5 -31t-63.5 -31t-41.5 -14q-11 0 -19.5 7t-14 20t-8.5 32t-3 42q0 31 5 49t19 32.5t49 32t82 32.5t102.5 24.5t114.5 9.5q105 0 179.5 -20.5t122.5 -63t70 -109.5t22 -159v-600zM639 413h-96q-61 0 -104 -9t-70 -27t-39.5 -43.5t-12.5 -58.5
q0 -56 35.5 -88t98.5 -32q53 0 97.5 27t90.5 79v152zM744 1266q0 -47 -16 -84t-46.5 -62.5t-74.5 -39t-101 -13.5q-58 0 -101 13t-71.5 37.5t-42.5 60t-14 81.5q0 47 15.5 84t46 62.5t74.5 38.5t101 13q113 0 171.5 -49t58.5 -142zM594 1261q0 39 -20.5 62.5t-65.5 23.5
q-40 0 -60.5 -22t-20.5 -61q0 -41 19.5 -64t65.5 -23q41 0 61.5 22.5t20.5 61.5zM175 960z" />
    <glyph glyph-name="ae" unicode="&#xe6;" horiz-adv-x="1587" 
d="M1506 506q0 -46 -20.5 -68t-56.5 -22h-543q0 -57 13.5 -103.5t43.5 -79t77.5 -49.5t114.5 -17q64 0 113 9.5t85 21t60.5 21t38.5 9.5q9 0 15 -3.5t10 -12.5t6 -25.5t2 -41.5q0 -22 -1 -37.5t-3.5 -26.5t-6 -18.5t-10.5 -14.5t-36 -19t-73.5 -23.5t-102 -20t-121.5 -8.5
q-73 0 -131.5 10.5t-104 31t-80 49.5t-60.5 66q-33 -41 -72 -70t-82 -49t-89.5 -29t-95.5 -9q-71 0 -130.5 18.5t-103 55t-67.5 90.5t-24 125q0 79 30.5 136.5t91 95t150.5 55.5t209 18h87v54q0 42 -8.5 73.5t-28 52.5t-52 31t-80.5 10q-63 0 -112.5 -14t-87.5 -31
t-64.5 -31t-41.5 -14q-11 0 -19.5 7t-13.5 20t-8 32t-3 42q0 31 5 49t19 32.5t49 32t82 32.5t102.5 24.5t114.5 9.5t106.5 -8t85 -24t65.5 -39.5t48 -52.5q48 60 124.5 92t174.5 32q107 0 184 -33t127.5 -92t74.5 -139t24 -174v-39zM1263 578q1 53 -10 95t-33.5 71t-57.5 45
t-82 16q-49 0 -84.5 -18t-59 -48.5t-36 -72t-14.5 -88.5h377zM655 279q-10 27 -14 64t-4 70h-94q-61 0 -104 -9t-70 -27t-39.5 -43.5t-12.5 -58.5q0 -56 35.5 -88t98.5 -32q53 0 102 30t102 94z" />
    <glyph glyph-name="ccedilla" unicode="&#xe7;" horiz-adv-x="857" 
d="M801 176q0 -26 -1.5 -43.5t-4 -29.5t-6 -19.5t-15.5 -19t-42 -28.5t-71.5 -31.5t-88.5 -20.5l22 -50q18 -39 26 -68t8 -56q0 -46 -16.5 -79t-46 -54t-68 -31.5t-83.5 -10.5q-44 0 -81.5 6t-62.5 13t-35.5 12t-14.5 13t-6 20.5t-2 34.5q0 40 7.5 55.5t27.5 15.5h116
q29 0 43 12.5t14 34.5q0 12 -4.5 27t-11.5 31l-39 85q-98 25 -163 87.5t-97.5 158t-32.5 222.5q0 134 33.5 231.5t93.5 161.5t142 95t180 31q40 0 78.5 -7t72 -19t60 -27t37.5 -26t15.5 -18.5t7 -19.5t4 -29.5t1.5 -42.5q0 -58 -10 -81.5t-26 -23.5q-17 0 -36 14t-45 31
t-62 31t-86 14q-98 0 -150 -75.5t-52 -221.5q0 -72 13 -127t38.5 -92t64 -55.5t89.5 -18.5q52 0 89.5 15.5t65.5 34.5t47 34.5t32 15.5q9 0 15 -5t9.5 -18.5t5.5 -34.5t2 -54z" />
    <glyph glyph-name="egrave" unicode="&#xe8;" horiz-adv-x="1031" 
d="M950 506q0 -46 -20.5 -68t-56.5 -22h-543q0 -57 13.5 -103.5t43 -79t76 -49.5t111.5 -17q66 0 116 9.5t86.5 21t60.5 21t39 9.5q9 0 15 -3.5t10 -12.5t5.5 -25.5t1.5 -41.5q0 -22 -1 -37.5t-3 -26.5t-6 -18.5t-10.5 -14.5t-35.5 -19t-74 -23.5t-103 -20t-124 -8.5
q-119 0 -208.5 30t-149.5 91t-89.5 154t-29.5 218q0 119 31 214.5t90 162t143.5 101.5t190.5 35q112 0 191.5 -33t130.5 -91.5t75 -138.5t24 -174v-40zM706 578q3 106 -42.5 166.5t-140.5 60.5q-48 0 -83.5 -18t-59 -48.5t-36 -72t-14.5 -88.5h376zM620 1135q9 -13 11 -23
t-6.5 -16.5t-28 -9.5t-54.5 -3q-29 0 -48 2t-32 6t-21.5 10.5t-16.5 16.5l-193 232q-10 11 -11 21t10.5 17.5t38.5 11.5t73 4q33 0 55.5 -2t37.5 -6.5t24.5 -12.5t17.5 -19zM118 960z" />
    <glyph glyph-name="eacute" unicode="&#xe9;" horiz-adv-x="1031" 
d="M950 506q0 -46 -20.5 -68t-56.5 -22h-543q0 -57 13.5 -103.5t43 -79t76 -49.5t111.5 -17q66 0 116 9.5t86.5 21t60.5 21t39 9.5q9 0 15 -3.5t10 -12.5t5.5 -25.5t1.5 -41.5q0 -22 -1 -37.5t-3 -26.5t-6 -18.5t-10.5 -14.5t-35.5 -19t-74 -23.5t-103 -20t-124 -8.5
q-119 0 -208.5 30t-149.5 91t-89.5 154t-29.5 218q0 119 31 214.5t90 162t143.5 101.5t190.5 35q112 0 191.5 -33t130.5 -91.5t75 -138.5t24 -174v-40zM706 578q3 106 -42.5 166.5t-140.5 60.5q-48 0 -83.5 -18t-59 -48.5t-36 -72t-14.5 -88.5h376zM565 1364q7 11 17 19
t25 12.5t38 6.5t56 2q46 0 72.5 -4t38 -11.5t10.5 -17.5t-10 -21l-194 -232q-8 -10 -16 -16.5t-20.5 -10.5t-31.5 -6t-48 -2q-35 0 -55.5 3t-28.5 9.5t-6.5 16.5t10.5 23zM309 960z" />
    <glyph glyph-name="ecircumflex" unicode="&#xea;" horiz-adv-x="1031" 
d="M950 506q0 -46 -20.5 -68t-56.5 -22h-543q0 -57 13.5 -103.5t43 -79t76 -49.5t111.5 -17q66 0 116 9.5t86.5 21t60.5 21t39 9.5q9 0 15 -3.5t10 -12.5t5.5 -25.5t1.5 -41.5q0 -22 -1 -37.5t-3 -26.5t-6 -18.5t-10.5 -14.5t-35.5 -19t-74 -23.5t-103 -20t-124 -8.5
q-119 0 -208.5 30t-149.5 91t-89.5 154t-29.5 218q0 119 31 214.5t90 162t143.5 101.5t190.5 35q112 0 191.5 -33t130.5 -91.5t75 -138.5t24 -174v-40zM706 578q3 106 -42.5 166.5t-140.5 60.5q-48 0 -83.5 -18t-59 -48.5t-36 -72t-14.5 -88.5h376zM417 1118q-7 -11 -14 -18
t-19 -10.5t-30.5 -5t-48.5 -1.5q-40 0 -61.5 3.5t-28.5 11t-1.5 20.5t19.5 31l158 223q6 10 15.5 15.5t25 9.5t37.5 5.5t53 1.5q32 0 53.5 -2t36 -6t23.5 -10t16 -14l157 -223q14 -19 19 -31.5t-2 -20t-28.5 -11t-60.5 -3.5q-32 0 -50.5 1.5t-30 5.5t-17.5 10.5t-13 17.5
l-104 150zM110 960z" />
    <glyph glyph-name="edieresis" unicode="&#xeb;" horiz-adv-x="1031" 
d="M950 506q0 -46 -20.5 -68t-56.5 -22h-543q0 -57 13.5 -103.5t43 -79t76 -49.5t111.5 -17q66 0 116 9.5t86.5 21t60.5 21t39 9.5q9 0 15 -3.5t10 -12.5t5.5 -25.5t1.5 -41.5q0 -22 -1 -37.5t-3 -26.5t-6 -18.5t-10.5 -14.5t-35.5 -19t-74 -23.5t-103 -20t-124 -8.5
q-119 0 -208.5 30t-149.5 91t-89.5 154t-29.5 218q0 119 31 214.5t90 162t143.5 101.5t190.5 35q112 0 191.5 -33t130.5 -91.5t75 -138.5t24 -174v-40zM706 578q3 106 -42.5 166.5t-140.5 60.5q-48 0 -83.5 -18t-59 -48.5t-36 -72t-14.5 -88.5h376zM452 1227
q0 -70 -26.5 -97.5t-100.5 -27.5q-75 0 -101 26.5t-26 93.5q0 72 27 99t100 27q76 0 101.5 -26.5t25.5 -94.5zM843 1227q0 -70 -26.5 -97.5t-101.5 -27.5q-74 0 -100 26.5t-26 93.5q0 72 26.5 99t100.5 27q75 0 101 -26.5t26 -94.5zM96 960z" />
    <glyph glyph-name="igrave" unicode="&#xec;" horiz-adv-x="503" 
d="M378 34q0 -10 -6 -17.5t-20.5 -12.5t-38.5 -7.5t-61 -2.5t-61 2.5t-38.5 7.5t-20.5 12.5t-6 17.5v892q0 10 6 17.5t20.5 12.5t38.5 7.5t61 2.5t61 -2.5t38.5 -7.5t20.5 -12.5t6 -17.5v-892zM366 1135q9 -13 11 -23t-6.5 -16.5t-28 -9.5t-54.5 -3q-29 0 -48 2t-32 6
t-21.5 10.5t-16.5 16.5l-193 232q-10 11 -11 21t10.5 17.5t38.5 11.5t73 4q33 0 55.5 -2t37.5 -6.5t24.5 -12.5t17.5 -19zM-136 960z" />
    <glyph glyph-name="iacute" unicode="&#xed;" horiz-adv-x="503" 
d="M378 34q0 -10 -6 -17.5t-20.5 -12.5t-38.5 -7.5t-61 -2.5t-61 2.5t-38.5 7.5t-20.5 12.5t-6 17.5v892q0 10 6 17.5t20.5 12.5t38.5 7.5t61 2.5t61 -2.5t38.5 -7.5t20.5 -12.5t6 -17.5v-892zM282 1364q7 11 17 19t25 12.5t38 6.5t56 2q46 0 72.5 -4t38 -11.5t10.5 -17.5
t-10 -21l-194 -232q-8 -10 -16 -16.5t-20.5 -10.5t-31.5 -6t-48 -2q-35 0 -55.5 3t-28.5 9.5t-6.5 16.5t10.5 23zM26 960z" />
    <glyph glyph-name="icircumflex" unicode="&#xee;" horiz-adv-x="503" 
d="M378 34q0 -10 -6 -17.5t-20.5 -12.5t-38.5 -7.5t-61 -2.5t-61 2.5t-38.5 7.5t-20.5 12.5t-6 17.5v892q0 10 6 17.5t20.5 12.5t38.5 7.5t61 2.5t61 -2.5t38.5 -7.5t20.5 -12.5t6 -17.5v-892zM150 1118q-7 -11 -14 -18t-19 -10.5t-30.5 -5t-48.5 -1.5q-40 0 -61.5 3.5
t-28.5 11t-1.5 20.5t19.5 31l158 223q6 10 15.5 15.5t25 9.5t37.5 5.5t53 1.5q32 0 53.5 -2t36 -6t23.5 -10t16 -14l157 -223q14 -19 19 -31.5t-2 -20t-28.5 -11t-60.5 -3.5q-32 0 -50.5 1.5t-30 5.5t-17.5 10.5t-13 17.5l-104 150zM-157 960z" />
    <glyph glyph-name="idieresis" unicode="&#xef;" horiz-adv-x="503" 
d="M378 34q0 -10 -6 -17.5t-20.5 -12.5t-38.5 -7.5t-61 -2.5t-61 2.5t-38.5 7.5t-20.5 12.5t-6 17.5v892q0 10 6 17.5t20.5 12.5t38.5 7.5t61 2.5t61 -2.5t38.5 -7.5t20.5 -12.5t6 -17.5v-892zM207 1227q0 -70 -26 -97.5t-96 -27.5q-71 0 -96 26.5t-25 93.5q0 71 26 98.5
t95 27.5q72 0 97 -26.5t25 -94.5zM543 1227q0 -70 -26 -97.5t-96 -27.5q-71 0 -95.5 26.5t-24.5 93.5q0 71 25.5 98.5t95.5 27.5q71 0 96 -26.5t25 -94.5zM-138 960z" />
    <glyph glyph-name="eth" unicode="&#xf0;" horiz-adv-x="1099" 
d="M289 1055q-13 -3 -21.5 -2t-13.5 9t-7 23t-2 40q0 23 2 38.5t7 25t14 14.5t22 7l148 37q-9 10 -21 22.5t-24.5 25.5l-25 26t-22.5 24q-9 9 -11 18t9.5 15.5t41 11t82.5 4.5q44 0 70.5 -2t44 -6t28 -10.5t21.5 -16.5q19 -21 33.5 -36.5t16.5 -18.5l247 59q12 3 20.5 2
t14 -8t7.5 -22t2 -40q0 -23 -2 -39t-7.5 -25.5t-14 -14.5t-21.5 -8l-136 -33q54 -72 92 -141.5t61.5 -141.5t33.5 -149t10 -166q0 -149 -30.5 -261.5t-91 -188t-151.5 -113t-210 -37.5q-116 0 -197.5 34t-133 97.5t-75 154.5t-23.5 205q0 128 28 224.5t79 161t122.5 97
t159.5 32.5q31 0 59.5 -5.5t55.5 -16.5t53 -28t54 -40q-9 23 -21 49.5t-28 54.5t-37.5 59t-48.5 63zM730 539q0 27 -0.5 52.5t-2.5 41.5q-31 34 -58.5 59.5t-53.5 42.5t-50.5 25.5t-48.5 8.5q-46 0 -81 -22t-57.5 -60t-34 -90t-11.5 -112t9.5 -114t30.5 -94t55.5 -63.5
t85.5 -23.5q54 0 95 20.5t68 63.5t40.5 108.5t13.5 156.5z" />
    <glyph glyph-name="ntilde" unicode="&#xf1;" horiz-adv-x="1099" 
d="M978 34q0 -10 -6 -17.5t-20 -12.5t-38.5 -7.5t-60.5 -2.5q-37 0 -61.5 2.5t-38.5 7.5t-20 12.5t-6 17.5v509q0 65 -9.5 102t-27.5 63.5t-46.5 41t-66.5 14.5q-48 0 -97 -35t-102 -102v-593q0 -10 -6 -17.5t-20.5 -12.5t-38.5 -7.5t-61 -2.5t-61 2.5t-38.5 7.5t-20.5 12.5
t-6 17.5v892q0 10 5 17.5t18 12.5t33.5 7.5t51.5 2.5q32 0 53 -2.5t32.5 -7.5t16.5 -12.5t5 -17.5v-103q74 80 150.5 120t159.5 40q91 0 153.5 -30t101 -81.5t55.5 -120.5t17 -166v-551zM909 1336q0 -121 -57.5 -185.5t-159.5 -64.5q-39 0 -69 8t-54 21t-43.5 27.5t-37.5 27
t-35.5 21t-37.5 8.5q-33 0 -47 -23.5t-14 -61.5q0 -9 -3.5 -14.5t-12 -8.5t-24 -4t-39.5 -1q-21 0 -35.5 1.5t-23 6t-12.5 12.5t-4 21q0 116 56 182.5t160 66.5q57 0 96.5 -17.5t70 -39t56.5 -39t54 -17.5q30 0 46 21.5t16 63.5q0 17 15 22.5t61 5.5q45 0 61.5 -7.5
t16.5 -32.5zM99 960z" />
    <glyph glyph-name="ograve" unicode="&#xf2;" horiz-adv-x="1101" 
d="M1028 489q0 -114 -30 -208t-91 -162t-153 -105t-215 -37q-119 0 -207 33t-146 96t-86 155t-28 210q0 114 30.5 208.5t91.5 162t152.5 104.5t214.5 37q120 0 208 -32.5t145.5 -95.5t85.5 -155t28 -211zM769 479q0 66 -10.5 121.5t-35.5 96.5t-66.5 64t-104.5 23
q-56 0 -98 -20.5t-69 -60t-40.5 -95t-13.5 -126.5q0 -66 11 -121.5t35.5 -96.5t66.5 -63.5t104 -22.5q57 0 99 20.5t69 59.5t40 94.5t13 126.5zM656 1135q9 -13 11 -23t-6.5 -16.5t-28 -9.5t-54.5 -3q-29 0 -48 2t-32 6t-21.5 10.5t-16.5 16.5l-193 232q-10 11 -11 21
t10.5 17.5t38.5 11.5t73 4q33 0 55.5 -2t37.5 -6.5t24.5 -12.5t17.5 -19zM154 960z" />
    <glyph glyph-name="oacute" unicode="&#xf3;" horiz-adv-x="1101" 
d="M1028 489q0 -114 -30 -208t-91 -162t-153 -105t-215 -37q-119 0 -207 33t-146 96t-86 155t-28 210q0 114 30.5 208.5t91.5 162t152.5 104.5t214.5 37q120 0 208 -32.5t145.5 -95.5t85.5 -155t28 -211zM769 479q0 66 -10.5 121.5t-35.5 96.5t-66.5 64t-104.5 23
q-56 0 -98 -20.5t-69 -60t-40.5 -95t-13.5 -126.5q0 -66 11 -121.5t35.5 -96.5t66.5 -63.5t104 -22.5q57 0 99 20.5t69 59.5t40 94.5t13 126.5zM599 1364q7 11 17 19t25 12.5t38 6.5t56 2q46 0 72.5 -4t38 -11.5t10.5 -17.5t-10 -21l-194 -232q-8 -10 -16 -16.5t-20.5 -10.5
t-31.5 -6t-48 -2q-35 0 -55.5 3t-28.5 9.5t-6.5 16.5t10.5 23zM343 960z" />
    <glyph glyph-name="ocircumflex" unicode="&#xf4;" horiz-adv-x="1101" 
d="M1028 489q0 -114 -30 -208t-91 -162t-153 -105t-215 -37q-119 0 -207 33t-146 96t-86 155t-28 210q0 114 30.5 208.5t91.5 162t152.5 104.5t214.5 37q120 0 208 -32.5t145.5 -95.5t85.5 -155t28 -211zM769 479q0 66 -10.5 121.5t-35.5 96.5t-66.5 64t-104.5 23
q-56 0 -98 -20.5t-69 -60t-40.5 -95t-13.5 -126.5q0 -66 11 -121.5t35.5 -96.5t66.5 -63.5t104 -22.5q57 0 99 20.5t69 59.5t40 94.5t13 126.5zM448 1118q-7 -11 -14 -18t-19 -10.5t-30.5 -5t-48.5 -1.5q-40 0 -61.5 3.5t-28.5 11t-1.5 20.5t19.5 31l158 223q6 10 15.5 15.5
t25 9.5t37.5 5.5t53 1.5q32 0 53.5 -2t36 -6t23.5 -10t16 -14l157 -223q14 -19 19 -31.5t-2 -20t-28.5 -11t-60.5 -3.5q-32 0 -50.5 1.5t-30 5.5t-17.5 10.5t-13 17.5l-104 150zM141 960z" />
    <glyph glyph-name="otilde" unicode="&#xf5;" horiz-adv-x="1101" 
d="M1028 489q0 -114 -30 -208t-91 -162t-153 -105t-215 -37q-119 0 -207 33t-146 96t-86 155t-28 210q0 114 30.5 208.5t91.5 162t152.5 104.5t214.5 37q120 0 208 -32.5t145.5 -95.5t85.5 -155t28 -211zM769 479q0 66 -10.5 121.5t-35.5 96.5t-66.5 64t-104.5 23
q-56 0 -98 -20.5t-69 -60t-40.5 -95t-13.5 -126.5q0 -66 11 -121.5t35.5 -96.5t66.5 -63.5t104 -22.5q57 0 99 20.5t69 59.5t40 94.5t13 126.5zM907 1336q0 -121 -57.5 -185.5t-159.5 -64.5q-39 0 -69 8t-54 21t-43.5 27.5t-37.5 27t-35.5 21t-37.5 8.5q-33 0 -47 -23.5
t-14 -61.5q0 -9 -3.5 -14.5t-12 -8.5t-24 -4t-39.5 -1q-21 0 -35.5 1.5t-23 6t-12.5 12.5t-4 21q0 116 56 182.5t160 66.5q57 0 96.5 -17.5t70 -39t56.5 -39t54 -17.5q30 0 46 21.5t16 63.5q0 17 15 22.5t61 5.5q45 0 61.5 -7.5t16.5 -32.5zM97 960z" />
    <glyph glyph-name="odieresis" unicode="&#xf6;" horiz-adv-x="1101" 
d="M1028 489q0 -114 -30 -208t-91 -162t-153 -105t-215 -37q-119 0 -207 33t-146 96t-86 155t-28 210q0 114 30.5 208.5t91.5 162t152.5 104.5t214.5 37q120 0 208 -32.5t145.5 -95.5t85.5 -155t28 -211zM769 479q0 66 -10.5 121.5t-35.5 96.5t-66.5 64t-104.5 23
q-56 0 -98 -20.5t-69 -60t-40.5 -95t-13.5 -126.5q0 -66 11 -121.5t35.5 -96.5t66.5 -63.5t104 -22.5q57 0 99 20.5t69 59.5t40 94.5t13 126.5zM485 1227q0 -70 -26.5 -97.5t-100.5 -27.5q-75 0 -101 26.5t-26 93.5q0 72 27 99t100 27q76 0 101.5 -26.5t25.5 -94.5z
M876 1227q0 -70 -26.5 -97.5t-101.5 -27.5q-74 0 -100 26.5t-26 93.5q0 72 26.5 99t100.5 27q75 0 101 -26.5t26 -94.5zM129 960z" />
    <glyph glyph-name="divide" unicode="&#xf7;" horiz-adv-x="1020" 
d="M650 954q0 -42 -7.5 -70t-24 -46t-45 -26t-69.5 -8q-42 0 -70 8t-44.5 26t-23.5 46t-7 70t7 71.5t23.5 47.5t44.5 26.5t70 8.5q41 0 69.5 -8.5t45 -26.5t24 -47.5t7.5 -71.5zM976 576q0 -27 -3 -45.5t-7.5 -30t-11.5 -16.5t-15 -5h-869q-9 0 -16 5t-11.5 16.5t-6.5 30
t-2 45.5t2 45.5t6.5 29.5t11.5 16t16 5h869q8 0 15 -5t11.5 -16t7.5 -29.5t3 -45.5zM650 192q0 -41 -7.5 -69.5t-24 -46t-45 -25.5t-69.5 -8q-42 0 -70 8t-44.5 25.5t-23.5 46t-7 69.5q0 43 7 72.5t23.5 47.5t44.5 26t70 8q41 0 69.5 -8t45 -26t24 -47.5t7.5 -72.5z" />
    <glyph glyph-name="oslash" unicode="&#xf8;" horiz-adv-x="1114" 
d="M1042 489q0 -114 -31 -208t-93 -162t-155 -105t-217 -37q-38 0 -69.5 4t-58.5 11l-66 -138q-7 -16 -31 -22.5t-68 -6.5q-60 0 -78 11.5t-6 35.5l85 178q-47 30 -81.5 73.5t-57 97.5t-33 117.5t-10.5 132.5q0 115 30.5 209t92.5 161.5t155 104.5t218 37q33 0 65 -3.5
t62 -10.5l63 132q8 15 30.5 22t67.5 7q60 0 78.5 -11t6.5 -36l-82 -172q47 -30 81.5 -73t57 -97t33.5 -117.5t11 -134.5zM804 486q0 28 -3 56t-9.5 55t-17.5 50t-27 42l-248 -519q13 -5 30.5 -7.5t33.5 -2.5q60 0 105.5 21.5t75.5 63t45 102t15 139.5zM616 792
q-13 4 -30.5 6.5t-35.5 2.5q-60 0 -105 -22t-75 -63t-45 -102t-15 -138q0 -59 12.5 -113.5t44.5 -91.5z" />
    </font>
</defs>
</svg>
