<?xml version="1.0" standalone="no"?>
<!DOCTYPE svg PUBLIC "-//W3C//DTD SVG 1.1//EN" "http://www.w3.org/Graphics/SVG/1.1/DTD/svg11.dtd" >
<svg xmlns="http://www.w3.org/2000/svg" xmlns:xlink="http://www.w3.org/1999/xlink" version="1.1">
<metadata>
Created by FontForge 20161003 at Fri Mar 29 10:44:50 2019
 By www-data
Copyright 2000, 2002, 2004 , 2005Adobe Systems Incorporated. All Rights Reserved. U.S. Patent D371,799.Minion is either a registered trademark or a trademark of Adobe Systems Incorporated in the United States and/or other countries.
</metadata>
<defs>
<font id="MinionPro-Bold" horiz-adv-x="400" >
  <font-face 
    font-family="Minion Pro"
    font-weight="700"
    font-stretch="normal"
    units-per-em="1000"
    panose-1="2 4 7 3 6 2 1 2 2 3"
    ascent="727"
    descent="-273"
    x-height="442"
    cap-height="650"
    bbox="-318 -360 1684 1024"
    underline-thickness="50"
    underline-position="-100"
    stemh="41"
    stemv="128"
    unicode-range="U+0020-FB06"
  />
<missing-glyph horiz-adv-x="500" 
d="M0 0v700h500v-700h-500zM250 395l170 255h-340zM280 350l170 -255v510zM80 50h340l-170 255zM50 605v-510l170 255z" />
    <glyph glyph-name="T_h" unicode="Th" horiz-adv-x="1105" 
d="M1087 0h-236v32c48 7 51 14 51 68v177c0 77 -34 103 -73 103c-24 0 -51 -8 -72 -29v-251c0 -54 4 -61 46 -68v-32h-239v32c60 7 65 10 65 75v490c-46 6 -98 9 -195 9h-39v-475c0 -84 10 -90 89 -97v-34h-309v34c75 7 86 13 86 97v475h-39c-87 0 -105 -11 -121 -32
c-14 -18 -26 -44 -38 -91h-36c4 72 10 141 12 192h22c15 -23 29 -25 57 -25h413c76 0 98 5 98 20v13c39 6 97 17 128 28v-321c35 35 84 64 133 64c88 0 139 -56 139 -166v-182c0 -62 5 -66 58 -74v-32z" />
    <glyph glyph-name="f_b" unicode="fb" horiz-adv-x="853" 
d="M509 417l36 17c25 11 49 20 70 20c118 0 208 -99 208 -211c0 -146 -116 -255 -264 -255c-55 0 -109 10 -178 36v574c-26 32 -72 54 -104 54c-23 0 -38 -14 -45 -37c-9 -26 -11 -62 -11 -138v-35h94c4 -11 0 -41 -13 -49h-81v-281c0 -64 4 -72 71 -79v-33h-261v33
c51 6 62 11 62 79v281h-67l-4 12l29 37h42v22c0 25 5 47 13 70s30 72 88 115c39 30 79 48 123 54c42 -2 68 -12 89 -25c27 5 69 14 97 25l6 -7v-279zM509 381v-272c0 -13 1 -27 4 -35c7 -17 31 -47 64 -48c50 -1 108 58 108 189c0 126 -68 175 -131 175c-18 0 -33 -4 -45 -9
z" />
    <glyph glyph-name="f_f" unicode="ff" horiz-adv-x="615" 
d="M93 442v18c0 29 7 56 22 85c15 31 38 59 76 87c44 32 92 50 134 54c71 -2 108 -25 131 -50c45 42 88 63 135 68c43 0 73 -16 90 -35c13 -15 13 -29 6 -43c-4 -11 -17 -26 -31 -36c-12 -9 -25 -9 -35 2c-22 21 -55 55 -84 55c-20 0 -30 -13 -33 -31c-4 -20 -6 -52 0 -137
l2 -37h116c5 -11 1 -41 -13 -49h-103v-288c0 -61 10 -65 75 -73v-32h-251v32c41 6 48 14 48 74v287h-158v-288c0 -58 8 -66 54 -73v-32h-245v32c55 7 64 14 64 73v288h-68l-5 12l29 37h44zM378 442v19c0 24 3 41 7 58c5 19 9 28 16 42c-17 33 -60 79 -113 79
c-31 0 -48 -23 -57 -54c-10 -35 -11 -65 -11 -113v-31h158z" />
    <glyph glyph-name="f_f_b" unicode="ffb" horiz-adv-x="1140" 
d="M796 695v-278c12 6 25 11 37 16c26 13 49 21 70 21c118 0 207 -99 207 -210c0 -146 -116 -256 -264 -256c-54 0 -109 10 -178 36v571c-25 33 -62 60 -99 60c-23 0 -39 -16 -49 -41s-12 -69 -12 -137v-35h94c6 -10 3 -38 -12 -47h-82v-290c0 -63 9 -66 68 -72v-33h-244v33
c41 5 49 10 49 73v289h-161v-291c0 -60 8 -65 53 -71v-33h-243v33c58 6 63 11 63 71v291h-67l-5 12l30 35h42v17c0 23 7 48 20 76c17 35 42 66 86 95c37 27 88 48 140 52c65 -2 104 -24 123 -45c42 37 94 62 145 66c42 -1 68 -12 89 -25c27 5 65 15 94 25zM381 442v21
c0 31 9 74 27 105c-17 27 -53 67 -108 67c-34 0 -59 -28 -69 -61c-9 -33 -10 -68 -10 -101v-31h160zM796 380v-271c0 -13 1 -26 5 -34c6 -16 30 -46 63 -47c53 -1 108 63 108 187c0 126 -67 173 -131 173c-18 0 -33 -3 -45 -8z" />
    <glyph glyph-name="f_f_h" unicode="ffh" horiz-adv-x="1147" 
d="M1128 0h-235v33c48 6 51 11 51 64v181c0 77 -33 103 -72 103c-24 0 -54 -9 -76 -31v-253c0 -53 5 -58 47 -64v-33h-224v33c45 6 50 8 50 68v496c-24 33 -62 59 -97 59c-26 0 -42 -17 -52 -47c-9 -28 -11 -62 -11 -132v-35h93c6 -10 2 -40 -12 -47h-81v-296
c0 -55 8 -60 64 -66v-33h-241v33c42 5 49 10 49 67v295h-160v-294c0 -58 8 -62 52 -68v-33h-239v33c52 6 59 11 59 68v294h-64l-5 11l30 36h39v17c0 26 12 58 22 78c16 31 45 67 84 93c37 27 88 50 143 52c64 -1 100 -23 122 -43c42 36 91 60 143 64c41 -2 66 -11 86 -23
c31 5 72 14 98 23l5 -6v-307c36 35 86 64 136 64c87 0 139 -58 139 -168v-188c0 -54 5 -59 57 -65v-33zM381 442v23c0 33 9 77 28 106c-17 26 -52 63 -110 63c-38 0 -59 -31 -68 -66c-8 -32 -10 -62 -10 -95v-31h160z" />
    <glyph glyph-name="f_f_i" unicode="ffi" horiz-adv-x="867" 
d="M852 0h-236v32c40 6 47 15 47 69v222c0 62 -3 71 -52 71h-105v-289c0 -62 9 -66 53 -73v-32h-230v32c41 6 49 13 49 73v289h-158v-290c0 -59 7 -65 53 -72v-32h-241v32c52 7 61 13 61 73v289h-66l-5 12l30 36h41v17c0 25 5 52 18 78c19 39 42 68 85 99
c44 30 86 49 135 53c69 -2 114 -26 134 -53c51 42 107 68 164 70c60 -1 98 -25 120 -47c18 -19 20 -38 13 -54c-7 -15 -18 -26 -32 -35c-18 -12 -33 -13 -44 -2c-16 17 -55 87 -118 87c-28 0 -46 -27 -54 -61c-8 -33 -8 -74 -8 -115v-37h100c45 0 130 1 185 12v-353
c0 -53 5 -61 61 -69v-32zM378 442v21c0 22 2 40 9 62c5 17 11 30 18 41c-12 25 -56 76 -115 76c-32 0 -52 -25 -61 -58c-9 -34 -9 -66 -9 -111v-31h158z" />
    <glyph glyph-name="f_f_j" unicode="ffj" horiz-adv-x="859" 
d="M506 442h102c45 0 128 1 183 12v-326c0 -77 -9 -116 -28 -162c-40 -95 -116 -179 -140 -196c-15 -11 -24 -15 -36 -15c-14 0 -40 23 -40 55c0 17 9 27 23 28c47 2 71 8 77 20c6 11 10 36 12 71c3 58 4 122 4 187v207c0 62 0 71 -49 71h-108v-289c0 -61 7 -64 65 -73v-32
h-242v32c41 6 49 11 49 73v289h-158v-290c0 -60 7 -65 53 -72v-32h-243v32c54 7 63 12 63 73v289h-68l-5 12l30 36h43v17c0 24 5 49 18 76c19 39 42 68 86 99c45 32 91 49 137 53c68 -2 111 -28 132 -54c50 41 104 69 161 71c60 -1 94 -23 117 -45c18 -19 19 -38 12 -54
c-6 -14 -18 -26 -31 -35c-18 -12 -33 -13 -44 -2c-16 17 -51 83 -114 83c-28 0 -45 -25 -53 -59c-8 -33 -8 -72 -8 -113v-37zM378 442v21c0 22 3 37 10 59c5 18 10 31 18 42c-12 25 -57 76 -116 76c-31 0 -51 -25 -60 -58s-10 -64 -10 -109v-31h158z" />
    <glyph glyph-name="f_f_k" unicode="ffk" horiz-adv-x="1112" 
d="M1134 0l-175 -2c-45 55 -93 129 -137 198c-8 12 -13 17 -18 17c-3 1 -7 2 -10 2v-112c0 -59 7 -64 66 -70v-33h-245v33c48 6 53 10 53 70v492c-25 35 -64 59 -97 59c-24 0 -42 -17 -52 -47c-9 -27 -11 -60 -11 -130v-35h96c3 -10 -2 -43 -14 -49h-82v-295
c0 -55 9 -59 59 -65v-33h-239v33c45 5 53 11 53 65v295h-161v-291c0 -56 6 -63 53 -69v-33h-243v33c57 6 63 12 63 68v292h-67l-6 12l30 37h43v15c0 23 8 55 23 84c16 30 42 60 81 88c38 28 93 51 147 53c65 -1 101 -23 121 -43c40 36 93 60 142 64c39 -2 69 -11 84 -24
c31 6 72 15 98 24l5 -6v-453c23 5 47 21 61 37c18 21 48 64 59 84c13 22 13 37 -30 43v31l216 9v-31c-62 -10 -92 -25 -122 -52c-28 -25 -46 -46 -74 -82c30 -49 114 -160 146 -195c30 -33 47 -47 84 -55v-33zM381 442v23c0 33 8 74 27 104c-17 27 -56 67 -109 67
c-37 0 -60 -31 -70 -68c-7 -26 -8 -62 -8 -95v-31h160z" />
    <glyph glyph-name="f_f_l" unicode="ffl" horiz-adv-x="867" 
d="M855 -1h-235v33c36 6 43 10 43 68v508c-14 26 -43 52 -82 52c-23 0 -41 -13 -54 -32c-13 -20 -21 -57 -21 -117v-69h105c4 -10 0 -41 -14 -48h-91v-289c0 -63 9 -66 57 -73v-32h-234v32c41 6 49 11 49 74v288h-158v-290c0 -60 7 -65 52 -72v-32h-239v32c52 8 60 12 60 73
v289h-64l-5 12l29 36h40v19c0 26 7 53 21 81c17 32 43 63 82 91c41 29 92 52 144 54c61 -1 104 -22 128 -45c49 39 99 60 149 62c46 1 78 -9 108 -26c18 6 37 14 55 22l11 -5v-595c0 -57 8 -60 64 -68v-33zM378 442v20c0 29 6 45 10 65c5 17 13 32 20 46
c-18 32 -56 67 -111 67c-37 0 -59 -31 -68 -66c-8 -30 -9 -59 -9 -104v-28h158z" />
    <glyph glyph-name="f_f_t" unicode="fft" horiz-adv-x="924" 
d="M915 37l-83 -38c-18 -8 -33 -11 -41 -11c-77 0 -122 36 -122 126v281h-160v-297c0 -57 8 -59 67 -65v-33h-244v33c44 5 49 10 49 66v296h-160v-297c0 -54 8 -59 53 -65v-33h-244v33c58 6 63 10 63 65v297h-68l-5 12l30 35h43v17c0 24 7 51 21 78c17 33 43 63 82 91
c35 26 89 51 147 54c57 -1 98 -23 121 -44c41 36 87 61 139 65c45 -2 75 -16 94 -35c14 -14 15 -28 9 -42c-5 -11 -15 -26 -32 -37c-12 -9 -23 -9 -33 0c-24 25 -69 59 -96 59c-19 0 -28 -13 -34 -32c-5 -19 -7 -54 -3 -139l1 -35h160v59l113 82l14 -8v-133h100
c11 -10 9 -39 -7 -47h-93v-245c0 -77 35 -92 54 -92c17 0 36 4 54 12zM381 442v23c0 35 10 74 26 104c-16 24 -58 67 -112 67c-32 0 -54 -27 -64 -57c-11 -33 -11 -66 -11 -106v-31h161z" />
    <glyph glyph-name="f_h" unicode="fh" horiz-adv-x="859" 
d="M841 0h-236v33c48 6 51 13 51 67v177c0 76 -33 102 -73 102c-24 0 -53 -8 -74 -30v-249c0 -54 4 -61 46 -67v-33h-230v33c51 6 56 9 56 69v494c-23 31 -67 56 -104 56c-22 0 -37 -14 -45 -36c-8 -24 -11 -62 -11 -141v-33h93c7 -11 3 -42 -12 -49h-81v-288
c0 -60 5 -65 56 -72v-33h-245v33c56 7 61 10 61 72v288h-63l-4 12l29 37h38v19c0 26 5 49 13 72c9 23 31 72 86 114c40 31 82 50 125 56c42 -2 67 -12 88 -24c31 6 73 15 98 24l6 -6v-307c35 35 85 64 135 64c88 0 140 -57 140 -166v-183c0 -61 4 -65 57 -72v-33z" />
    <glyph glyph-name="f_i" unicode="fi" horiz-adv-x="581" 
d="M566 0h-236v33c43 5 48 13 48 72v218c0 61 -3 70 -52 70h-106v-290c0 -56 11 -64 59 -70v-33h-247v33c53 5 61 14 61 70v290h-68l-4 13l30 36h42v22c0 35 9 64 24 94c16 32 42 60 78 87c47 36 102 56 148 58c59 -2 96 -25 116 -47c15 -19 17 -39 9 -55
c-5 -12 -17 -26 -31 -33c-18 -11 -33 -9 -42 3c-16 21 -51 80 -111 80c-27 0 -46 -23 -54 -59c-7 -27 -10 -75 -10 -119v-31h100c45 0 130 1 186 12v-349c0 -59 5 -66 60 -72v-33z" />
    <glyph glyph-name="f_j" unicode="fj" horiz-adv-x="575" 
d="M221 442h102c46 0 127 1 183 12v-328c0 -75 -9 -114 -29 -160c-39 -95 -115 -179 -139 -196c-15 -11 -25 -15 -37 -15c-13 0 -41 24 -41 55c0 16 9 27 23 27c43 0 71 9 78 21c6 11 10 36 12 71c3 58 5 123 5 187v207c0 61 -2 71 -51 71h-106v-294c0 -56 10 -60 62 -68
v-32h-251v32c56 8 61 12 61 68v294h-65l-5 12l30 36h40v22c0 35 9 63 24 94c16 32 42 60 78 87c46 36 104 56 149 58c60 -2 94 -23 114 -46c16 -18 18 -38 10 -54c-6 -13 -17 -25 -31 -33c-19 -11 -33 -9 -42 3c-16 20 -51 78 -110 78c-32 0 -48 -28 -55 -62
c-9 -36 -9 -69 -9 -116v-31z" />
    <glyph glyph-name="f_k" unicode="fk" horiz-adv-x="826" 
d="M847 0l-176 -2c-49 64 -92 129 -136 198c-8 12 -13 17 -19 17c-3 1 -6 2 -9 2v-110c0 -62 7 -66 63 -72v-33h-242v33c48 6 53 10 53 72v493c-23 32 -67 54 -102 54c-24 0 -39 -13 -47 -40c-8 -25 -11 -59 -11 -138v-32h93c6 -11 3 -43 -12 -49h-81v-283
c0 -65 5 -70 57 -77v-33h-248v33c58 7 63 11 63 77v283h-67l-4 11l29 38h42v19c0 25 5 49 13 72c11 31 37 76 90 116c39 30 78 48 121 54c42 -2 69 -12 87 -24c28 6 72 15 97 24l6 -6v-453c23 5 48 21 62 38c19 22 46 59 61 85c13 22 16 35 -32 41v31l215 9v-31
c-62 -11 -92 -24 -122 -51c-27 -26 -45 -47 -73 -83c26 -43 111 -157 145 -195c29 -33 47 -48 84 -55v-33z" />
    <glyph glyph-name="f_l" unicode="fl" horiz-adv-x="581" 
d="M568 0h-234v33c38 5 44 12 44 72v502c-17 26 -48 50 -82 50c-24 0 -41 -11 -54 -33c-14 -24 -22 -59 -22 -115v-67h103c5 -11 1 -42 -13 -49h-90v-290c0 -57 5 -63 55 -70v-33h-246v33c58 8 63 12 63 70v290h-68l-4 14l30 35h42v17c0 38 8 67 24 99c16 33 39 64 80 93
c39 28 82 49 136 52c46 0 74 -9 104 -24c17 4 36 12 60 20l9 -5v-589c0 -60 6 -64 63 -72v-33z" />
    <glyph glyph-name="f_t" unicode="ft" horiz-adv-x="637" 
d="M628 37l-84 -38c-17 -8 -33 -11 -40 -11c-77 0 -123 36 -123 126v280h-160v-294c0 -56 5 -61 62 -67v-33h-254v33c59 7 64 11 64 67v294h-67l-5 12l30 36h42v18c0 25 6 50 14 75c8 22 28 69 85 114c38 32 77 48 122 54c46 -2 75 -14 94 -34c14 -14 15 -28 8 -42
c-4 -10 -17 -27 -33 -38c-13 -9 -23 -8 -33 1c-24 25 -66 53 -94 53c-18 0 -28 -10 -33 -29c-6 -19 -8 -61 -3 -141l1 -31h160v63l113 78l15 -7v-134h100c11 -11 9 -40 -8 -48h-92v-244c0 -78 36 -92 55 -92c16 0 36 5 54 12z" />
    <glyph glyph-name="longs_b" unicode="&#x17f;b" horiz-adv-x="844" 
d="M505 417l35 17c26 13 48 20 68 20c118 0 206 -96 206 -212c0 -146 -114 -254 -261 -254c-55 0 -107 10 -176 36v577c-26 31 -57 55 -91 55c-27 0 -44 -17 -53 -49c-10 -35 -13 -92 -13 -171v-327c0 -66 6 -69 65 -77v-32h-253v32c58 8 61 12 61 77v285h-65l-5 12l30 36
h40v21c0 24 4 45 12 67c7 24 31 75 86 118c39 31 81 49 124 55c42 -2 68 -12 89 -25c25 5 65 14 95 25l6 -8v-278zM505 382v-273c0 -14 2 -26 6 -33c6 -16 28 -46 61 -46c51 -1 104 56 104 187c0 120 -63 173 -127 173c-15 0 -27 -4 -44 -8z" />
    <glyph glyph-name="longs_h" unicode="&#x17f;h" horiz-adv-x="854" 
d="M834 0h-234v32c48 7 51 14 51 67v182c0 76 -36 100 -75 100c-24 0 -49 -8 -71 -30v-251c0 -54 4 -61 47 -68v-32h-229v32c49 7 54 9 54 70v500c-25 30 -62 53 -95 53c-26 0 -40 -18 -49 -46c-9 -32 -13 -83 -13 -181v-324c0 -60 6 -64 58 -72v-32h-246v32
c55 9 61 12 61 72v290h-67l-5 11l29 37h43v21c0 24 4 45 12 67c7 24 29 74 87 118c39 30 80 49 123 55c39 -2 65 -11 86 -24c31 6 74 15 100 24l4 -6v-306c35 35 84 63 133 63c88 0 140 -56 140 -166v-186c0 -60 5 -62 56 -70v-32z" />
    <glyph glyph-name="longs_i" unicode="&#x17f;i" horiz-adv-x="581" 
d="M51 442h42v16c0 36 8 64 23 94c17 35 44 65 81 93c45 34 101 56 150 58c56 -2 92 -23 114 -46c17 -18 18 -37 11 -53c-6 -14 -18 -27 -31 -36c-18 -12 -33 -10 -42 0c-17 20 -48 82 -117 82c-30 0 -45 -26 -52 -60c-9 -36 -10 -91 -10 -176v-316c0 -55 9 -59 55 -66v-32
h-245v32c59 8 63 11 63 66v296h-68l-4 12zM567 0h-245v32c54 8 56 9 56 80v200c0 63 -4 68 -57 78v28c57 7 129 20 184 36v-342c0 -71 4 -73 62 -80v-32z" />
    <glyph glyph-name="longs_k" unicode="&#x17f;k" horiz-adv-x="815" 
d="M838 0l-176 -2c-21 27 -89 129 -132 198c-8 12 -13 17 -19 17c-3 1 -5 2 -8 2v-111c0 -61 7 -65 67 -72v-32h-246v32c48 7 54 10 54 68v501c-26 30 -65 55 -96 55c-27 0 -41 -17 -49 -48c-9 -33 -13 -86 -13 -172v-331c0 -61 6 -65 60 -73v-32h-251v32c59 8 64 12 64 73
v289h-67l-5 12l29 36h43v21c0 24 4 45 11 67c8 25 31 75 90 119c39 29 75 48 119 54c39 -2 69 -11 86 -24c30 6 74 15 98 24l6 -6v-453c24 5 41 21 56 36c20 20 44 57 59 84c13 24 18 38 -29 44v31l214 9v-31c-62 -10 -92 -22 -122 -51c-27 -26 -44 -47 -72 -83
c23 -37 98 -142 144 -196c29 -33 47 -46 85 -55v-32z" />
    <glyph glyph-name="longs_l" unicode="&#x17f;l" horiz-adv-x="581" 
d="M567 0h-244v32c47 7 54 12 54 75v493c-22 31 -55 55 -88 55c-31 0 -44 -21 -51 -40c-12 -28 -18 -75 -18 -186v-321c0 -64 5 -68 56 -76v-32h-245v32c59 7 62 12 62 76v286h-67l-4 11l29 37h42v21c0 25 5 47 12 69c7 23 31 73 86 114c40 31 82 51 129 57
c38 -2 68 -11 88 -24c25 6 66 15 91 24l6 -7v-589c0 -63 7 -67 62 -75v-32z" />
    <glyph glyph-name="longs_longs" unicode="&#x17f;&#x17f;" horiz-adv-x="581" 
d="M93 442v9c0 25 8 50 23 78c16 35 43 66 82 96c42 32 94 52 146 55c62 -2 98 -22 119 -42c42 37 82 58 132 65c38 -2 67 -14 83 -31c15 -14 16 -29 10 -43c-5 -10 -17 -24 -30 -34c-14 -10 -24 -10 -34 0c-24 24 -58 52 -85 52c-18 0 -29 -15 -33 -38
c-6 -36 -1 -111 -1 -205v-294c0 -66 7 -68 61 -78v-32h-244v32c50 8 56 12 56 78v282h-67l-5 12l29 38h43v17c0 37 11 73 30 106c-19 25 -55 69 -110 69c-34 0 -55 -28 -66 -68c-10 -37 -12 -92 -12 -175v-293c0 -54 5 -59 53 -66v-32h-240v32c56 8 60 12 60 66v294h-66
l-4 12l30 38h40z" />
    <glyph glyph-name="longs_t" unicode="&#x17f;t" horiz-adv-x="630" 
d="M50 442h43v19c0 25 5 46 14 71c7 22 29 69 86 115c40 33 80 50 126 56c44 -2 70 -14 90 -33c14 -15 15 -29 9 -44c-5 -10 -16 -25 -33 -36c-12 -9 -23 -9 -33 1c-22 24 -60 55 -89 55c-18 0 -28 -13 -34 -32c-9 -29 -9 -99 -9 -180v-329c0 -59 9 -66 68 -73v-32h-257v32
c57 8 62 14 62 73v289h-68l-5 12zM621 36l-79 -37c-17 -8 -35 -11 -42 -11c-77 0 -123 37 -123 127v279h-63l-6 12l29 36h40v63l113 78l15 -7v-134h98c10 -10 10 -40 -7 -48h-91v-245c0 -77 36 -92 56 -92c16 0 33 5 51 12z" />
    <glyph glyph-name="longs_longs_i" unicode="&#x17f;&#x17f;i" horiz-adv-x="870" 
d="M93 442v9c0 26 7 49 20 76c17 36 44 67 84 97c42 32 99 53 151 56c60 -2 98 -26 120 -48c41 37 110 71 170 71c54 -2 93 -25 114 -48c17 -18 18 -37 11 -53c-6 -14 -17 -27 -31 -36c-18 -12 -33 -10 -42 0c-16 20 -51 84 -120 84c-30 0 -47 -29 -54 -63
c-9 -36 -8 -87 -8 -169v-312c0 -60 5 -67 56 -74v-32h-239v32c50 7 55 14 55 74v287h-68l-4 11l30 38h42v17c0 36 8 77 27 105c-19 26 -53 67 -110 67c-36 0 -57 -29 -66 -65c-10 -37 -10 -92 -10 -171v-294c0 -55 5 -62 52 -69v-32h-242v32c55 9 62 14 62 69v292h-68l-5 11
l30 38h43zM857 0h-241v32c46 6 52 14 52 75v205c0 64 -4 68 -57 78v28c57 7 132 20 184 36v-343c0 -66 7 -72 62 -79v-32z" />
    <glyph glyph-name="longs_longs_l" unicode="&#x17f;&#x17f;l" horiz-adv-x="870" 
d="M858 0h-246v33c48 6 56 12 56 78v488c-25 31 -59 53 -92 53c-27 0 -44 -12 -54 -39c-10 -26 -14 -70 -14 -188v-317c0 -62 5 -69 55 -75v-33h-243v33c55 7 60 13 60 75v285h-68l-4 11l30 38h42v19c0 32 10 73 29 106c-18 28 -52 65 -110 65c-32 0 -56 -26 -67 -67
c-10 -36 -11 -89 -11 -171v-291c0 -57 5 -64 52 -70v-33h-240v33c54 7 60 13 60 70v290h-68l-4 11l29 38h43v7c0 25 6 51 21 79c17 36 45 67 85 98c42 31 99 51 148 54c64 -2 99 -25 121 -45c40 35 92 65 143 68c36 -2 66 -11 85 -24c26 6 68 15 94 24l5 -6v-586
c0 -66 6 -72 63 -78v-33z" />
    <glyph glyph-name="Tcommaaccent_h" unicode="&#x162;h" horiz-adv-x="1105" 
d="M1087 0h-236v32c48 7 51 14 51 68v177c0 77 -34 103 -73 103c-24 0 -51 -8 -72 -29v-251c0 -54 4 -61 46 -68v-32h-239v32c60 7 65 10 65 75v490c-46 6 -98 9 -195 9h-39v-475c0 -84 10 -90 89 -97v-34h-309v34c75 7 86 13 86 97v475h-39c-87 0 -105 -11 -121 -32
c-14 -18 -26 -44 -38 -91h-36c4 72 10 141 12 192h22c15 -23 29 -25 57 -25h413c76 0 98 5 98 20v13c39 6 97 17 128 28v-321c35 35 84 64 133 64c88 0 139 -56 139 -166v-182c0 -62 5 -66 58 -74v-32zM317 -31h1c44 0 86 -39 86 -93c0 -66 -55 -103 -122 -119l-11 26
c44 21 64 42 64 69c0 24 -20 40 -50 48c-7 2 -15 11 -15 26c0 28 25 43 47 43z" />
    <glyph glyph-name="Tcaron_h" unicode="&#x164;h" horiz-adv-x="1105" 
d="M1087 0h-236v32c48 7 51 14 51 68v177c0 77 -34 103 -73 103c-24 0 -51 -8 -72 -29v-251c0 -54 4 -61 46 -68v-32h-239v32c60 7 65 10 65 75v490c-46 6 -98 9 -195 9h-39v-475c0 -84 10 -90 89 -97v-34h-309v34c75 7 86 13 86 97v475h-39c-87 0 -105 -11 -121 -32
c-14 -18 -26 -44 -38 -91h-36c4 72 10 141 12 192h22c15 -23 29 -25 57 -25h413c76 0 98 5 98 20v13c39 6 97 17 128 28v-321c35 35 84 64 133 64c88 0 139 -56 139 -166v-182c0 -62 5 -66 58 -74v-32zM461 830l15 -26c-44 -34 -93 -83 -132 -123h-30
c-39 42 -88 88 -133 123l17 26c46 -19 88 -38 131 -59c43 21 86 40 132 59z" />
    <glyph glyph-name=".notdef" horiz-adv-x="500" 
d="M0 0v700h500v-700h-500zM250 395l170 255h-340zM280 350l170 -255v510zM80 50h340l-170 255zM50 605v-510l170 255z" />
    <glyph glyph-name="space" unicode=" " horiz-adv-x="217" 
 />
    <glyph glyph-name="exclam" unicode="!" horiz-adv-x="285" 
d="M141 665h1c62 0 81 -19 81 -43c0 -18 -4 -36 -10 -73c-19 -108 -34 -215 -49 -330c-2 -12 -44 -13 -46 0c-15 115 -30 222 -49 330c-7 37 -10 55 -10 73c0 24 17 43 82 43zM142 -12h-1c-42 0 -74 32 -74 79c0 45 32 78 75 78c44 0 77 -33 77 -78c0 -47 -33 -79 -77 -79z
" />
    <glyph glyph-name="quotedbl" unicode="&#x22;" horiz-adv-x="380" 
d="M148 708l9 -7c-2 -32 -24 -179 -36 -260l-38 -19c-18 101 -41 237 -47 252zM331 708l9 -7c-2 -32 -24 -184 -37 -260l-37 -19c-19 101 -41 237 -47 252z" />
    <glyph glyph-name="numbersign" unicode="#" horiz-adv-x="500" 
d="M468 469l-11 -82h-95l-30 -121h84l-13 -82h-90l-41 -169h-49l41 169h-97l-40 -169h-50l40 169h-96l11 82h105l29 121h-90l10 82h99l35 145h51l-35 -145h96l35 145h49l-35 -145h87zM313 387h-96l-30 -121h97z" />
    <glyph glyph-name="dollar" unicode="$" horiz-adv-x="500" 
d="M275 381l38 -14c76 -29 149 -80 149 -169c-1 -105 -73 -173 -187 -186v-83h-41v80c-83 1 -145 30 -165 42c-8 25 -19 91 -27 142l32 6c18 -47 62 -139 160 -148v210l-30 13c-91 36 -148 88 -148 165c0 91 64 160 178 175v75h41v-72c32 0 67 -5 92 -13c15 -4 25 -6 37 -8
c7 -36 15 -72 23 -134l-33 -5c-15 50 -42 107 -119 118v-194zM234 397v178c-54 -8 -80 -47 -80 -87c0 -47 36 -73 80 -91zM275 247v-194c46 8 82 38 82 98c0 24 -7 59 -68 89z" />
    <glyph glyph-name="percent" unicode="%" horiz-adv-x="764" 
d="M601 624l-409 -662l-37 27l409 661zM196 635h1c108 0 155 -99 155 -174c0 -76 -45 -176 -156 -176c-108 0 -155 100 -155 175c0 76 47 175 155 175zM198 599h-1c-46 0 -58 -90 -58 -137c0 -49 12 -141 59 -141s56 94 56 140c0 50 -8 138 -56 138zM570 338h1
c108 0 154 -99 154 -175s-44 -175 -155 -175c-109 0 -156 99 -156 174c0 77 47 176 156 176zM570 302h-1c-46 0 -57 -86 -57 -137c0 -49 11 -141 59 -141c47 0 56 94 56 140c0 50 -9 138 -57 138z" />
    <glyph glyph-name="ampersand" unicode="&#x26;" horiz-adv-x="715" 
d="M732 426v-34c-62 -7 -83 -20 -119 -67c-28 -35 -53 -73 -84 -117c64 -62 126 -139 173 -210l-6 -12c-99 0 -159 23 -172 36s-42 47 -79 83c-62 -81 -126 -119 -193 -119c-136 0 -209 100 -209 186c0 84 51 120 140 182c-40 39 -67 83 -67 142c0 89 83 167 182 167
c100 0 170 -62 170 -145c0 -35 -16 -60 -43 -82c-20 -18 -48 -38 -80 -59c29 -25 86 -75 156 -140c17 26 33 54 49 86c20 45 13 59 -55 69v34h237zM289 625h-1c-38 0 -67 -42 -67 -89c0 -49 27 -83 95 -136c26 22 50 62 50 123c0 52 -26 102 -77 102zM300 77h1
c44 0 92 27 118 58c-74 75 -125 119 -210 193c-27 -29 -42 -71 -42 -110c0 -96 66 -141 133 -141z" />
    <glyph glyph-name="quoteright" unicode="&#x2019;" horiz-adv-x="242" 
d="M93 708h1c50 0 116 -46 116 -123c0 -89 -83 -140 -161 -162l-13 35c55 25 85 58 85 96c0 37 -28 63 -70 71c-4 1 -14 12 -14 36c0 27 29 47 56 47z" />
    <glyph glyph-name="parenleft" unicode="(" horiz-adv-x="352" 
d="M314 -145l-27 -27c-146 105 -211 260 -211 443v1c0 182 65 336 211 442l27 -27c-90 -91 -143 -244 -143 -416s58 -336 143 -416z" />
    <glyph glyph-name="parenright" unicode=")" horiz-adv-x="352" 
d="M275 271v-1c0 -182 -66 -337 -211 -442l-26 26c89 87 142 245 142 417s-60 338 -142 418l26 25c145 -106 211 -260 211 -443z" />
    <glyph glyph-name="asterisk" unicode="*" horiz-adv-x="405" 
d="M372 483l-131 -28l34 -137l-27 -12l-72 128l-123 -74l-18 26l100 96l-104 105l19 25l122 -79l60 132l29 -7l-24 -140l134 -6z" />
    <glyph glyph-name="plus" unicode="+" horiz-adv-x="577" 
d="M531 221h-204v-221h-75v221h-205v65h205v200h75v-200h204v-65z" />
    <glyph glyph-name="comma" unicode="," horiz-adv-x="254" 
d="M101 161h1c49 0 115 -50 115 -127c0 -93 -87 -147 -169 -167l-13 35c61 25 90 55 90 97c0 34 -25 64 -73 74c-4 2 -14 14 -14 36c0 31 30 52 63 52z" />
    <glyph glyph-name="hyphen" unicode="-" horiz-adv-x="342" 
d="M302 265l-16 -72h-245l15 72h246z" />
    <glyph glyph-name="period" unicode="." horiz-adv-x="254" 
d="M126 -12h-1c-40 0 -72 31 -72 76c0 44 32 76 73 76c43 0 75 -32 75 -76c0 -45 -32 -76 -75 -76z" />
    <glyph glyph-name="slash" unicode="/" horiz-adv-x="327" 
d="M304 665l-216 -710h-70l216 710h70z" />
    <glyph glyph-name="zero" unicode="0" horiz-adv-x="500" 
d="M250 635h1c167 0 220 -178 220 -323c0 -146 -53 -324 -221 -324s-222 179 -222 323c0 148 57 324 222 324zM249 594h-1c-67 0 -83 -145 -83 -279c0 -135 21 -286 87 -286s83 146 83 285c0 141 -21 280 -86 280z" />
    <glyph glyph-name="one" unicode="1" horiz-adv-x="500" 
d="M409 0h-307v34c79 5 88 20 88 91v363c0 52 -4 59 -45 62l-51 4v29c66 10 140 28 228 52v-510c0 -69 7 -86 87 -91v-34z" />
    <glyph glyph-name="two" unicode="2" horiz-adv-x="500" 
d="M440 175l33 -12c-16 -58 -28 -121 -39 -163h-401v26c53 52 111 107 160 165c70 83 110 158 110 234c0 69 -36 119 -105 119c-60 0 -101 -42 -134 -89l-29 24l64 94c38 37 88 62 151 62c99 0 182 -67 182 -178c0 -79 -41 -141 -140 -235l-120 -114h163c60 0 68 2 105 67z
" />
    <glyph glyph-name="three" unicode="3" horiz-adv-x="500" 
d="M305 382v-2c98 -17 149 -83 149 -158c-1 -163 -218 -234 -280 -234c-51 0 -92 17 -112 33c-16 13 -23 27 -23 40c0 19 16 36 29 46c12 9 24 11 38 1c22 -19 69 -64 128 -64c51 0 90 41 90 135c0 96 -66 130 -120 130c-18 0 -39 -3 -54 -7l-7 34c84 28 144 68 144 130
c0 65 -41 91 -86 91c-50 0 -85 -28 -119 -75l-26 24l49 67c29 31 76 62 142 62h1c103 0 163 -57 163 -135c0 -27 -13 -50 -32 -67c-18 -16 -40 -30 -74 -51z" />
    <glyph glyph-name="four" unicode="4" horiz-adv-x="500" 
d="M486 174h-90v-63c0 -60 7 -70 81 -77v-34h-298v34c85 7 90 21 90 82v58h-254v41c108 153 214 297 309 414h72v-398h90v-57zM269 231v262h-2c-48 -66 -112 -158 -177 -262h179z" />
    <glyph glyph-name="five" unicode="5" horiz-adv-x="500" 
d="M152 515l-27 -154c49 19 103 33 129 33c128 0 200 -82 200 -168c0 -62 -31 -121 -101 -170c-56 -41 -127 -67 -187 -68c-40 0 -82 14 -104 32c-20 16 -24 26 -24 41s14 38 32 51c12 8 23 5 36 -6c24 -22 72 -61 129 -61c62 0 92 55 92 129c0 89 -57 148 -148 148
c-46 0 -88 -12 -109 -19l45 320h317l6 -10l-32 -98h-254z" />
    <glyph glyph-name="six" unicode="6" horiz-adv-x="500" 
d="M179 359l50 24c25 11 43 19 59 19c115 0 192 -74 192 -187c0 -126 -96 -227 -228 -227c-125 0 -224 96 -224 255c0 213 150 327 266 366c44 15 111 27 149 32l7 -38c-29 -6 -72 -19 -107 -36c-49 -25 -134 -82 -164 -208zM235 331h-1c-23 0 -42 -4 -62 -11
c-4 -17 -6 -56 -6 -80c0 -133 54 -211 107 -211c61 1 76 78 76 142c0 94 -47 160 -114 160z" />
    <glyph glyph-name="seven" unicode="7" horiz-adv-x="500" 
d="M476 623l9 -12c-95 -201 -196 -406 -287 -611l-103 -12l-8 13c118 175 218 351 304 514h-213c-68 0 -76 -7 -104 -66h-35c14 78 20 131 27 174h410z" />
    <glyph glyph-name="eight" unicode="8" horiz-adv-x="500" 
d="M261 635h1c109 0 183 -66 183 -155c0 -27 -10 -52 -33 -74c-16 -14 -34 -30 -73 -55c70 -38 133 -85 133 -173c0 -127 -126 -190 -223 -190c-131 0 -217 67 -217 169c0 47 24 71 42 88c18 16 63 44 93 61c-58 32 -110 81 -110 155c0 95 84 174 204 174zM247 595h-1
c-47 0 -74 -46 -74 -88c0 -68 52 -101 129 -137c17 16 37 47 37 105c0 86 -51 120 -91 120zM258 28h1c56 0 93 43 92 109c-2 72 -50 98 -147 150c-29 -22 -52 -66 -52 -118c0 -97 58 -141 106 -141z" />
    <glyph glyph-name="nine" unicode="9" horiz-adv-x="500" 
d="M252 635h1c145 0 218 -116 218 -253c0 -181 -106 -308 -247 -364c-40 -16 -126 -32 -171 -33l-6 36c148 26 251 133 276 253l-48 -25c-24 -13 -41 -18 -58 -18c-119 0 -193 84 -193 189c0 89 76 215 228 215zM233 595h-1c-53 0 -76 -71 -76 -135c0 -85 46 -160 119 -160
c25 0 41 7 55 13c4 28 5 52 5 74c0 98 -25 208 -102 208z" />
    <glyph glyph-name="colon" unicode=":" horiz-adv-x="254" 
d="M128 419h1c41 0 72 -31 72 -77c0 -43 -31 -74 -73 -74s-73 31 -73 74c0 46 31 77 73 77zM127 -12h-1c-40 0 -71 31 -71 76c0 44 31 75 72 75c43 0 74 -31 74 -75c0 -45 -31 -76 -74 -76z" />
    <glyph glyph-name="semicolon" unicode=";" horiz-adv-x="254" 
d="M128 419h1c41 0 72 -31 72 -77c0 -43 -31 -74 -73 -74s-73 31 -73 74c0 46 31 77 73 77zM102 161h1c49 0 115 -50 115 -127c0 -93 -87 -147 -170 -167l-9 35c58 25 87 55 87 97c0 34 -25 64 -73 74c-4 1 -14 14 -14 36c0 31 30 52 63 52z" />
    <glyph glyph-name="less" unicode="&#x3c;" horiz-adv-x="548" 
d="M497 0l-444 219v68l444 219v-71l-371 -181v-2l371 -182v-70z" />
    <glyph glyph-name="equal" unicode="=" horiz-adv-x="577" 
d="M531 313h-484v65h484v-65zM531 130h-484v65h484v-65z" />
    <glyph glyph-name="greater" unicode="&#x3e;" horiz-adv-x="548" 
d="M497 219l-444 -219v70l371 182v2l-371 181v71l444 -219v-68z" />
    <glyph glyph-name="question" unicode="?" horiz-adv-x="399" 
d="M228 226l-22 -24c-52 20 -127 70 -127 134c0 38 23 75 97 122c58 36 110 66 110 88s-15 37 -46 37c-67 0 -118 -71 -136 -71c-22 0 -58 32 -58 68c0 20 8 29 23 43c32 29 87 42 111 42h2c86 0 180 -83 180 -176c0 -40 -8 -71 -59 -106c-35 -25 -102 -63 -102 -97
c0 -16 6 -34 27 -60zM189 -12h-1c-42 0 -75 32 -75 79c0 44 33 78 76 78c45 0 77 -34 77 -78c0 -47 -33 -79 -77 -79z" />
    <glyph glyph-name="at" unicode="@" horiz-adv-x="766" 
d="M552 -16l13 -30c-65 -40 -131 -54 -194 -54c-168 0 -317 103 -315 309c1 232 185 368 379 368c184 0 290 -120 290 -253c0 -139 -103 -252 -249 -252c-54 0 -59 24 -50 72l8 46l-2 1c-32 -46 -111 -119 -163 -119c-27 0 -52 30 -51 90c2 58 22 125 79 183
c39 40 109 75 174 75c15 0 40 -5 55 -8c10 -3 20 -4 36 -4c-9 -33 -29 -119 -48 -221c-9 -47 -5 -66 13 -65c61 0 143 63 142 202c0 136 -106 210 -233 210c-176 0 -303 -137 -303 -321c0 -124 73 -263 266 -263c62 0 118 15 153 34zM422 376h-1c-23 0 -40 -10 -56 -28
c-25 -28 -46 -91 -48 -151c-1 -37 7 -49 19 -49c14 0 63 32 105 106c13 37 24 80 30 109c-15 8 -31 13 -49 13z" />
    <glyph glyph-name="A" unicode="A" horiz-adv-x="706" 
d="M687 0h-286v35c59 9 64 21 48 65c-10 30 -25 72 -40 113h-192c-11 -31 -24 -67 -36 -107c-14 -48 -12 -62 61 -71v-35h-224l1 35c66 8 78 19 111 103l205 514l51 13c64 -175 126 -349 191 -521c34 -88 47 -101 110 -109v-35zM390 266l-74 216h-3
c-28 -73 -53 -145 -79 -216h156z" />
    <glyph glyph-name="B" unicode="B" horiz-adv-x="637" 
d="M401 353v-4c116 -14 193 -61 193 -156c0 -67 -37 -119 -94 -150c-51 -29 -128 -43 -211 -43h-254v35c77 7 86 14 86 99v382c0 85 -9 92 -80 99v35h292c77 0 127 -10 165 -35c37 -24 59 -64 59 -114c0 -95 -84 -134 -156 -148zM253 363h23c96 0 139 38 139 121
c0 90 -54 124 -108 124c-22 0 -39 -6 -45 -12c-7 -7 -9 -22 -9 -43v-190zM253 323v-187c0 -74 20 -95 73 -94c56 1 119 42 119 140c0 93 -58 141 -172 141h-20z" />
    <glyph glyph-name="C" unicode="C" horiz-adv-x="676" 
d="M625 186l35 -16c-13 -48 -39 -124 -56 -159c-26 -6 -118 -26 -186 -26c-266 0 -377 173 -377 332c0 205 158 348 397 348c81 0 155 -21 182 -27c9 -55 16 -101 23 -164l-37 -7c-33 119 -110 154 -187 154c-145 0 -225 -137 -225 -284c0 -184 99 -305 235 -305
c83 0 145 53 196 154z" />
    <glyph glyph-name="D" unicode="D" horiz-adv-x="761" 
d="M41 650h301c125 0 222 -25 287 -87c49 -47 88 -118 88 -212c0 -122 -49 -209 -125 -268c-74 -56 -178 -83 -303 -83h-257v35c79 7 89 14 89 99v382c0 86 -9 92 -80 99v35zM255 540v-400c0 -72 15 -97 85 -97c134 0 226 110 226 288c0 95 -29 171 -74 216
c-42 41 -95 62 -163 62c-36 0 -57 -8 -63 -14c-9 -9 -11 -26 -11 -55z" />
    <glyph glyph-name="E" unicode="E" horiz-adv-x="581" 
d="M536 173l35 -7c-6 -45 -27 -136 -35 -166h-510v35c85 7 95 13 95 98v384c0 87 -10 92 -81 98v35h471c1 -18 6 -88 10 -150l-36 -5c-10 35 -23 68 -41 86c-17 18 -44 25 -100 25h-48c-37 0 -41 -2 -41 -35v-212h67c84 0 97 5 111 75h36v-202h-36c-14 72 -26 76 -111 76
h-67v-173c0 -47 4 -72 24 -82c18 -8 52 -10 90 -10c51 0 87 7 111 32c19 22 37 54 56 98z" />
    <glyph glyph-name="F" unicode="F" horiz-adv-x="554" 
d="M524 498l-35 -7c-11 38 -23 67 -40 86c-21 22 -48 29 -104 29h-50c-35 0 -39 -2 -39 -35v-221h81c90 0 99 9 111 73h36v-199h-36c-11 68 -21 76 -111 76h-81v-158c0 -94 8 -100 95 -107v-35h-312v35c73 7 83 13 83 107v369c0 90 -10 97 -83 103v36h474
c1 -17 6 -94 11 -152z" />
    <glyph glyph-name="G" unicode="G" horiz-adv-x="727" 
d="M703 310v-34c-50 -10 -56 -14 -56 -81v-79c0 -36 1 -68 6 -94c-60 -15 -147 -37 -228 -37c-232 0 -381 132 -381 332c0 228 185 348 396 348c81 0 159 -20 195 -28c3 -35 8 -87 16 -166l-37 -7c-25 111 -100 159 -194 159c-120 0 -224 -108 -224 -288
c0 -151 74 -308 238 -308c20 0 43 3 56 12c15 9 23 25 23 55v95c0 70 -5 78 -110 87v34h300z" />
    <glyph glyph-name="H" unicode="H" horiz-adv-x="783" 
d="M746 650v-35c-78 -7 -84 -13 -84 -98v-385c0 -84 8 -90 84 -97v-35h-305v35c80 7 87 14 87 98v186h-273v-186c0 -85 8 -91 82 -98v-35h-298v35c73 7 82 13 82 98v384c0 85 -9 91 -86 98v35h300v-35c-72 -7 -80 -13 -80 -98v-147h273v147c0 85 -8 91 -82 98v35h300z" />
    <glyph glyph-name="I" unicode="I" horiz-adv-x="378" 
d="M338 0h-300v35c74 7 83 14 83 98v383c0 85 -9 92 -83 99v35h300v-35c-74 -7 -83 -14 -83 -99v-383c0 -84 9 -91 83 -98v-35z" />
    <glyph glyph-name="J" unicode="J" horiz-adv-x="366" 
d="M338 650v-35c-70 -7 -79 -14 -79 -99v-330c0 -116 -10 -211 -102 -287c-40 -34 -82 -52 -122 -62l-15 37c54 23 84 58 94 121c9 56 11 120 11 195v326c0 85 -10 92 -86 99v35h299z" />
    <glyph glyph-name="K" unicode="K" horiz-adv-x="703" 
d="M699 0h-201c-43 59 -126 176 -197 279c-21 31 -34 37 -49 35v-180c0 -85 9 -92 86 -99v-35h-299v35c72 7 82 14 82 99v382c0 85 -9 92 -84 99v35h294v-35c-71 -7 -79 -14 -79 -99v-170c21 6 46 22 76 53c67 67 107 117 140 161c24 32 22 46 -25 52l-18 3v35h260v-35
c-62 -6 -103 -19 -158 -70c-59 -54 -101 -102 -146 -149c64 -95 138 -196 210 -287c41 -51 68 -68 108 -74v-35z" />
    <glyph glyph-name="L" unicode="L" horiz-adv-x="551" 
d="M513 180l35 -11c-8 -42 -29 -142 -37 -169h-487v35c87 7 97 14 97 98v383c0 86 -10 92 -86 99v35h306v-35c-77 -7 -86 -13 -86 -99v-390c0 -47 4 -65 25 -74c17 -7 44 -9 75 -9c42 0 78 7 102 34c19 21 37 53 56 103z" />
    <glyph glyph-name="M" unicode="M" horiz-adv-x="888" 
d="M860 0h-296v35c75 8 81 15 80 107l-2 385h-5l-221 -520h-28l-204 510h-4l-12 -261c-4 -83 -4 -130 0 -161c4 -45 24 -54 90 -60v-35h-240v35c56 5 75 23 81 58c6 32 14 84 21 188l16 198c8 114 1 128 -85 136v35h207l193 -438l196 438h201v-35c-80 -8 -84 -16 -82 -99
l9 -374c2 -92 7 -99 85 -107v-35z" />
    <glyph glyph-name="N" unicode="N" horiz-adv-x="740" 
d="M724 650v-35c-54 -3 -75 -16 -80 -62c-3 -31 -9 -78 -9 -166v-397h-48l-416 498h-3v-225c0 -88 5 -132 8 -162c5 -44 22 -63 96 -66v-35h-245v35c56 4 79 20 83 63c4 33 10 77 10 165v209c0 65 -2 84 -21 107c-18 24 -41 32 -83 36v35h185l382 -439h4v176
c0 88 -6 135 -8 164c-5 43 -26 60 -99 64v35h244z" />
    <glyph glyph-name="O" unicode="O" horiz-adv-x="766" 
d="M393 664h1c181 0 330 -134 330 -332c0 -216 -155 -347 -343 -347c-200 0 -339 147 -339 339c0 172 122 340 351 340zM375 623h-1c-100 0 -179 -107 -179 -280c0 -171 76 -316 204 -316c95 0 172 93 172 277c0 199 -81 319 -196 319z" />
    <glyph glyph-name="P" unicode="P" horiz-adv-x="599" 
d="M43 650h275c79 0 136 -11 175 -39c47 -32 74 -82 74 -147c0 -134 -99 -195 -204 -208c-15 -2 -31 -2 -42 -2l-68 16v-137c0 -85 9 -92 95 -99v-34h-311v34c75 7 84 14 84 99v383c0 85 -9 91 -78 99v35zM253 570v-260c12 -5 33 -10 54 -10c37 0 117 26 117 161
c0 113 -64 150 -125 150c-19 0 -31 -5 -37 -10c-6 -6 -9 -16 -9 -31z" />
    <glyph glyph-name="Q" unicode="Q" horiz-adv-x="758" 
d="M735 -137l-9 -27c-49 -8 -109 -2 -147 8c-32 8 -109 42 -236 143c-62 4 -156 39 -212 100c-57 62 -89 144 -89 232c0 176 120 346 351 346c182 0 331 -135 331 -332c0 -167 -101 -288 -221 -325c64 -45 160 -108 232 -145zM358 30l82 26c9 -6 18 -13 26 -19
c46 19 105 102 105 266c0 199 -80 320 -199 320c-109 0 -177 -124 -177 -281c0 -156 59 -282 163 -312z" />
    <glyph glyph-name="R" unicode="R" horiz-adv-x="659" 
d="M660 23l-6 -32c-6 0 -18 1 -30 1c-126 6 -165 34 -205 97c-26 41 -53 95 -82 147c-16 31 -34 43 -66 44h-19v-146c0 -82 10 -92 85 -99v-35h-302v35c75 7 86 17 86 99v384c0 80 -9 90 -82 97v35h281c87 0 138 -10 178 -38c40 -26 68 -71 68 -133
c0 -88 -58 -135 -125 -163c14 -29 52 -96 81 -142c36 -55 57 -87 77 -108c22 -23 38 -35 61 -43zM252 319h26c42 0 76 7 98 27c34 28 48 68 48 119c0 106 -62 145 -118 145c-25 0 -39 -4 -45 -10c-7 -6 -9 -16 -9 -37v-244z" />
    <glyph glyph-name="S" unicode="S" horiz-adv-x="505" 
d="M442 495l-34 -8c-21 63 -58 137 -140 137c-56 0 -97 -42 -97 -99c0 -55 36 -87 124 -131c105 -51 177 -107 177 -206c0 -114 -97 -203 -243 -203c-36 0 -71 5 -101 14c-28 8 -47 16 -61 22c-9 25 -22 109 -29 170l35 11c20 -64 79 -176 175 -176c61 0 100 42 100 105
c0 59 -44 96 -119 136c-103 52 -174 106 -174 202c0 110 87 196 229 196c64 0 121 -20 139 -27c4 -37 11 -81 19 -143z" />
    <glyph glyph-name="T" unicode="T" horiz-adv-x="641" 
d="M616 481l-36 -2c-12 52 -26 85 -44 103c-17 18 -43 24 -101 24h-46v-473c0 -85 10 -91 98 -98v-35h-326v35c84 7 94 13 94 98v473h-34c-82 0 -100 -11 -115 -27c-16 -17 -29 -51 -42 -101h-36c4 73 10 146 12 197h24c16 -23 29 -25 57 -25h402c27 0 41 6 58 25h24
c1 -42 6 -130 11 -194z" />
    <glyph glyph-name="U" unicode="U" horiz-adv-x="729" 
d="M724 650v-35c-55 -3 -80 -24 -85 -59c-5 -31 -9 -68 -9 -139v-109c0 -106 -16 -190 -72 -250c-46 -48 -114 -73 -185 -73c-66 0 -129 14 -177 52c-57 44 -83 118 -83 235v235c0 94 -10 101 -84 108v35h301v-35c-73 -7 -83 -14 -83 -108v-217c0 -150 54 -237 162 -237
c119 0 171 90 171 257v107c0 71 -5 109 -10 139c-5 35 -29 55 -97 59v35h251z" />
    <glyph glyph-name="V" unicode="V" horiz-adv-x="711" 
d="M702 650v-36c-64 -7 -83 -20 -123 -115c-33 -77 -124 -304 -202 -510h-50c-68 183 -162 424 -204 527c-30 78 -47 92 -108 98v36h298v-36c-73 -11 -73 -22 -58 -65c29 -80 108 -283 144 -377h3c55 146 98 261 126 348c22 70 22 84 -60 94v36h234z" />
    <glyph glyph-name="W" unicode="W" horiz-adv-x="979" 
d="M969 650v-35c-66 -11 -83 -24 -110 -108c-23 -64 -82 -238 -166 -518h-52c-54 149 -107 292 -163 444h-2c-52 -151 -103 -300 -150 -444h-53c-54 180 -104 348 -160 525c-24 78 -41 92 -100 101v35h296v-35c-76 -9 -77 -23 -63 -74c33 -117 67 -234 102 -344h2
c47 141 97 293 144 447h48c56 -152 113 -305 168 -451h2c39 123 80 279 94 337c14 60 9 77 -72 85v35h235z" />
    <glyph glyph-name="X" unicode="X" horiz-adv-x="693" 
d="M699 0h-321v35c66 12 62 26 44 59c-10 17 -33 55 -106 179c-48 -71 -88 -136 -110 -176c-24 -43 -15 -51 53 -62v-35h-251v35c54 6 90 22 119 55c36 46 106 136 163 222c-48 79 -89 148 -142 231c-29 47 -56 65 -123 72v35h302v-35c-56 -13 -54 -24 -42 -48
c17 -32 49 -84 90 -151c31 41 66 96 90 140c19 36 16 46 -48 59v35h241v-35c-64 -9 -91 -20 -132 -69c-35 -40 -77 -99 -125 -165c59 -93 108 -173 166 -263c41 -64 63 -76 132 -83v-35z" />
    <glyph glyph-name="Y" unicode="Y" horiz-adv-x="655" 
d="M646 650v-35c-64 -7 -84 -25 -120 -84c-37 -59 -63 -102 -112 -196c-14 -27 -18 -38 -18 -69v-128c0 -90 8 -96 97 -104v-34h-325v34c85 7 94 14 94 104v111c0 25 -4 35 -13 54c-27 55 -64 122 -124 227c-37 66 -54 77 -109 85v35h286v-35c-66 -9 -65 -22 -47 -58
c35 -69 75 -143 114 -217c29 57 80 151 104 212c16 40 15 53 -59 63v35h232z" />
    <glyph glyph-name="Z" unicode="Z" horiz-adv-x="619" 
d="M573 193l34 -8c-8 -49 -26 -150 -37 -185h-530l-12 17c129 194 258 395 382 588h-126c-102 0 -121 -12 -137 -35c-13 -18 -28 -48 -39 -95l-34 1c3 77 10 147 12 199h26c15 -24 26 -25 57 -25h407l8 -15c-126 -195 -249 -385 -374 -584c33 -4 61 -6 124 -6
c78 0 148 6 177 33c24 23 41 53 62 115z" />
    <glyph glyph-name="bracketleft" unicode="[" horiz-adv-x="351" 
d="M302 -162h-185v866h185v-36c-101 -9 -105 -16 -105 -94v-608c0 -76 2 -83 105 -92v-36z" />
    <glyph glyph-name="backslash" unicode="\" horiz-adv-x="332" 
d="M304 -45h-70l-206 710h70z" />
    <glyph glyph-name="bracketright" unicode="]" horiz-adv-x="351" 
d="M234 -162h-185v36c100 9 105 16 105 94v606c0 78 -5 85 -105 94v36h185v-866z" />
    <glyph glyph-name="asciicircum" unicode="^" horiz-adv-x="559" 
d="M506 213h-77l-151 335l-152 -335h-73l194 410h65z" />
    <glyph glyph-name="underscore" unicode="_" horiz-adv-x="500" 
d="M500 -125h-500v50h500v-50z" />
    <glyph glyph-name="quoteleft" unicode="&#x2018;" horiz-adv-x="242" 
d="M189 717l14 -34c-56 -26 -87 -59 -87 -97c0 -37 29 -63 71 -71c5 -1 15 -12 15 -36c0 -28 -30 -47 -57 -47h-1c-51 0 -115 46 -115 123c0 90 82 141 160 162z" />
    <glyph glyph-name="a" unicode="a" horiz-adv-x="466" 
d="M465 45l-109 -57c-27 0 -48 9 -61 21c-14 12 -21 25 -26 37c-38 -25 -85 -58 -104 -58c-85 0 -135 66 -135 128c0 52 24 77 76 96c59 22 136 46 159 66v30c0 63 -24 98 -61 98c-13 0 -24 -6 -33 -18c-12 -14 -21 -38 -29 -69c-7 -26 -21 -34 -42 -34c-26 0 -62 24 -62 50
c0 18 12 31 35 48c38 26 109 61 166 71c41 0 71 -9 98 -29c43 -33 52 -76 52 -132v-165c0 -46 16 -59 32 -59c12 0 23 4 34 8zM265 79v160c-18 -9 -35 -20 -55 -31c-31 -16 -47 -34 -47 -68c0 -56 37 -77 60 -77c14 0 25 4 42 16z" />
    <glyph glyph-name="b" unicode="b" horiz-adv-x="534" 
d="M196 417l37 18c28 13 44 19 64 19c121 0 207 -99 207 -211c0 -146 -114 -255 -260 -255c-56 0 -107 10 -176 36v542c0 58 -5 66 -61 71v30c51 6 132 20 189 36v-286zM196 382v-274c0 -14 2 -25 5 -33c6 -16 29 -46 61 -47c54 -1 103 59 103 184c0 127 -64 177 -128 177
c-16 0 -26 -3 -41 -7z" />
    <glyph glyph-name="c" unicode="c" horiz-adv-x="422" 
d="M399 120l19 -24c-46 -65 -111 -108 -172 -108c-137 0 -217 104 -217 213c0 73 37 144 101 191c65 48 131 62 169 62h1c36 0 69 -11 86 -25c14 -10 18 -22 18 -36c0 -29 -26 -55 -43 -55c-7 0 -13 3 -22 11c-42 36 -73 52 -101 52c-40 0 -84 -38 -84 -145
c0 -133 95 -177 138 -177c42 0 71 10 107 41z" />
    <glyph glyph-name="d" unicode="d" horiz-adv-x="547" 
d="M541 58v-32c-24 -4 -118 -16 -197 -39v58l-60 -39c-25 -16 -39 -18 -51 -18c-85 0 -204 70 -204 219c0 136 118 247 274 247c8 0 19 -2 41 -5v121c0 54 -6 59 -67 66v31c64 8 144 21 195 36v-577c0 -57 5 -61 47 -66zM344 80v280c-16 35 -43 52 -72 52
c-24 0 -101 -26 -101 -178c1 -123 72 -170 118 -170c18 0 33 2 55 16z" />
    <glyph glyph-name="e" unicode="e" horiz-adv-x="437" 
d="M399 123l18 -24c-61 -91 -139 -111 -180 -111c-133 0 -207 99 -207 214c0 76 32 140 74 181c44 44 99 71 153 71h1c92 0 163 -79 162 -161c0 -20 -6 -33 -29 -36c-18 -2 -140 -12 -238 -16c5 -107 64 -161 135 -161c39 0 76 13 111 43zM237 414h-1
c-37 0 -72 -46 -78 -126c41 1 78 2 119 3c15 1 20 3 21 20c0 51 -22 103 -61 103z" />
    <glyph glyph-name="f" unicode="f" horiz-adv-x="331" 
d="M52 442h41v22c0 22 5 43 12 67c7 21 28 70 86 117c36 31 70 49 118 55c40 -2 65 -14 82 -30c14 -14 15 -30 9 -44c-5 -11 -15 -25 -31 -36c-13 -10 -24 -10 -33 -1c-25 25 -57 50 -84 50c-18 0 -27 -11 -31 -27c-6 -18 -6 -53 -2 -138l1 -35h115c4 -11 0 -41 -14 -48
h-101v-286c0 -62 7 -68 83 -76v-32h-272v32c58 8 62 13 62 76v286h-65l-5 12z" />
    <glyph glyph-name="g" unicode="g" horiz-adv-x="492" 
d="M494 439l4 -7c-6 -17 -25 -50 -43 -61l-57 4c16 -19 27 -42 27 -76c0 -104 -93 -156 -191 -156c-18 0 -34 3 -49 5c-8 -8 -14 -17 -14 -28c0 -17 16 -39 64 -38c32 0 60 1 92 1c62 0 154 -17 154 -122c0 -114 -134 -205 -267 -205c-129 0 -187 66 -187 122
c0 22 11 38 31 55c24 19 50 33 76 49c-42 15 -61 34 -75 55c-11 16 -16 40 -15 54c52 21 83 48 102 66c-60 20 -98 71 -98 133c0 112 104 164 193 164h1c41 0 70 -8 107 -27c52 2 105 8 145 12zM236 417h-1c-30 0 -59 -38 -59 -111c0 -70 23 -126 69 -126c39 0 60 40 60 114
c0 65 -21 123 -69 123zM243 -21h-1c-48 0 -69 -5 -84 -21c-14 -15 -23 -30 -23 -51c0 -48 50 -96 129 -96c76 0 121 41 121 94c0 36 -25 57 -56 65c-27 7 -49 9 -86 9z" />
    <glyph glyph-name="h" unicode="h" horiz-adv-x="550" 
d="M532 0h-236v32c48 7 51 14 51 69v176c0 77 -33 103 -72 103c-24 0 -51 -7 -72 -28v-251c0 -55 4 -62 46 -69v-32h-237v32c57 6 63 10 63 73v466c0 61 -4 61 -56 67v29c53 7 124 21 184 36v-314c34 35 84 65 133 65c87 0 138 -56 138 -166v-183c0 -64 6 -64 58 -73v-32z
" />
    <glyph glyph-name="i" unicode="i" horiz-adv-x="295" 
d="M148 517c-37 0 -70 32 -70 70c0 40 33 70 71 70c40 0 71 -30 71 -70c0 -38 -31 -70 -72 -70zM285 0h-256v32c58 7 64 11 64 82v198c0 66 -7 69 -55 77v29c60 7 126 20 182 36v-340c0 -69 5 -74 65 -82v-32z" />
    <glyph glyph-name="j" unicode="j" horiz-adv-x="288" 
d="M148 517c-37 0 -70 32 -70 70c0 40 33 70 71 70c39 0 71 -30 71 -70c0 -38 -32 -70 -72 -70zM31 388v30c61 7 126 21 189 36v-325c0 -77 -8 -116 -28 -162c-39 -95 -115 -179 -139 -196c-15 -11 -23 -15 -35 -15c-14 0 -40 23 -40 55c0 16 10 27 24 27c44 1 68 8 75 20
c6 12 10 36 12 71c2 59 4 123 4 188v188c0 72 -7 74 -62 83z" />
    <glyph glyph-name="k" unicode="k" horiz-adv-x="513" 
d="M536 0l-176 -2c-29 37 -85 126 -130 198c-8 12 -14 17 -20 17c-3 1 -6 2 -9 2v-107c0 -65 7 -68 65 -76v-32h-257v32c60 8 66 10 66 76v462c0 56 -7 62 -60 69v28c46 6 118 17 186 36v-459c23 5 42 22 57 38c22 25 47 65 58 87c12 21 8 34 -30 40v30l216 9v-30
c-63 -11 -97 -24 -125 -52c-27 -27 -42 -44 -70 -82c26 -44 114 -162 145 -201c32 -36 49 -45 84 -51v-32z" />
    <glyph glyph-name="l" unicode="l" horiz-adv-x="278" 
d="M269 0h-259v32c59 9 65 14 65 78v458c0 60 -5 63 -60 70v29c57 7 131 20 187 36v-593c0 -67 6 -71 67 -78v-32z" />
    <glyph glyph-name="m" unicode="m" horiz-adv-x="843" 
d="M824 0h-236v32c44 6 52 10 52 73v172c0 82 -39 98 -71 98c-20 0 -45 -6 -78 -33c1 -11 3 -25 3 -40v-202c0 -57 7 -62 52 -68v-32h-231v32c47 7 51 9 51 68v182c0 72 -32 94 -69 94c-24 0 -49 -11 -77 -32v-244c0 -57 7 -62 45 -68v-32h-235v32c57 7 63 10 63 73v210
c0 57 -5 67 -51 74v29c47 7 114 21 176 38v-77c22 16 41 30 63 43c31 20 58 32 87 32c55 0 96 -33 114 -79c24 19 48 34 72 51c22 15 49 28 79 28c87 0 134 -59 134 -161v-193c0 -57 4 -60 57 -68v-32z" />
    <glyph glyph-name="n" unicode="n" horiz-adv-x="566" 
d="M549 0h-233v32c42 7 47 10 47 81v170c0 72 -33 94 -69 94c-25 0 -48 -11 -74 -31v-242c0 -62 6 -65 47 -72v-32h-241v32c62 9 67 10 67 77v207c0 60 -5 64 -54 73v29c57 7 122 21 181 38v-74c20 14 40 30 62 44c30 19 49 28 78 28c81 0 131 -60 131 -160v-189
c0 -63 6 -65 58 -73v-32z" />
    <glyph glyph-name="o" unicode="o" horiz-adv-x="525" 
d="M268 454h1c139 0 227 -105 227 -225c0 -161 -115 -241 -232 -241c-157 0 -234 114 -234 223c0 161 127 243 238 243zM255 415h-1c-41 0 -81 -53 -81 -168c0 -123 39 -220 102 -220c38 0 78 25 78 172c0 139 -35 216 -98 216z" />
    <glyph glyph-name="p" unicode="p" horiz-adv-x="547" 
d="M211 391l70 44c20 12 38 19 55 19c118 0 181 -97 181 -193c0 -147 -115 -244 -243 -273c-25 0 -47 6 -63 12v-127c0 -58 5 -64 83 -71v-32h-278v32c64 5 68 13 68 70v448c0 56 -9 61 -58 68v30c54 9 119 27 185 46v-73zM211 354v-277c19 -18 57 -39 82 -39
c55 0 93 67 93 172c0 123 -62 168 -111 168c-26 0 -46 -10 -64 -24z" />
    <glyph glyph-name="q" unicode="q" horiz-adv-x="536" 
d="M534 -230h-274v32c70 8 79 11 79 72v148l-80 -34c-160 0 -230 115 -230 213c0 142 129 254 280 253c41 -3 61 -10 72 -14c15 -5 22 -6 33 -6c9 0 26 3 51 12l5 -4c-1 -20 -3 -37 -3 -106v-463c0 -59 5 -64 67 -71v-32zM339 58v314c-20 25 -46 41 -67 41
c-46 0 -102 -56 -102 -178c0 -120 77 -185 133 -185c14 0 24 2 36 8z" />
    <glyph glyph-name="r" unicode="r" horiz-adv-x="404" 
d="M220 349h3c36 62 75 105 112 105c40 0 67 -28 67 -62c0 -36 -22 -64 -49 -74c-14 -5 -24 -2 -31 4c-17 14 -29 21 -46 21c-19 0 -39 -13 -56 -52v-186c0 -62 6 -66 83 -73v-32h-274v32c54 6 64 11 64 73v218c0 51 -8 55 -54 66v28c60 8 119 19 181 38v-106z" />
    <glyph glyph-name="s" unicode="s" horiz-adv-x="383" 
d="M338 322l-30 -9c-27 61 -59 102 -106 102c-26 0 -51 -22 -51 -54c0 -31 23 -54 74 -77c81 -35 135 -70 135 -148c0 -99 -95 -148 -179 -148c-53 0 -106 19 -126 34c-6 16 -15 86 -16 134l30 3c22 -63 68 -132 129 -132c33 0 55 24 55 54c0 29 -14 54 -76 83
c-46 23 -127 62 -127 148c0 78 63 142 168 142c46 1 73 -8 96 -18c10 -23 22 -94 24 -114z" />
    <glyph glyph-name="t" unicode="t" horiz-adv-x="339" 
d="M329 37l-81 -38c-18 -8 -34 -11 -41 -11c-77 0 -122 36 -122 126v280h-63l-5 12l28 36h40v73l113 78l14 -6v-145h98c12 -11 10 -40 -6 -48h-92v-247c0 -78 36 -87 57 -87c17 0 33 4 50 12z" />
    <glyph glyph-name="u" unicode="u" horiz-adv-x="555" 
d="M542 56v-32c-29 -4 -57 -9 -90 -16c-31 -6 -63 -13 -93 -20l-8 7v60c-18 -14 -28 -24 -50 -37c-29 -19 -56 -30 -87 -30c-84 0 -131 54 -131 142v207c0 46 -6 51 -32 58l-23 7v29c25 1 56 4 89 7c34 3 69 7 96 11c-2 -42 -3 -93 -3 -151v-145c0 -65 34 -88 69 -88
c27 0 49 6 72 28v243c0 46 -6 53 -32 59l-32 7v29c29 1 65 4 100 7s68 7 91 11v-325c0 -53 6 -62 42 -66z" />
    <glyph glyph-name="v" unicode="v" horiz-adv-x="465" 
d="M483 442v-32c-50 -10 -62 -21 -83 -68c-37 -81 -86 -201 -146 -353h-39c-50 124 -95 240 -144 355c-18 44 -31 55 -79 66v32h247v-32c-46 -10 -51 -17 -38 -52c25 -70 61 -168 76 -209c19 46 51 137 74 206c10 33 6 46 -48 55v32h180z" />
    <glyph glyph-name="w" unicode="w" horiz-adv-x="683" 
d="M699 442v-32c-48 -8 -55 -16 -76 -68c-37 -93 -79 -213 -128 -353h-38c-39 94 -80 188 -117 279c-38 -93 -73 -184 -111 -279h-38c-40 123 -83 246 -120 358c-17 48 -26 58 -68 63v32h247v-32c-57 -9 -64 -18 -53 -52c20 -64 40 -132 59 -195h2c35 87 68 179 104 274h39
c36 -92 74 -183 113 -276h2c16 47 47 147 56 190c9 38 4 50 -58 59v32h185z" />
    <glyph glyph-name="x" unicode="x" horiz-adv-x="482" 
d="M494 0h-249v32c38 7 42 17 24 47l-50 87c-20 -28 -37 -61 -52 -85c-17 -28 -11 -40 29 -49v-32h-189v32c54 11 74 22 108 63c25 28 51 64 81 104l-88 145c-29 47 -39 58 -92 66v32h236v-32c-34 -8 -39 -16 -25 -39l47 -78c21 31 37 58 49 78c15 23 9 31 -30 39v32h183
v-32c-54 -9 -65 -14 -101 -49c-21 -23 -44 -56 -79 -101l97 -155c33 -52 57 -67 101 -73v-32z" />
    <glyph glyph-name="y" unicode="y" horiz-adv-x="465" 
d="M483 442v-32c-48 -8 -58 -18 -83 -72c-25 -53 -58 -136 -116 -275c-67 -162 -87 -225 -105 -281c-7 -22 -20 -27 -37 -27c-28 0 -70 27 -70 63c0 17 7 26 27 39c39 21 63 40 81 72c11 18 16 30 20 41c5 16 2 31 -4 47c-52 145 -107 287 -126 331c-18 43 -30 55 -77 62v32
h248v-32c-43 -8 -51 -14 -40 -46l75 -222c23 56 57 156 75 213c11 33 1 46 -48 55v32h180z" />
    <glyph glyph-name="z" unicode="z" horiz-adv-x="445" 
d="M410 152l29 -14c-19 -56 -35 -107 -47 -138h-355l-13 16c82 131 149 249 226 383h-53c-67 0 -91 -15 -120 -71l-17 -33l-31 13c15 49 31 111 41 156h22c8 -16 22 -22 61 -22h245l9 -14c-77 -131 -143 -249 -220 -384h64c70 0 104 13 142 80z" />
    <glyph glyph-name="braceleft" unicode="{" horiz-adv-x="357" 
d="M310 -129v-39c-78 0 -169 19 -169 140c0 62 6 129 6 196c0 31 -4 79 -91 85v36c88 7 91 52 91 85c0 67 -6 135 -6 193c0 122 90 143 169 143v-39c-75 -8 -87 -54 -87 -96c0 -59 12 -133 12 -186c0 -55 -23 -103 -90 -116v-4c65 -13 90 -61 90 -116
c0 -54 -12 -129 -12 -183c0 -51 11 -92 87 -99z" />
    <glyph glyph-name="bar" unicode="|" horiz-adv-x="270" 
d="M177 -250h-84v1000h84v-1000z" />
    <glyph glyph-name="braceright" unicode="}" horiz-adv-x="357" 
d="M302 289v-36c-88 -7 -91 -53 -91 -95c0 -58 6 -127 6 -189c0 -117 -91 -137 -171 -137v37c75 9 91 52 91 100c0 52 -13 111 -13 180c0 59 24 107 90 120v4c-66 13 -90 61 -90 116c0 67 13 130 13 188c0 44 -15 87 -91 96v37c80 0 171 -17 171 -139c0 -63 -6 -130 -6 -187
c0 -43 1 -89 91 -95z" />
    <glyph glyph-name="asciitilde" unicode="~" horiz-adv-x="577" 
d="M483 322l46 -28c-26 -68 -69 -107 -133 -107c-50 0 -91 23 -125 42c-29 16 -54 28 -83 28c-40 0 -68 -27 -93 -75l-43 35c44 88 101 102 139 102c41 0 70 -11 108 -33c35 -20 70 -36 103 -36c35 0 61 27 81 72z" />
    <glyph glyph-name="exclamdown" unicode="&#xa1;" horiz-adv-x="285" 
d="M142 458h1c42 0 75 -32 75 -78s-33 -79 -76 -79c-44 0 -76 33 -76 79s32 78 76 78zM143 -220h-1c-62 0 -81 19 -81 44c0 16 4 34 10 71c20 108 35 215 50 331c2 12 43 12 45 0c15 -116 30 -223 49 -331c7 -37 10 -55 10 -71c0 -25 -17 -44 -82 -44z" />
    <glyph glyph-name="cent" unicode="&#xa2;" horiz-adv-x="500" 
d="M436 231l19 -27c-37 -52 -88 -93 -146 -103v-96h-39v93c-143 5 -224 102 -224 202c0 73 36 139 100 185c39 27 83 42 124 49v81h39v-77c8 1 13 0 17 0c30 0 74 -7 96 -23c13 -9 15 -21 15 -30c0 -28 -27 -51 -39 -51c-4 0 -8 1 -17 12c-24 27 -47 43 -72 48v-314
c54 1 93 19 127 51zM270 187v309c-45 -4 -107 -45 -107 -149c0 -99 54 -145 107 -160z" />
    <glyph glyph-name="sterling" unicode="&#xa3;" horiz-adv-x="500" 
d="M404 289h-152c1 -5 0 -9 0 -15c0 -64 -57 -119 -111 -149c40 2 76 -4 111 -18c47 -19 102 -44 137 -44c30 0 39 10 39 24c0 15 -3 30 -7 40c-4 7 -3 16 3 24c14 17 27 27 39 27c17 0 27 -20 27 -41c0 -51 -48 -100 -86 -127c-34 -26 -68 -37 -103 -37
c-47 0 -98 35 -143 59c-32 16 -50 22 -68 22c-15 0 -28 -16 -33 -40c-3 -11 -8 -17 -16 -17c-17 0 -32 15 -23 45c8 27 44 63 64 91c28 36 39 75 39 112c0 16 -1 31 -3 44h-95v46h87c-4 36 -7 58 -7 83c0 52 24 122 95 171c35 25 76 44 116 46c49 0 83 -22 98 -38
c11 -13 14 -28 3 -46c-7 -12 -17 -21 -25 -27c-10 -5 -21 -6 -33 3c-31 24 -65 52 -100 52c-30 0 -42 -21 -42 -64c0 -48 18 -111 32 -180h157v-46z" />
    <glyph glyph-name="fraction" unicode="&#x2044;" horiz-adv-x="180" 
d="M312 621l-406 -661l-38 28l404 660z" />
    <glyph glyph-name="yen" unicode="&#xa5;" horiz-adv-x="500" 
d="M489 623v-34c-47 -6 -57 -17 -88 -69c-25 -41 -48 -86 -93 -181h125v-41h-132v-29v-38h133v-41h-133v-54c0 -89 8 -97 90 -102v-34h-303v34c79 5 86 13 86 103v53h-134v41h134v26v41h-134v41h122c-20 54 -41 104 -72 175c-28 63 -43 69 -84 75v34h247v-34l-23 -5
c-24 -4 -28 -13 -21 -33c24 -67 44 -126 67 -187c28 59 59 128 74 169c12 32 13 46 -18 51l-26 5v34h183z" />
    <glyph glyph-name="florin" unicode="&#x192;" horiz-adv-x="500" 
d="M163 376l7 37c15 78 46 132 104 179c66 53 116 60 139 60c30 0 72 -20 70 -51c-1 -24 -27 -56 -44 -57c-17 0 -50 54 -81 54c-12 0 -20 -9 -26 -26s-15 -53 -33 -196h107v-46h-114l-22 -142c-31 -200 -97 -250 -161 -293c-34 -23 -70 -33 -95 -33c-30 0 -61 20 -61 46
c0 29 33 58 50 58c13 0 45 -44 72 -44c12 0 20 8 24 22c7 24 14 65 23 141l34 245h-88v46h95z" />
    <glyph glyph-name="section" unicode="&#xa7;" horiz-adv-x="482" 
d="M429 204c-1 -77 -55 -156 -100 -210c-47 -51 -95 -82 -150 -97c-20 0 -52 6 -72 21c-13 10 -19 22 -19 31c0 12 21 39 30 44c8 5 16 8 24 2c11 -9 40 -27 84 -27c31 0 56 18 56 42c0 25 -15 42 -61 83c-36 37 -80 76 -111 108c-37 36 -68 92 -67 153c0 80 41 147 85 193
c45 48 88 81 150 96c27 0 56 -13 72 -27c10 -9 13 -16 13 -26c-1 -19 -19 -36 -28 -43c-4 -3 -12 -4 -20 3c-12 9 -44 27 -84 27c-32 0 -54 -18 -54 -38c0 -19 11 -38 38 -60c32 -27 76 -61 111 -90c56 -45 105 -98 103 -185zM100 416v-1c-1 -49 21 -94 89 -157
c51 -47 101 -93 122 -123c14 -22 23 -46 24 -77h2c22 36 29 66 29 95c1 45 -17 93 -88 150c-26 20 -75 61 -106 92c-20 20 -46 55 -44 98l-1 2c-15 -21 -27 -46 -27 -79z" />
    <glyph glyph-name="currency" unicode="&#xa4;" horiz-adv-x="500" 
d="M470 136l-50 -50l-67 75c-30 -25 -69 -36 -109 -36c-39 0 -79 11 -110 37l-67 -76l-49 50l71 68c-29 31 -43 77 -43 121c0 45 14 90 43 121l-71 68l49 50l68 -76c30 26 70 37 109 37h1c39 0 78 -11 108 -37l67 76l50 -50l-71 -68c29 -31 43 -76 43 -121
c0 -44 -14 -90 -43 -121zM245 459h-1c-65 0 -112 -58 -112 -134c0 -79 47 -134 113 -134s112 55 112 134c0 76 -46 134 -112 134z" />
    <glyph glyph-name="quotesingle" unicode="'" horiz-adv-x="199" 
d="M148 708l9 -7c-2 -32 -23 -178 -36 -260l-38 -19c-18 101 -43 237 -49 252z" />
    <glyph glyph-name="quotedblleft" unicode="&#x201c;" horiz-adv-x="445" 
d="M191 717l13 -34c-55 -26 -88 -57 -88 -95c0 -37 29 -65 72 -73c4 -1 14 -12 14 -36c0 -28 -30 -47 -57 -47h-1c-51 0 -115 46 -115 123c0 90 84 141 162 162zM394 717l14 -34c-56 -26 -88 -57 -88 -95c0 -37 28 -65 71 -73c5 -1 14 -12 14 -36c0 -28 -29 -47 -57 -47h-1
c-50 0 -115 46 -115 123c0 90 84 141 162 162z" />
    <glyph glyph-name="guillemotleft" unicode="&#xab;" horiz-adv-x="456" 
d="M237 51l-32 -19c-49 67 -101 132 -158 192c57 60 109 125 158 192l32 -19l-83 -173zM412 51l-31 -19c-51 67 -105 132 -159 192c56 60 109 125 159 192l31 -19l-83 -173z" />
    <glyph glyph-name="guilsinglleft" unicode="&#x2039;" horiz-adv-x="279" 
d="M235 51l-31 -19c-50 67 -103 132 -159 192c56 60 109 125 159 192l31 -19l-83 -173z" />
    <glyph glyph-name="guilsinglright" unicode="&#x203a;" horiz-adv-x="279" 
d="M45 396l31 20c51 -67 105 -131 158 -192c-55 -60 -109 -124 -158 -192l-31 18l83 174z" />
    <glyph glyph-name="fi" unicode="&#xe103;" horiz-adv-x="581" 
d="M566 0h-236v33c43 5 48 13 48 72v218c0 61 -3 70 -52 70h-106v-290c0 -56 11 -64 59 -70v-33h-247v33c53 5 61 14 61 70v290h-68l-4 13l30 36h42v22c0 35 9 64 24 94c16 32 42 60 78 87c47 36 102 56 148 58c59 -2 96 -25 116 -47c15 -19 17 -39 9 -55
c-5 -12 -17 -26 -31 -33c-18 -11 -33 -9 -42 3c-16 21 -51 80 -111 80c-27 0 -46 -23 -54 -59c-7 -27 -10 -75 -10 -119v-31h100c45 0 130 1 186 12v-349c0 -59 5 -66 60 -72v-33z" />
    <glyph glyph-name="fl" unicode="&#xe104;" horiz-adv-x="581" 
d="M568 0h-234v33c38 5 44 12 44 72v502c-17 26 -48 50 -82 50c-24 0 -41 -11 -54 -33c-14 -24 -22 -59 -22 -115v-67h103c5 -11 1 -42 -13 -49h-90v-290c0 -57 5 -63 55 -70v-33h-246v33c58 8 63 12 63 70v290h-68l-4 14l30 35h42v17c0 38 8 67 24 99c16 33 39 64 80 93
c39 28 82 49 136 52c46 0 74 -9 104 -24c17 4 36 12 60 20l9 -5v-589c0 -60 6 -64 63 -72v-33z" />
    <glyph glyph-name="endash" unicode="&#x2013;" horiz-adv-x="511" 
d="M461 196h-411v68h411v-68z" />
    <glyph glyph-name="dagger" unicode="&#x2020;" horiz-adv-x="506" 
d="M273 -98h-52c2 35 2 65 2 111c0 122 -22 220 -38 259c24 47 41 81 40 127c-56 -3 -96 -22 -123 -42c-20 7 -50 32 -62 59c12 26 42 51 62 58c27 -20 67 -38 123 -41c-1 65 -19 89 -49 134c14 27 40 55 71 70c37 -15 58 -43 70 -70c-28 -45 -47 -69 -48 -134
c57 3 96 21 123 41c20 -7 50 -32 62 -58c-12 -27 -42 -52 -62 -59c-27 20 -66 39 -123 41c-2 -45 20 -79 44 -126c-17 -39 -42 -137 -42 -259c0 -46 0 -76 2 -111z" />
    <glyph glyph-name="daggerdbl" unicode="&#x2021;" horiz-adv-x="492" 
d="M452 128c-14 -27 -40 -52 -61 -59c-28 21 -64 40 -123 42c2 -68 20 -94 49 -139c-13 -29 -41 -57 -71 -68c-29 11 -57 38 -71 68c28 45 47 71 49 139c-59 -2 -96 -21 -123 -42c-23 7 -48 32 -61 59c13 27 38 51 61 58c27 -20 64 -37 123 -40c-1 68 -19 110 -49 135
c30 29 48 69 49 129c-59 -2 -96 -19 -123 -39c-23 6 -48 31 -61 56c13 25 38 51 61 57c27 -20 64 -35 123 -38c-2 53 -20 76 -50 125c14 27 42 56 72 66c30 -10 57 -39 71 -66c-29 -49 -47 -72 -49 -125c59 3 95 18 123 38c21 -6 49 -32 61 -57c-12 -25 -40 -50 -61 -56
c-28 20 -64 37 -123 39c1 -60 18 -100 48 -129c-29 -25 -47 -66 -48 -130l3 -5c56 1 92 20 120 40c21 -7 47 -31 61 -58z" />
    <glyph glyph-name="periodcentered" unicode="&#xb7;" horiz-adv-x="254" 
d="M126 157h-1c-40 0 -73 31 -73 77c0 45 33 77 74 77c44 0 76 -32 76 -77c0 -46 -32 -77 -76 -77z" />
    <glyph glyph-name="paragraph" unicode="&#xb6;" horiz-adv-x="519" 
d="M479 536l-30 -32l-87 -10v-469c0 -84 -23 -139 -74 -190c-39 -38 -88 -53 -97 -53c-33 0 -59 11 -74 24c-11 11 -13 22 -11 32c2 12 16 28 22 33c8 7 16 8 24 3c21 -14 47 -23 71 -23c39 0 78 20 78 157v134l-70 -31c-4 -1 -7 -2 -17 -2c-64 0 -175 78 -175 209
c0 69 30 129 74 168c43 38 104 63 161 63h201z" />
    <glyph glyph-name="bullet" unicode="&#x2022;" horiz-adv-x="399" 
d="M199 361h2c72 0 133 -59 133 -139c0 -79 -61 -139 -135 -139c-73 0 -134 60 -134 139c0 80 61 139 134 139z" />
    <glyph glyph-name="quotesinglbase" unicode="&#x201a;" horiz-adv-x="253" 
d="M98 156h1c53 0 122 -48 122 -131c0 -98 -88 -149 -171 -172l-13 35c59 28 91 65 91 105c0 39 -29 67 -75 75c-5 1 -15 14 -15 38c0 29 31 50 60 50z" />
    <glyph glyph-name="quotedblbase" unicode="&#x201e;" horiz-adv-x="471" 
d="M315 156h1c53 0 122 -48 122 -132c0 -97 -87 -148 -170 -171l-14 35c60 28 92 65 92 105c0 39 -31 67 -77 75c-4 1 -14 14 -14 38c0 30 31 50 60 50zM98 156h1c54 0 122 -48 122 -131c0 -98 -86 -149 -169 -172l-15 35c60 28 92 65 92 105c0 39 -30 67 -76 75
c-5 1 -15 14 -15 38c0 30 31 50 60 50z" />
    <glyph glyph-name="quotedblright" unicode="&#x201d;" horiz-adv-x="445" 
d="M94 708h1c49 0 115 -46 115 -123c0 -89 -85 -140 -163 -162l-12 35c55 25 86 57 86 95c0 37 -28 64 -70 72c-4 1 -14 12 -14 36c0 27 29 47 57 47zM298 708h1c50 0 115 -46 115 -123c0 -89 -85 -140 -163 -162l-12 35c55 25 86 57 86 95c0 37 -28 64 -70 72
c-4 1 -14 12 -14 36c0 27 29 47 57 47z" />
    <glyph glyph-name="guillemotright" unicode="&#xbb;" horiz-adv-x="456" 
d="M47 396l32 20c51 -67 105 -131 158 -192c-55 -60 -108 -124 -158 -192l-32 18l84 174zM219 396l32 20c49 -67 102 -131 158 -192c-56 -60 -109 -124 -158 -192l-32 18l83 174z" />
    <glyph glyph-name="ellipsis" unicode="&#x2026;" horiz-adv-x="983" 
d="M164 -12h-1c-41 0 -72 31 -72 76c0 44 31 76 73 76c43 0 74 -32 74 -76c0 -45 -31 -76 -74 -76zM496 -12h-1c-41 0 -72 31 -72 76c0 44 31 76 73 76c43 0 74 -32 74 -76c0 -45 -31 -76 -74 -76zM821 -12h-1c-41 0 -72 31 -72 76c0 44 31 76 73 76s74 -32 74 -76
c0 -45 -32 -76 -74 -76z" />
    <glyph glyph-name="perthousand" unicode="&#x2030;" horiz-adv-x="1088" 
d="M594 624l-409 -662l-37 27l408 661zM197 635h1c107 0 154 -96 154 -170c0 -75 -45 -172 -155 -172c-109 0 -156 97 -156 172c0 74 47 170 156 170zM199 599h-1c-47 0 -59 -88 -59 -132c0 -49 12 -138 60 -138c44 0 54 91 54 137c0 47 -7 133 -54 133zM557 330h1
c108 0 153 -97 153 -172c0 -74 -43 -170 -154 -170c-110 0 -156 96 -156 170c0 75 46 172 156 172zM899 330h1c108 0 154 -97 154 -172c0 -74 -44 -170 -155 -170c-109 0 -155 96 -155 170c0 75 46 172 155 172zM557 294h-1c-46 0 -56 -85 -56 -134c0 -47 10 -136 57 -136
s56 91 56 136c0 47 -8 134 -56 134zM899 294h-1c-45 0 -56 -85 -56 -134c0 -52 10 -136 57 -136c48 0 57 91 57 136c0 47 -7 134 -57 134z" />
    <glyph glyph-name="questiondown" unicode="&#xbf;" horiz-adv-x="399" 
d="M207 458h1c42 0 75 -32 75 -78s-33 -79 -76 -79c-44 0 -77 33 -77 79s33 78 77 78zM171 219l22 24c53 -20 127 -70 127 -134c0 -38 -23 -76 -97 -122c-57 -36 -108 -64 -108 -85c0 -23 15 -37 46 -37c67 0 116 68 134 68c22 0 58 -32 58 -69c0 -19 -8 -28 -23 -42
c-32 -29 -86 -42 -111 -42h-1c-87 0 -181 83 -181 176c0 40 9 70 59 106c36 24 103 63 102 97c0 16 -6 34 -27 60z" />
    <glyph glyph-name="grave" unicode="`" 
d="M241 502l-32 -13c-49 60 -101 122 -129 156l4 14c15 10 82 22 102 19c19 -59 37 -116 55 -176z" />
    <glyph glyph-name="acute" unicode="&#xb4;" 
d="M204 489l-31 13c14 44 42 144 49 165c10 7 92 15 109 11l6 -10z" />
    <glyph glyph-name="circumflex" unicode="&#x2c6;" 
d="M326 506l-28 -22c-38 31 -68 63 -99 92c-31 -29 -61 -62 -98 -92l-27 22c41 61 70 110 106 173h37c36 -64 67 -112 109 -173z" />
    <glyph glyph-name="tilde" unicode="&#x2dc;" 
d="M81 512l-29 19c23 71 56 105 93 105c18 0 33 -6 62 -21c24 -12 40 -20 58 -20c22 0 39 22 50 46l28 -14c-25 -89 -62 -106 -87 -106c-23 0 -44 10 -67 22c-24 14 -37 20 -56 20c-18 0 -36 -14 -52 -51z" />
    <glyph glyph-name="macron" unicode="&#xaf;" 
d="M325 541h-250v73h250v-73z" />
    <glyph glyph-name="breve" unicode="&#x2d8;" 
d="M290 660h32c0 -120 -56 -154 -123 -154c-66 0 -121 34 -121 154h32c11 -49 43 -78 90 -78c48 0 79 29 90 78z" />
    <glyph glyph-name="dotaccent" unicode="&#x2d9;" 
d="M199 517c-37 0 -70 32 -70 70c0 40 33 70 71 70c40 0 71 -30 71 -70c0 -38 -31 -70 -72 -70z" />
    <glyph glyph-name="dieresis" unicode="&#xa8;" 
d="M96 519c-35 0 -67 30 -67 66c0 38 32 67 68 67c38 0 68 -29 68 -67c0 -36 -30 -66 -69 -66zM302 519c-36 0 -67 30 -67 66c0 38 31 67 68 67s67 -29 67 -67c0 -36 -30 -66 -68 -66z" />
    <glyph glyph-name="ring" unicode="&#x2da;" 
d="M200 499c-49 0 -96 35 -96 92c0 56 47 90 97 90c47 0 95 -34 95 -90c0 -57 -48 -92 -96 -92zM202 538c26 0 43 21 43 53c0 29 -17 50 -44 50c-26 0 -46 -20 -46 -50c0 -32 20 -53 47 -53z" />
    <glyph glyph-name="cedilla" unicode="&#xb8;" 
d="M253 0l-24 -25c-12 -13 -11 -22 7 -40c27 -27 39 -46 39 -69c0 -44 -46 -79 -124 -101l-13 25c39 17 60 42 60 60c0 13 -10 24 -22 34c-27 25 -32 44 -6 73l37 43h46z" />
    <glyph glyph-name="hungarumlaut" unicode="&#x2dd;" 
d="M128 488l-30 11c12 51 32 150 36 168c11 7 80 15 96 12l5 -11zM281 488l-30 11c13 59 32 152 36 168c10 7 79 15 96 12l5 -11z" />
    <glyph glyph-name="ogonek" unicode="&#x2db;" 
d="M286 -186l-50 -30c-12 -8 -28 -11 -38 -11c-54 0 -84 39 -84 77c0 55 54 119 79 150h38c-16 -27 -40 -80 -40 -118c0 -35 23 -49 47 -49c13 0 27 4 40 10z" />
    <glyph glyph-name="caron" unicode="&#x2c7;" 
d="M299 689l27 -22c-42 -60 -71 -111 -106 -173h-38c-35 63 -67 113 -108 173l27 22c39 -31 68 -62 100 -92c30 29 60 61 98 92z" />
    <glyph glyph-name="emdash" unicode="&#x2014;" horiz-adv-x="921" 
d="M871 196h-821v67h821v-67z" />
    <glyph glyph-name="AE" unicode="&#xc6;" horiz-adv-x="882" 
d="M838 175l34 -9c-7 -37 -28 -134 -37 -166h-501v35c81 7 90 18 90 110v147h-168c-46 -92 -60 -128 -82 -176c-25 -58 -17 -71 56 -81v-35h-244v35c63 8 87 26 124 94c71 130 139 261 226 433c16 32 14 42 -17 46l-60 7v35h553c1 -18 5 -90 10 -147l-35 -5
c-11 41 -22 67 -39 84c-16 17 -46 24 -101 24h-52c-35 0 -40 -2 -40 -35v-232h65c87 0 102 7 113 74h37v-201h-37c-11 74 -26 79 -113 79l-65 1v-153c0 -56 4 -77 25 -87c18 -7 52 -8 90 -8c50 0 88 8 109 32c18 19 40 49 59 99zM424 340v258c-7 0 -14 -1 -22 -4
c-43 -88 -76 -151 -124 -254h146z" />
    <glyph glyph-name="ordfeminine" unicode="&#xaa;" horiz-adv-x="335" 
d="M318 307l-74 -36c-35 0 -50 21 -57 36c-23 -16 -55 -36 -73 -36c-50 0 -86 40 -86 80c0 32 18 52 56 66c26 10 80 25 101 39v16c0 28 -17 46 -39 46s-34 -23 -43 -53c-5 -15 -14 -21 -27 -21c-19 0 -43 15 -43 35c0 12 7 21 23 32c19 12 63 36 113 45c53 0 99 -26 99 -90
v-106c0 -27 10 -35 21 -35c9 0 16 2 23 5zM185 334v92c-10 -5 -27 -13 -38 -19c-19 -10 -28 -20 -28 -39c0 -31 24 -43 38 -43c11 0 19 3 28 9z" />
    <glyph glyph-name="Lslash" unicode="&#x141;" horiz-adv-x="563" 
d="M522 179l38 -10c-7 -37 -28 -140 -37 -169h-487v35c87 7 97 17 97 103v126l-100 -67v52l100 67v196c0 85 -8 96 -85 103v35h307l-2 -35c-77 -7 -86 -18 -86 -103v-112l133 89v-54l-133 -88v-217c0 -47 4 -69 25 -78c16 -7 45 -8 77 -8c43 0 77 7 100 33
c18 21 35 54 53 102z" />
    <glyph glyph-name="Oslash" unicode="&#xd8;" horiz-adv-x="771" 
d="M652 674l-50 -77c73 -59 127 -151 127 -262c0 -211 -152 -350 -350 -350c-61 0 -122 15 -172 45l-57 -82l-31 26l53 77c-79 60 -130 159 -130 272c0 159 115 342 352 342c64 0 124 -15 174 -44l51 76zM237 141l278 405c-36 54 -86 77 -137 77c-102 0 -188 -106 -188 -286
c0 -70 18 -145 47 -196zM538 509l-277 -407c31 -48 83 -75 136 -75c101 0 183 93 183 284c0 80 -17 151 -42 198z" />
    <glyph glyph-name="OE" unicode="&#x152;" horiz-adv-x="992" 
d="M947 179l35 -8c-7 -37 -26 -131 -35 -171h-325c-41 0 -69 -1 -105 -5c-40 -4 -74 -6 -102 -6c-258 0 -374 155 -374 328c0 199 153 344 392 344c39 0 72 -4 104 -6c29 -2 58 -5 89 -5h295c1 -20 6 -88 11 -148l-37 -5c-10 36 -25 67 -42 84c-17 19 -42 25 -105 25h-46
c-35 0 -39 -2 -39 -35v-212h70c83 0 98 5 112 75h36v-202h-36c-15 73 -28 76 -112 76h-70v-162c0 -65 4 -86 24 -94c18 -8 47 -9 88 -9c53 0 89 8 112 33c21 21 40 53 60 103zM531 100v457c0 29 -8 40 -28 48c-21 9 -44 13 -76 13c-138 0 -234 -107 -234 -289
c0 -158 80 -298 235 -298c22 0 48 2 67 10c27 11 36 24 36 59z" />
    <glyph glyph-name="ordmasculine" unicode="&#xba;" horiz-adv-x="369" 
d="M188 556h1c95 0 154 -67 153 -142c-2 -94 -74 -143 -158 -143c-106 0 -160 68 -158 140c2 92 86 145 162 145zM179 522h-1c-23 0 -46 -27 -48 -99c-1 -68 24 -119 59 -119c23 0 48 19 50 94c2 78 -21 124 -60 124z" />
    <glyph glyph-name="ae" unicode="&#xe6;" horiz-adv-x="671" 
d="M271 280v25c0 63 -34 100 -65 100c-16 0 -26 -7 -34 -17c-11 -13 -19 -37 -27 -67c-7 -26 -23 -33 -42 -33c-25 0 -62 22 -62 47c0 17 11 32 36 49c42 28 105 58 164 70c27 0 57 -8 81 -25c15 -10 30 -26 35 -38c38 39 91 63 133 63c95 0 165 -80 165 -162
c0 -24 -5 -33 -27 -38c-16 -3 -144 -11 -245 -15c0 -110 62 -162 138 -162c33 0 72 14 109 42l19 -25c-60 -87 -142 -106 -176 -106c-75 0 -131 33 -163 84l-30 -25c-36 -30 -85 -59 -116 -59c-83 0 -133 66 -133 125c0 52 24 80 75 100c54 20 136 47 165 67zM468 412h-1
c-37 0 -72 -46 -79 -128c43 1 82 1 121 3c16 1 24 5 24 25c0 49 -25 100 -65 100zM225 67h1c21 0 49 12 67 35c-19 45 -23 98 -23 140c-18 -10 -40 -21 -61 -32c-29 -17 -46 -36 -46 -70c0 -50 34 -73 62 -73z" />
    <glyph glyph-name="dotlessi" unicode="&#x131;" horiz-adv-x="295" 
d="M284 0h-254v33c57 6 63 17 63 89v190c0 59 -2 68 -56 76v30c61 7 127 20 183 36v-332c0 -75 3 -81 64 -89v-33z" />
    <glyph glyph-name="lslash" unicode="&#x142;" horiz-adv-x="302" 
d="M299 464l-84 -69v-275c0 -73 6 -79 68 -87v-33h-264v33c63 6 68 14 68 87v177l-71 -58v54l71 59v231c0 41 -5 49 -65 62v28c44 6 123 18 193 36v-259l84 68v-54z" />
    <glyph glyph-name="oslash" unicode="&#xf8;" horiz-adv-x="531" 
d="M443 457l-33 -49c61 -43 91 -108 91 -177c0 -162 -116 -243 -237 -243c-40 0 -81 9 -117 27l-36 -51l-29 23l35 50c-59 43 -87 110 -87 174c0 158 128 243 241 243c42 0 75 -8 109 -26l35 50zM180 127l152 234c-19 36 -46 52 -75 52c-38 0 -95 -44 -95 -177
c0 -35 7 -78 18 -109zM352 323l-154 -236c19 -39 45 -59 76 -59c42 0 95 29 95 182c0 39 -4 77 -17 113z" />
    <glyph glyph-name="oe" unicode="&#x153;" horiz-adv-x="770" 
d="M264 454h1c65 0 121 -29 160 -83c38 42 94 83 159 83c95 0 168 -78 168 -162c0 -21 -8 -32 -27 -36c-15 -4 -144 -13 -249 -17c1 -96 53 -162 141 -162c36 0 73 14 109 42l18 -24c-58 -89 -138 -107 -173 -107c-68 0 -122 28 -159 76c-46 -55 -105 -76 -155 -76
c-149 0 -230 115 -230 225c0 158 127 241 237 241zM563 412h-1c-35 0 -75 -45 -81 -129c45 1 85 2 126 4c16 0 22 3 22 22c0 50 -26 103 -66 103zM255 414h-1c-38 0 -82 -52 -83 -170c-1 -114 38 -214 104 -215c33 0 78 29 79 174c2 141 -39 211 -99 211z" />
    <glyph glyph-name="germandbls" unicode="&#xdf;" horiz-adv-x="572" 
d="M93 442v11c0 36 6 62 18 90c12 29 35 72 94 114c40 28 83 45 129 47c116 -2 176 -72 177 -156c0 -15 -3 -23 -10 -31c-59 -43 -89 -76 -89 -114c1 -39 28 -64 66 -101c34 -32 70 -75 70 -137c0 -88 -103 -177 -196 -177c-24 0 -43 5 -59 15c-16 9 -23 23 -16 41
c3 8 11 20 21 27c8 7 14 7 21 1c25 -22 53 -35 77 -35c17 0 43 15 43 55c0 36 -19 67 -52 102c-52 53 -87 92 -87 141c0 48 30 74 67 112c15 16 29 27 34 35c5 6 6 19 6 33c1 71 -46 140 -108 140c-76 0 -78 -125 -78 -236v-314c0 -59 5 -65 39 -72v-33h-229v33
c57 7 62 15 62 71v287h-62l-5 13l27 38h40z" />
    <glyph glyph-name="onesuperior" unicode="&#xe105;" horiz-adv-x="348" 
d="M289 398h-218v29c49 5 60 14 60 65v154c0 38 -2 46 -35 49l-25 2v29c46 4 103 14 158 30v-264c0 -51 10 -60 60 -65v-29z" />
    <glyph glyph-name="logicalnot" unicode="&#xac;" horiz-adv-x="577" 
d="M531 101h-75v209h-409v65h484v-274z" />
    <glyph glyph-name="mu" unicode="&#xb5;" horiz-adv-x="538" 
d="M527 69l12 -28c-19 -26 -61 -53 -115 -53c-42 0 -78 19 -90 69h-2c-29 -35 -68 -69 -112 -69c-35 0 -62 17 -78 43h-2v-15c0 -73 23 -203 35 -247l-15 -13c-27 3 -71 20 -91 42c-4 22 0 155 0 271v261c0 46 -2 79 -4 101l128 24c3 -29 3 -70 3 -114v-172
c0 -74 38 -101 72 -101c30 0 46 13 63 32v331l127 24v-329c0 -51 20 -65 38 -65c10 0 21 2 31 8z" />
    <glyph glyph-name="trademark" unicode="&#x2122;" horiz-adv-x="482" 
d="M196 586h-18c-4 12 -6 21 -11 25c-4 4 -12 6 -24 6h-11v-92c0 -26 1 -28 27 -30v-18h-98v18c25 2 26 4 26 30v92h-9c-14 0 -22 -3 -25 -7c-4 -3 -9 -12 -12 -24h-18c1 23 4 45 4 57h15c1 -3 3 -5 5 -5c3 -1 5 -1 9 -1h110c7 0 9 1 13 6h16c0 -14 1 -35 1 -57zM458 477
h-90v18c22 2 23 4 23 26v86h-1l-59 -127h-18l-49 123h-2l-3 -57c-2 -20 -2 -29 -2 -37c1 -10 7 -12 26 -14v-18h-76v18c15 1 20 4 22 14c2 8 4 14 6 40l2 39c2 25 1 27 -25 29v20h83l41 -85l42 85h76v-20c-19 -2 -20 -5 -20 -26l1 -66c0 -26 2 -28 23 -30v-18z" />
    <glyph glyph-name="Eth" unicode="&#xd0;" horiz-adv-x="760" 
d="M52 650h300c117 0 214 -25 280 -88c50 -48 86 -119 86 -210c0 -122 -46 -210 -124 -268c-76 -57 -175 -84 -297 -84h-253v34c79 8 88 18 88 103v178h-94v50h94v148c0 86 -9 96 -80 102v35zM266 315v-178c0 -67 9 -92 81 -92c126 0 221 111 221 286c0 104 -27 174 -72 220
c-38 38 -96 56 -157 56c-33 0 -56 -5 -64 -14c-7 -7 -9 -21 -9 -49v-179h141v-50h-141z" />
    <glyph glyph-name="onehalf" unicode="&#xbd;" horiz-adv-x="789" 
d="M285 278h-218v29c49 5 60 14 60 65v154c0 38 -2 46 -35 49l-25 2v29c46 4 103 14 158 30v-264c0 -51 10 -60 60 -65v-29zM598 621l-406 -661l-38 28l404 660zM699 109l26 -8c-12 -34 -19 -67 -27 -101h-258v26c64 49 158 131 158 200c0 42 -21 66 -57 66
c-35 0 -63 -25 -81 -50l-21 20l34 49c23 29 66 47 103 47c69 0 122 -42 122 -110c0 -49 -33 -83 -109 -143l-43 -34v-2h90c35 0 44 5 63 40z" />
    <glyph glyph-name="plusminus" unicode="&#xb1;" horiz-adv-x="577" 
d="M531 304h-204v-193h-75v193h-205v65h205v181h75v-181h204v-65zM531 0h-484v65h484v-65z" />
    <glyph glyph-name="Thorn" unicode="&#xde;" horiz-adv-x="593" 
d="M330 650v-35c-68 -8 -78 -15 -78 -106c28 1 55 1 83 1c140 0 225 -54 225 -174c0 -110 -90 -187 -232 -187l-76 15v-45c0 -66 14 -76 92 -84v-35h-305v35c72 6 82 19 82 92v398c0 74 -9 83 -76 90v35h285zM252 432v-227c11 -4 26 -8 47 -8c30 0 116 23 116 140
c0 99 -60 132 -119 132c-19 0 -30 -4 -36 -10c-6 -4 -8 -13 -8 -27z" />
    <glyph glyph-name="onequarter" unicode="&#xbc;" horiz-adv-x="784" 
d="M294 278h-218v29c49 5 60 14 60 65v154c0 38 -2 46 -35 49l-25 2v29c46 4 103 14 158 30v-264c0 -51 10 -60 60 -65v-29zM618 621l-406 -661l-38 28l404 660zM708 97h-55v-20c0 -33 9 -46 51 -50v-27h-202v27c53 4 60 16 60 50v20h-155v28c64 86 123 162 185 233h61v-216
h55v-45zM562 142v129h-1c-31 -40 -58 -78 -93 -129h94z" />
    <glyph glyph-name="divide" unicode="&#xf7;" horiz-adv-x="577" 
d="M290 349h-1c-28 0 -58 27 -58 60c0 32 30 61 59 61c34 0 61 -29 61 -61c0 -33 -27 -60 -61 -60zM531 221h-484v65h484v-65zM289 159h1c30 0 59 -27 59 -60c0 -32 -29 -61 -60 -61c-34 0 -60 29 -60 61c0 33 26 60 60 60z" />
    <glyph glyph-name="brokenbar" unicode="&#xa6;" horiz-adv-x="270" 
d="M177 325h-84v350h84v-350zM177 -175h-84v350h84v-350z" />
    <glyph glyph-name="degree" unicode="&#xb0;" horiz-adv-x="331" 
d="M165 665h1c73 0 135 -50 135 -131c0 -83 -62 -130 -136 -130c-73 0 -135 47 -135 130c0 81 62 131 135 131zM167 621h-1c-43 0 -74 -36 -74 -86s31 -88 75 -88c42 0 72 38 72 84c0 54 -30 90 -72 90z" />
    <glyph glyph-name="thorn" unicode="&#xfe;" horiz-adv-x="538" 
d="M200 703v-303c30 16 58 31 87 46c11 5 23 8 41 8c121 0 181 -102 181 -195c0 -146 -116 -243 -245 -271c-32 0 -48 6 -64 12v-112c0 -70 8 -81 87 -86v-32h-280v32c57 5 65 10 65 82v679c0 57 -4 68 -64 75v29c50 5 125 17 192 36zM200 363v-289c21 -19 48 -37 74 -37
c50 0 105 56 105 174c0 122 -65 169 -117 169c-27 0 -42 -8 -62 -17z" />
    <glyph glyph-name="threequarters" unicode="&#xbe;" horiz-adv-x="789" 
d="M619 621l-406 -661l-38 28l404 660zM706 97h-55v-20c0 -33 9 -46 51 -50v-27h-202v27c53 4 60 16 60 50v20h-155v28c64 86 123 162 185 233h61v-216h55v-45zM560 142v129h-1c-31 -40 -58 -78 -93 -129h94zM241 486v-2c64 -9 97 -39 97 -82c0 -90 -130 -131 -182 -131
c-31 0 -63 12 -74 21c-8 8 -12 20 -7 33c6 15 16 25 25 31c6 3 15 3 23 -3c22 -19 50 -42 75 -42c21 0 44 18 44 66c0 50 -31 69 -66 69c-16 0 -30 -3 -40 -6l-7 29c55 18 86 42 86 69c0 23 -19 39 -44 39c-30 0 -54 -21 -70 -39l-18 18l34 45c18 18 51 35 90 35h1
c68 0 105 -39 105 -79c0 -16 -9 -32 -19 -41c-10 -7 -29 -19 -53 -30z" />
    <glyph glyph-name="twosuperior" unicode="&#xe107;" horiz-adv-x="348" 
d="M295 507l26 -8c-12 -34 -19 -67 -27 -101h-258v26c64 49 158 131 158 200c0 42 -21 66 -57 66c-35 0 -63 -25 -81 -50l-21 20l34 49c23 29 66 47 103 47c69 0 122 -42 122 -110c0 -49 -33 -83 -109 -143l-43 -34v-2h90c35 0 44 5 63 40z" />
    <glyph glyph-name="registered" unicode="&#xae;" horiz-adv-x="319" 
d="M160 659h1c75 0 133 -61 133 -133c0 -70 -58 -132 -134 -132c-75 0 -132 57 -132 132c0 72 57 133 132 133zM161 635h-1c-60 0 -103 -48 -103 -109c0 -62 45 -108 104 -108s104 46 104 108c0 61 -45 109 -104 109zM237 469l-4 -13c-23 0 -38 5 -50 22
c-9 12 -16 23 -20 30c-3 6 -7 7 -12 7h-4v-22c0 -19 2 -19 19 -20v-16h-70v16c19 1 20 1 20 20v70c0 18 -1 19 -19 20v15h71c23 0 49 -6 49 -37c0 -17 -11 -28 -27 -35c10 -19 18 -30 32 -45c6 -6 11 -10 15 -12zM147 533h9c5 0 13 2 18 6c7 4 11 10 11 20
c0 20 -17 24 -25 24c-10 0 -13 -3 -13 -13v-37z" />
    <glyph glyph-name="minus" unicode="&#x2212;" horiz-adv-x="577" 
d="M531 221h-484v65h484v-65z" />
    <glyph glyph-name="eth" unicode="&#xf0;" horiz-adv-x="522" 
d="M465 656l-123 -63c92 -85 144 -199 144 -324c0 -201 -110 -281 -231 -281c-149 0 -227 112 -225 227c2 154 119 239 240 239h1c13 0 32 -2 48 -9c-9 35 -25 66 -55 106l-145 -73l-19 37l137 67c-52 51 -118 78 -167 86c-7 9 -2 30 9 35c85 -5 165 -37 227 -80l140 71z
M265 415h-1c-51 0 -92 -59 -92 -171c-1 -131 36 -216 96 -216c39 0 80 30 82 202c1 72 -7 128 -23 150c-15 20 -34 35 -62 35z" />
    <glyph glyph-name="multiply" unicode="&#xd7;" horiz-adv-x="577" 
d="M519 60l-49 -50l-182 186l-181 -186l-48 50l180 186l-180 184l48 51l181 -185l182 187l49 -50l-182 -187z" />
    <glyph glyph-name="threesuperior" unicode="&#xe108;" horiz-adv-x="348" 
d="M208 606v-2c64 -9 97 -39 97 -82c0 -90 -130 -131 -182 -131c-31 0 -63 12 -74 21c-8 8 -12 20 -7 33c6 15 16 25 25 31c6 3 15 3 23 -3c22 -19 50 -42 75 -42c21 0 44 18 44 66c0 50 -31 69 -66 69c-16 0 -30 -3 -40 -6l-7 29c55 18 86 42 86 69c0 23 -19 39 -44 39
c-30 0 -54 -21 -70 -39l-18 18l34 45c18 18 51 35 90 35h1c68 0 105 -39 105 -79c0 -16 -9 -32 -19 -41c-10 -7 -29 -19 -53 -30z" />
    <glyph glyph-name="copyright" unicode="&#xa9;" horiz-adv-x="699" 
d="M350 631h1c176 0 307 -138 307 -307c0 -167 -131 -305 -308 -305c-180 0 -309 138 -309 305c0 169 130 307 309 307zM351 592h-1c-149 0 -256 -117 -256 -267c0 -149 107 -267 257 -267c148 0 255 118 255 267c0 150 -107 267 -255 267zM476 261l26 -6
c-8 -28 -17 -68 -25 -86c-24 -8 -72 -20 -110 -20c-129 0 -191 89 -191 172c0 114 94 179 198 179c51 0 89 -11 106 -18c2 -26 5 -54 11 -89l-25 -6c-18 48 -41 81 -94 81c-66 0 -106 -60 -106 -139c0 -87 50 -146 109 -146c50 0 78 29 101 78z" />
    <glyph glyph-name="Aacute" unicode="&#xc1;" horiz-adv-x="706" 
d="M687 0h-286v35c59 9 64 21 48 65c-10 30 -25 72 -40 113h-192c-11 -31 -24 -67 -36 -107c-14 -48 -12 -62 61 -71v-35h-224l1 35c66 8 78 19 111 103l205 514l51 13c64 -175 126 -349 191 -521c34 -88 47 -101 110 -109v-35zM390 266l-74 216h-3
c-28 -73 -53 -145 -79 -216h156zM525 755l-4 -12l-206 -60l-14 28c57 41 117 83 173 122c18 -7 48 -52 51 -78z" />
    <glyph glyph-name="Acircumflex" unicode="&#xc2;" horiz-adv-x="706" 
d="M687 0h-286v35c59 9 64 21 48 65c-10 30 -25 72 -40 113h-192c-11 -31 -24 -67 -36 -107c-14 -48 -12 -62 61 -71v-35h-224l1 35c66 8 78 19 111 103l205 514l51 13c64 -175 126 -349 191 -521c34 -88 47 -101 110 -109v-35zM390 266l-74 216h-3
c-28 -73 -53 -145 -79 -216h156zM512 710l-16 -26c-46 18 -88 41 -131 61c-42 -20 -86 -43 -132 -61l-16 26c45 36 94 84 133 123h30c39 -41 88 -86 132 -123z" />
    <glyph glyph-name="Adieresis" unicode="&#xc4;" horiz-adv-x="706" 
d="M687 0h-286v35c59 9 64 21 48 65c-10 30 -25 72 -40 113h-192c-11 -31 -24 -67 -36 -107c-14 -48 -12 -62 61 -71v-35h-224l1 35c66 8 78 19 111 103l205 514l51 13c64 -175 126 -349 191 -521c34 -88 47 -101 110 -109v-35zM390 266l-74 216h-3
c-28 -73 -53 -145 -79 -216h156zM464 828h1c38 0 67 -29 67 -67c0 -36 -29 -66 -68 -66c-35 0 -67 30 -67 66c0 38 32 67 67 67zM254 828h1c38 0 67 -29 67 -67c0 -36 -29 -66 -68 -66c-36 0 -67 30 -67 66c0 38 31 67 67 67z" />
    <glyph glyph-name="Agrave" unicode="&#xc0;" horiz-adv-x="706" 
d="M687 0h-286v35c59 9 64 21 48 65c-10 30 -25 72 -40 113h-192c-11 -31 -24 -67 -36 -107c-14 -48 -12 -62 61 -71v-35h-224l1 35c66 8 78 19 111 103l205 514l51 13c64 -175 126 -349 191 -521c34 -88 47 -101 110 -109v-35zM390 266l-74 216h-3
c-28 -73 -53 -145 -79 -216h156zM420 713l-14 -29l-208 58l-2 12c4 22 32 71 51 82c58 -40 115 -81 173 -123z" />
    <glyph glyph-name="Aring" unicode="&#xc5;" horiz-adv-x="706" 
d="M687 0h-286v35c59 9 64 21 48 65c-10 30 -25 72 -40 113h-192c-11 -31 -24 -67 -36 -107c-14 -48 -12 -62 61 -71v-35h-224l1 35c66 8 78 19 111 103l205 514l51 13c64 -175 126 -349 191 -521c34 -88 47 -101 110 -109v-35zM390 266l-74 216h-3
c-28 -73 -53 -145 -79 -216h156zM360 863h1c46 0 94 -34 94 -89c0 -57 -48 -92 -95 -92c-48 0 -95 35 -95 92c0 55 47 89 95 89zM361 825h-1c-25 0 -45 -22 -45 -51c0 -31 20 -53 46 -53c27 0 44 22 44 52s-17 52 -44 52z" />
    <glyph glyph-name="Atilde" unicode="&#xc3;" horiz-adv-x="706" 
d="M687 0h-286v35c59 9 64 21 48 65c-10 30 -25 72 -40 113h-192c-11 -31 -24 -67 -36 -107c-14 -48 -12 -62 61 -71v-35h-224l1 35c66 8 78 19 111 103l205 514l51 13c64 -175 126 -349 191 -521c34 -88 47 -101 110 -109v-35zM390 266l-74 216h-3
c-28 -73 -53 -145 -79 -216h156zM309 798h1c19 0 33 -5 63 -18c23 -10 42 -17 61 -17c23 0 38 20 49 42l30 -15c-25 -78 -58 -98 -92 -98c-21 0 -46 11 -70 21c-21 10 -34 15 -53 15s-35 -15 -50 -44l-30 20c26 73 60 94 91 94z" />
    <glyph glyph-name="Ccedilla" unicode="&#xc7;" horiz-adv-x="676" 
d="M624 185l36 -14c-14 -55 -38 -126 -54 -158c-23 -6 -99 -24 -167 -26l-10 -12c-12 -12 -10 -21 7 -41c25 -28 39 -49 39 -71c0 -40 -40 -78 -125 -106l-17 31c39 20 60 44 61 60c0 14 -14 27 -21 36c-25 27 -30 42 -12 65l30 37c-247 10 -348 177 -349 330
c-1 206 156 349 400 349c83 0 148 -20 178 -26c9 -55 16 -103 23 -164l-38 -8c-36 116 -98 153 -185 153c-140 0 -224 -129 -224 -282c0 -184 92 -307 224 -307c88 0 153 53 204 154z" />
    <glyph glyph-name="Eacute" unicode="&#xc9;" horiz-adv-x="581" 
d="M536 173l35 -7c-6 -45 -27 -136 -35 -166h-510v35c85 7 95 13 95 98v384c0 87 -10 92 -81 98v35h471c1 -18 6 -88 10 -150l-36 -5c-10 35 -23 68 -41 86c-17 18 -44 25 -100 25h-48c-37 0 -41 -2 -41 -35v-212h67c84 0 97 5 111 75h36v-202h-36c-14 72 -26 76 -111 76
h-67v-173c0 -47 4 -72 24 -82c18 -8 52 -10 90 -10c51 0 87 7 111 32c19 22 37 54 56 98zM455 755l-4 -12l-206 -60l-14 28c57 41 117 83 173 122c18 -7 48 -52 51 -78z" />
    <glyph glyph-name="Ecircumflex" unicode="&#xca;" horiz-adv-x="581" 
d="M536 173l35 -7c-6 -45 -27 -136 -35 -166h-510v35c85 7 95 13 95 98v384c0 87 -10 92 -81 98v35h471c1 -18 6 -88 10 -150l-36 -5c-10 35 -23 68 -41 86c-17 18 -44 25 -100 25h-48c-37 0 -41 -2 -41 -35v-212h67c84 0 97 5 111 75h36v-202h-36c-14 72 -26 76 -111 76
h-67v-173c0 -47 4 -72 24 -82c18 -8 52 -10 90 -10c51 0 87 7 111 32c19 22 37 54 56 98zM441 710l-16 -26c-46 18 -88 41 -131 61c-42 -20 -86 -43 -132 -61l-16 26c45 36 94 84 133 123h30c39 -41 88 -86 132 -123z" />
    <glyph glyph-name="Edieresis" unicode="&#xcb;" horiz-adv-x="581" 
d="M536 173l35 -7c-6 -45 -27 -136 -35 -166h-510v35c85 7 95 13 95 98v384c0 87 -10 92 -81 98v35h471c1 -18 6 -88 10 -150l-36 -5c-10 35 -23 68 -41 86c-17 18 -44 25 -100 25h-48c-37 0 -41 -2 -41 -35v-212h67c84 0 97 5 111 75h36v-202h-36c-14 72 -26 76 -111 76
h-67v-173c0 -47 4 -72 24 -82c18 -8 52 -10 90 -10c51 0 87 7 111 32c19 22 37 54 56 98zM398 828h1c38 0 67 -29 67 -67c0 -36 -29 -66 -68 -66c-35 0 -67 30 -67 66c0 38 32 67 67 67zM188 828h1c38 0 67 -29 67 -67c0 -36 -29 -66 -68 -66c-36 0 -67 30 -67 66
c0 38 31 67 67 67z" />
    <glyph glyph-name="Egrave" unicode="&#xc8;" horiz-adv-x="581" 
d="M536 173l35 -7c-6 -45 -27 -136 -35 -166h-510v35c85 7 95 13 95 98v384c0 87 -10 92 -81 98v35h471c1 -18 6 -88 10 -150l-36 -5c-10 35 -23 68 -41 86c-17 18 -44 25 -100 25h-48c-37 0 -41 -2 -41 -35v-212h67c84 0 97 5 111 75h36v-202h-36c-14 72 -26 76 -111 76
h-67v-173c0 -47 4 -72 24 -82c18 -8 52 -10 90 -10c51 0 87 7 111 32c19 22 37 54 56 98zM359 713l-14 -29l-208 58l-2 12c4 22 32 71 51 82c58 -40 115 -81 173 -123z" />
    <glyph glyph-name="Iacute" unicode="&#xcd;" horiz-adv-x="378" 
d="M338 0h-300v35c74 7 83 14 83 98v383c0 85 -9 92 -83 99v35h300v-35c-74 -7 -83 -14 -83 -99v-383c0 -84 9 -91 83 -98v-35zM347 755l-4 -12l-206 -60l-14 28c57 41 117 83 173 122c18 -7 48 -52 51 -78z" />
    <glyph glyph-name="Icircumflex" unicode="&#xce;" horiz-adv-x="378" 
d="M338 0h-300v35c74 7 83 14 83 98v383c0 85 -9 92 -83 99v35h300v-35c-74 -7 -83 -14 -83 -99v-383c0 -84 9 -91 83 -98v-35zM336 710l-16 -26c-46 18 -88 41 -131 61c-42 -20 -86 -43 -132 -61l-16 26c45 36 94 84 133 123h30c39 -41 88 -86 132 -123z" />
    <glyph glyph-name="Idieresis" unicode="&#xcf;" horiz-adv-x="378" 
d="M338 0h-300v35c74 7 83 14 83 98v383c0 85 -9 92 -83 99v35h300v-35c-74 -7 -83 -14 -83 -99v-383c0 -84 9 -91 83 -98v-35zM293 828h1c38 0 67 -29 67 -67c0 -36 -29 -66 -68 -66c-35 0 -67 30 -67 66c0 38 32 67 67 67zM83 828h1c38 0 67 -29 67 -67
c0 -36 -29 -66 -68 -66c-36 0 -67 30 -67 66c0 38 31 67 67 67z" />
    <glyph glyph-name="Igrave" unicode="&#xcc;" horiz-adv-x="378" 
d="M338 0h-300v35c74 7 83 14 83 98v383c0 85 -9 92 -83 99v35h300v-35c-74 -7 -83 -14 -83 -99v-383c0 -84 9 -91 83 -98v-35zM258 713l-14 -29l-208 58l-2 12c4 22 32 71 51 82c58 -40 115 -81 173 -123z" />
    <glyph glyph-name="Ntilde" unicode="&#xd1;" horiz-adv-x="740" 
d="M724 650v-35c-54 -3 -75 -16 -80 -62c-3 -31 -9 -78 -9 -166v-397h-48l-416 498h-3v-225c0 -88 5 -132 8 -162c5 -44 22 -63 96 -66v-35h-245v35c56 4 79 20 83 63c4 33 10 77 10 165v209c0 65 -2 84 -21 107c-18 24 -41 32 -83 36v35h185l382 -439h4v176
c0 88 -6 135 -8 164c-5 43 -26 60 -99 64v35h244zM324 798h1c19 0 33 -5 63 -18c23 -10 42 -17 61 -17c23 0 38 20 49 42l30 -15c-25 -78 -58 -98 -92 -98c-21 0 -46 11 -70 21c-21 10 -34 15 -53 15s-35 -15 -50 -44l-30 20c26 73 60 94 91 94z" />
    <glyph glyph-name="Oacute" unicode="&#xd3;" horiz-adv-x="766" 
d="M393 664h1c181 0 330 -134 330 -332c0 -216 -155 -347 -343 -347c-200 0 -339 147 -339 339c0 172 122 340 351 340zM375 623h-1c-100 0 -179 -107 -179 -280c0 -171 76 -316 204 -316c95 0 172 93 172 277c0 199 -81 319 -196 319zM536 763l-4 -12l-206 -60l-14 28
c57 41 117 83 173 122c18 -7 48 -52 51 -78z" />
    <glyph glyph-name="Ocircumflex" unicode="&#xd4;" horiz-adv-x="766" 
d="M393 664h1c181 0 330 -134 330 -332c0 -216 -155 -347 -343 -347c-200 0 -339 147 -339 339c0 172 122 340 351 340zM375 623h-1c-100 0 -179 -107 -179 -280c0 -171 76 -316 204 -316c95 0 172 93 172 277c0 199 -81 319 -196 319zM530 718l-16 -26
c-46 18 -88 41 -131 61c-42 -20 -86 -43 -132 -61l-16 26c45 36 94 84 133 123h30c39 -41 88 -86 132 -123z" />
    <glyph glyph-name="Odieresis" unicode="&#xd6;" horiz-adv-x="766" 
d="M393 664h1c181 0 330 -134 330 -332c0 -216 -155 -347 -343 -347c-200 0 -339 147 -339 339c0 172 122 340 351 340zM375 623h-1c-100 0 -179 -107 -179 -280c0 -171 76 -316 204 -316c95 0 172 93 172 277c0 199 -81 319 -196 319zM487 832h1c38 0 67 -29 67 -67
c0 -36 -29 -66 -68 -66c-35 0 -67 30 -67 66c0 38 32 67 67 67zM277 832h1c38 0 67 -29 67 -67c0 -36 -29 -66 -68 -66c-36 0 -67 30 -67 66c0 38 31 67 67 67z" />
    <glyph glyph-name="Ograve" unicode="&#xd2;" horiz-adv-x="766" 
d="M393 664h1c181 0 330 -134 330 -332c0 -216 -155 -347 -343 -347c-200 0 -339 147 -339 339c0 172 122 340 351 340zM375 623h-1c-100 0 -179 -107 -179 -280c0 -171 76 -316 204 -316c95 0 172 93 172 277c0 199 -81 319 -196 319zM456 721l-14 -29l-208 58l-2 12
c4 22 32 71 51 82c58 -40 115 -81 173 -123z" />
    <glyph glyph-name="Otilde" unicode="&#xd5;" horiz-adv-x="766" 
d="M393 664h1c181 0 330 -134 330 -332c0 -216 -155 -347 -343 -347c-200 0 -339 147 -339 339c0 172 122 340 351 340zM375 623h-1c-100 0 -179 -107 -179 -280c0 -171 76 -316 204 -316c95 0 172 93 172 277c0 199 -81 319 -196 319zM333 806h1c19 0 33 -5 63 -18
c23 -10 42 -17 61 -17c23 0 38 20 49 42l30 -15c-25 -78 -58 -98 -92 -98c-21 0 -46 11 -70 21c-21 10 -34 15 -53 15s-35 -15 -50 -44l-30 20c26 73 60 94 91 94z" />
    <glyph glyph-name="Scaron" unicode="&#x160;" horiz-adv-x="505" 
d="M442 495l-34 -8c-21 63 -58 137 -140 137c-56 0 -97 -42 -97 -99c0 -55 36 -87 124 -131c105 -51 177 -107 177 -206c0 -114 -97 -203 -243 -203c-36 0 -71 5 -101 14c-28 8 -47 16 -61 22c-9 25 -22 109 -29 170l35 11c20 -64 79 -176 175 -176c61 0 100 42 100 105
c0 59 -44 96 -119 136c-103 52 -174 106 -174 202c0 110 87 196 229 196c64 0 121 -20 139 -27c4 -37 11 -81 19 -143zM393 843l15 -26c-44 -34 -93 -83 -132 -123h-30c-39 42 -88 88 -133 123l17 26c46 -19 88 -38 131 -59c43 21 86 40 132 59z" />
    <glyph glyph-name="Uacute" unicode="&#xda;" horiz-adv-x="729" 
d="M724 650v-35c-55 -3 -80 -24 -85 -59c-5 -31 -9 -68 -9 -139v-109c0 -106 -16 -190 -72 -250c-46 -48 -114 -73 -185 -73c-66 0 -129 14 -177 52c-57 44 -83 118 -83 235v235c0 94 -10 101 -84 108v35h301v-35c-73 -7 -83 -14 -83 -108v-217c0 -150 54 -237 162 -237
c119 0 171 90 171 257v107c0 71 -5 109 -10 139c-5 35 -29 55 -97 59v35h251zM544 755l-4 -12l-206 -60l-14 28c57 41 117 83 173 122c18 -7 48 -52 51 -78z" />
    <glyph glyph-name="Ucircumflex" unicode="&#xdb;" horiz-adv-x="729" 
d="M724 650v-35c-55 -3 -80 -24 -85 -59c-5 -31 -9 -68 -9 -139v-109c0 -106 -16 -190 -72 -250c-46 -48 -114 -73 -185 -73c-66 0 -129 14 -177 52c-57 44 -83 118 -83 235v235c0 94 -10 101 -84 108v35h301v-35c-73 -7 -83 -14 -83 -108v-217c0 -150 54 -237 162 -237
c119 0 171 90 171 257v107c0 71 -5 109 -10 139c-5 35 -29 55 -97 59v35h251zM532 710l-16 -26c-46 18 -88 41 -131 61c-42 -20 -86 -43 -132 -61l-16 26c45 36 94 84 133 123h30c39 -41 88 -86 132 -123z" />
    <glyph glyph-name="Udieresis" unicode="&#xdc;" horiz-adv-x="729" 
d="M724 650v-35c-55 -3 -80 -24 -85 -59c-5 -31 -9 -68 -9 -139v-109c0 -106 -16 -190 -72 -250c-46 -48 -114 -73 -185 -73c-66 0 -129 14 -177 52c-57 44 -83 118 -83 235v235c0 94 -10 101 -84 108v35h301v-35c-73 -7 -83 -14 -83 -108v-217c0 -150 54 -237 162 -237
c119 0 171 90 171 257v107c0 71 -5 109 -10 139c-5 35 -29 55 -97 59v35h251zM488 828h1c38 0 67 -29 67 -67c0 -36 -29 -66 -68 -66c-35 0 -67 30 -67 66c0 38 32 67 67 67zM278 828h1c38 0 67 -29 67 -67c0 -36 -29 -66 -68 -66c-36 0 -67 30 -67 66c0 38 31 67 67 67z
" />
    <glyph glyph-name="Ugrave" unicode="&#xd9;" horiz-adv-x="729" 
d="M724 650v-35c-55 -3 -80 -24 -85 -59c-5 -31 -9 -68 -9 -139v-109c0 -106 -16 -190 -72 -250c-46 -48 -114 -73 -185 -73c-66 0 -129 14 -177 52c-57 44 -83 118 -83 235v235c0 94 -10 101 -84 108v35h301v-35c-73 -7 -83 -14 -83 -108v-217c0 -150 54 -237 162 -237
c119 0 171 90 171 257v107c0 71 -5 109 -10 139c-5 35 -29 55 -97 59v35h251zM452 713l-14 -29l-208 58l-2 12c4 22 32 71 51 82c58 -40 115 -81 173 -123z" />
    <glyph glyph-name="Yacute" unicode="&#xdd;" horiz-adv-x="655" 
d="M646 650v-35c-64 -7 -84 -25 -120 -84c-37 -59 -63 -102 -112 -196c-14 -27 -18 -38 -18 -69v-128c0 -90 8 -96 97 -104v-34h-325v34c85 7 94 14 94 104v111c0 25 -4 35 -13 54c-27 55 -64 122 -124 227c-37 66 -54 77 -109 85v35h286v-35c-66 -9 -65 -22 -47 -58
c35 -69 75 -143 114 -217c29 57 80 151 104 212c16 40 15 53 -59 63v35h232zM510 755l-4 -12l-206 -60l-14 28c57 41 117 83 173 122c18 -7 48 -52 51 -78z" />
    <glyph glyph-name="Ydieresis" unicode="&#x178;" horiz-adv-x="655" 
d="M646 650v-35c-64 -7 -84 -25 -120 -84c-37 -59 -63 -102 -112 -196c-14 -27 -18 -38 -18 -69v-128c0 -90 8 -96 97 -104v-34h-325v34c85 7 94 14 94 104v111c0 25 -4 35 -13 54c-27 55 -64 122 -124 227c-37 66 -54 77 -109 85v35h286v-35c-66 -9 -65 -22 -47 -58
c35 -69 75 -143 114 -217c29 57 80 151 104 212c16 40 15 53 -59 63v35h232zM448 828h1c38 0 67 -29 67 -67c0 -36 -29 -66 -68 -66c-35 0 -67 30 -67 66c0 38 32 67 67 67zM238 828h1c38 0 67 -29 67 -67c0 -36 -29 -66 -68 -66c-36 0 -67 30 -67 66c0 38 31 67 67 67z" />
    <glyph glyph-name="Zcaron" unicode="&#x17d;" horiz-adv-x="619" 
d="M573 193l34 -8c-8 -49 -26 -150 -37 -185h-530l-12 17c129 194 258 395 382 588h-126c-102 0 -121 -12 -137 -35c-13 -18 -28 -48 -39 -95l-34 1c3 77 10 147 12 199h26c15 -24 26 -25 57 -25h407l8 -15c-126 -195 -249 -385 -374 -584c33 -4 61 -6 124 -6
c78 0 148 6 177 33c24 23 41 53 62 115zM459 830l15 -26c-44 -34 -93 -83 -132 -123h-30c-39 42 -88 88 -133 123l17 26c46 -19 88 -38 131 -59c43 21 86 40 132 59z" />
    <glyph glyph-name="aacute" unicode="&#xe1;" horiz-adv-x="466" 
d="M217 489l-31 13c14 44 42 144 49 165c10 7 92 15 109 11l6 -10zM465 45l-109 -57c-27 0 -48 9 -61 21c-14 12 -21 25 -26 37c-38 -25 -85 -58 -104 -58c-85 0 -135 66 -135 128c0 52 24 77 76 96c59 22 136 46 159 66v30c0 63 -24 98 -61 98c-13 0 -24 -6 -33 -18
c-12 -14 -21 -38 -29 -69c-7 -26 -21 -34 -42 -34c-26 0 -62 24 -62 50c0 18 12 31 35 48c38 26 109 61 166 71c41 0 71 -9 98 -29c43 -33 52 -76 52 -132v-165c0 -46 16 -59 32 -59c12 0 23 4 34 8zM265 79v160c-18 -9 -35 -20 -55 -31c-31 -16 -47 -34 -47 -68
c0 -56 37 -77 60 -77c14 0 25 4 42 16z" />
    <glyph glyph-name="acircumflex" unicode="&#xe2;" horiz-adv-x="466" 
d="M352 506l-28 -22c-38 31 -68 63 -99 92c-31 -29 -61 -62 -98 -92l-27 22c41 61 70 110 106 173h37c36 -64 67 -112 109 -173zM465 45l-109 -57c-27 0 -48 9 -61 21c-14 12 -21 25 -26 37c-38 -25 -85 -58 -104 -58c-85 0 -135 66 -135 128c0 52 24 77 76 96
c59 22 136 46 159 66v30c0 63 -24 98 -61 98c-13 0 -24 -6 -33 -18c-12 -14 -21 -38 -29 -69c-7 -26 -21 -34 -42 -34c-26 0 -62 24 -62 50c0 18 12 31 35 48c38 26 109 61 166 71c41 0 71 -9 98 -29c43 -33 52 -76 52 -132v-165c0 -46 16 -59 32 -59c12 0 23 4 34 8z
M265 79v160c-18 -9 -35 -20 -55 -31c-31 -16 -47 -34 -47 -68c0 -56 37 -77 60 -77c14 0 25 4 42 16z" />
    <glyph glyph-name="adieresis" unicode="&#xe4;" horiz-adv-x="466" 
d="M121 519c-35 0 -67 30 -67 66c0 38 32 67 68 67c38 0 68 -29 68 -67c0 -36 -30 -66 -69 -66zM327 519c-36 0 -67 30 -67 66c0 38 31 67 68 67s67 -29 67 -67c0 -36 -30 -66 -68 -66zM465 45l-109 -57c-27 0 -48 9 -61 21c-14 12 -21 25 -26 37c-38 -25 -85 -58 -104 -58
c-85 0 -135 66 -135 128c0 52 24 77 76 96c59 22 136 46 159 66v30c0 63 -24 98 -61 98c-13 0 -24 -6 -33 -18c-12 -14 -21 -38 -29 -69c-7 -26 -21 -34 -42 -34c-26 0 -62 24 -62 50c0 18 12 31 35 48c38 26 109 61 166 71c41 0 71 -9 98 -29c43 -33 52 -76 52 -132v-165
c0 -46 16 -59 32 -59c12 0 23 4 34 8zM265 79v160c-18 -9 -35 -20 -55 -31c-31 -16 -47 -34 -47 -68c0 -56 37 -77 60 -77c14 0 25 4 42 16z" />
    <glyph glyph-name="agrave" unicode="&#xe0;" horiz-adv-x="466" 
d="M271 502l-32 -13c-49 60 -101 122 -129 156l4 14c15 10 82 22 102 19c19 -59 37 -116 55 -176zM465 45l-109 -57c-27 0 -48 9 -61 21c-14 12 -21 25 -26 37c-38 -25 -85 -58 -104 -58c-85 0 -135 66 -135 128c0 52 24 77 76 96c59 22 136 46 159 66v30
c0 63 -24 98 -61 98c-13 0 -24 -6 -33 -18c-12 -14 -21 -38 -29 -69c-7 -26 -21 -34 -42 -34c-26 0 -62 24 -62 50c0 18 12 31 35 48c38 26 109 61 166 71c41 0 71 -9 98 -29c43 -33 52 -76 52 -132v-165c0 -46 16 -59 32 -59c12 0 23 4 34 8zM265 79v160
c-18 -9 -35 -20 -55 -31c-31 -16 -47 -34 -47 -68c0 -56 37 -77 60 -77c14 0 25 4 42 16z" />
    <glyph glyph-name="aring" unicode="&#xe5;" horiz-adv-x="466" 
d="M226 499c-49 0 -96 35 -96 92c0 56 47 90 97 90c47 0 95 -34 95 -90c0 -57 -48 -92 -96 -92zM228 538c26 0 43 21 43 53c0 29 -17 50 -44 50c-26 0 -46 -20 -46 -50c0 -32 20 -53 47 -53zM465 45l-109 -57c-27 0 -48 9 -61 21c-14 12 -21 25 -26 37
c-38 -25 -85 -58 -104 -58c-85 0 -135 66 -135 128c0 52 24 77 76 96c59 22 136 46 159 66v30c0 63 -24 98 -61 98c-13 0 -24 -6 -33 -18c-12 -14 -21 -38 -29 -69c-7 -26 -21 -34 -42 -34c-26 0 -62 24 -62 50c0 18 12 31 35 48c38 26 109 61 166 71c41 0 71 -9 98 -29
c43 -33 52 -76 52 -132v-165c0 -46 16 -59 32 -59c12 0 23 4 34 8zM265 79v160c-18 -9 -35 -20 -55 -31c-31 -16 -47 -34 -47 -68c0 -56 37 -77 60 -77c14 0 25 4 42 16z" />
    <glyph glyph-name="atilde" unicode="&#xe3;" horiz-adv-x="466" 
d="M110 512l-29 19c23 71 56 105 93 105c18 0 33 -6 62 -21c24 -12 40 -20 58 -20c22 0 39 22 50 46l28 -14c-25 -89 -62 -106 -87 -106c-23 0 -44 10 -67 22c-24 14 -37 20 -56 20c-18 0 -36 -14 -52 -51zM465 45l-109 -57c-27 0 -48 9 -61 21c-14 12 -21 25 -26 37
c-38 -25 -85 -58 -104 -58c-85 0 -135 66 -135 128c0 52 24 77 76 96c59 22 136 46 159 66v30c0 63 -24 98 -61 98c-13 0 -24 -6 -33 -18c-12 -14 -21 -38 -29 -69c-7 -26 -21 -34 -42 -34c-26 0 -62 24 -62 50c0 18 12 31 35 48c38 26 109 61 166 71c41 0 71 -9 98 -29
c43 -33 52 -76 52 -132v-165c0 -46 16 -59 32 -59c12 0 23 4 34 8zM265 79v160c-18 -9 -35 -20 -55 -31c-31 -16 -47 -34 -47 -68c0 -56 37 -77 60 -77c14 0 25 4 42 16z" />
    <glyph glyph-name="ccedilla" unicode="&#xe7;" horiz-adv-x="422" 
d="M401 122l18 -25c-39 -54 -90 -92 -148 -104l-14 -19c-11 -11 -5 -20 14 -40c23 -28 35 -49 35 -71c0 -42 -44 -79 -123 -104l-14 29c37 19 61 41 61 60c0 14 -12 27 -20 36c-25 27 -30 42 -11 65l32 39c-124 9 -201 98 -201 213c0 73 39 144 102 191c66 49 128 62 168 62
c29 0 70 -10 90 -25c13 -10 16 -21 15 -31c0 -32 -28 -60 -43 -60c-6 0 -13 4 -22 11c-40 37 -73 51 -102 51c-38 0 -82 -38 -82 -146c0 -133 93 -176 137 -176c40 0 68 12 108 44z" />
    <glyph glyph-name="eacute" unicode="&#xe9;" horiz-adv-x="437" 
d="M233 489l-31 13c14 44 42 144 49 165c10 7 92 15 109 11l6 -10zM399 123l18 -24c-61 -91 -139 -111 -180 -111c-133 0 -207 99 -207 214c0 76 32 140 74 181c44 44 99 71 153 71h1c92 0 163 -79 162 -161c0 -20 -6 -33 -29 -36c-18 -2 -140 -12 -238 -16
c5 -107 64 -161 135 -161c39 0 76 13 111 43zM237 414h-1c-37 0 -72 -46 -78 -126c41 1 78 2 119 3c15 1 20 3 21 20c0 51 -22 103 -61 103z" />
    <glyph glyph-name="ecircumflex" unicode="&#xea;" horiz-adv-x="437" 
d="M360 506l-28 -22c-38 31 -68 63 -99 92c-31 -29 -61 -62 -98 -92l-27 22c41 61 70 110 106 173h37c36 -64 67 -112 109 -173zM399 123l18 -24c-61 -91 -139 -111 -180 -111c-133 0 -207 99 -207 214c0 76 32 140 74 181c44 44 99 71 153 71h1c92 0 163 -79 162 -161
c0 -20 -6 -33 -29 -36c-18 -2 -140 -12 -238 -16c5 -107 64 -161 135 -161c39 0 76 13 111 43zM237 414h-1c-37 0 -72 -46 -78 -126c41 1 78 2 119 3c15 1 20 3 21 20c0 51 -22 103 -61 103z" />
    <glyph glyph-name="edieresis" unicode="&#xeb;" horiz-adv-x="437" 
d="M127 519c-35 0 -67 30 -67 66c0 38 32 67 68 67c38 0 68 -29 68 -67c0 -36 -30 -66 -69 -66zM333 519c-36 0 -67 30 -67 66c0 38 31 67 68 67s67 -29 67 -67c0 -36 -30 -66 -68 -66zM399 123l18 -24c-61 -91 -139 -111 -180 -111c-133 0 -207 99 -207 214
c0 76 32 140 74 181c44 44 99 71 153 71h1c92 0 163 -79 162 -161c0 -20 -6 -33 -29 -36c-18 -2 -140 -12 -238 -16c5 -107 64 -161 135 -161c39 0 76 13 111 43zM237 414h-1c-37 0 -72 -46 -78 -126c41 1 78 2 119 3c15 1 20 3 21 20c0 51 -22 103 -61 103z" />
    <glyph glyph-name="egrave" unicode="&#xe8;" horiz-adv-x="437" 
d="M274 502l-32 -13c-49 60 -101 122 -129 156l4 14c15 10 82 22 102 19c19 -59 37 -116 55 -176zM399 123l18 -24c-61 -91 -139 -111 -180 -111c-133 0 -207 99 -207 214c0 76 32 140 74 181c44 44 99 71 153 71h1c92 0 163 -79 162 -161c0 -20 -6 -33 -29 -36
c-18 -2 -140 -12 -238 -16c5 -107 64 -161 135 -161c39 0 76 13 111 43zM237 414h-1c-37 0 -72 -46 -78 -126c41 1 78 2 119 3c15 1 20 3 21 20c0 51 -22 103 -61 103z" />
    <glyph glyph-name="iacute" unicode="&#xed;" horiz-adv-x="295" 
d="M147 489l-31 13c14 44 42 144 49 165c10 7 92 15 109 11l6 -10zM284 0h-254v33c57 6 63 17 63 89v190c0 59 -2 68 -56 76v30c61 7 127 20 183 36v-332c0 -75 3 -81 64 -89v-33z" />
    <glyph glyph-name="icircumflex" unicode="&#xee;" horiz-adv-x="295" 
d="M273 506l-28 -22c-38 31 -68 63 -99 92c-31 -29 -61 -62 -98 -92l-27 22c41 61 70 110 106 173h37c36 -64 67 -112 109 -173zM284 0h-254v33c57 6 63 17 63 89v190c0 59 -2 68 -56 76v30c61 7 127 20 183 36v-332c0 -75 3 -81 64 -89v-33z" />
    <glyph glyph-name="idieresis" unicode="&#xef;" horiz-adv-x="295" 
d="M41 519c-35 0 -67 30 -67 66c0 38 32 67 68 67c38 0 68 -29 68 -67c0 -36 -30 -66 -69 -66zM247 519c-36 0 -67 30 -67 66c0 38 31 67 68 67s67 -29 67 -67c0 -36 -30 -66 -68 -66zM284 0h-254v33c57 6 63 17 63 89v190c0 59 -2 68 -56 76v30c61 7 127 20 183 36v-332
c0 -75 3 -81 64 -89v-33z" />
    <glyph glyph-name="igrave" unicode="&#xec;" horiz-adv-x="295" 
d="M185 502l-32 -13c-49 60 -101 122 -129 156l4 14c15 10 82 22 102 19c19 -59 37 -116 55 -176zM284 0h-254v33c57 6 63 17 63 89v190c0 59 -2 68 -56 76v30c61 7 127 20 183 36v-332c0 -75 3 -81 64 -89v-33z" />
    <glyph glyph-name="ntilde" unicode="&#xf1;" horiz-adv-x="566" 
d="M167 512l-29 19c23 71 56 105 93 105c18 0 33 -6 62 -21c24 -12 40 -20 58 -20c22 0 39 22 50 46l28 -14c-25 -89 -62 -106 -87 -106c-23 0 -44 10 -67 22c-24 14 -37 20 -56 20c-18 0 -36 -14 -52 -51zM549 0h-233v32c42 7 47 10 47 81v170c0 72 -33 94 -69 94
c-25 0 -48 -11 -74 -31v-242c0 -62 6 -65 47 -72v-32h-241v32c62 9 67 10 67 77v207c0 60 -5 64 -54 73v29c57 7 122 21 181 38v-74c20 14 40 30 62 44c30 19 49 28 78 28c81 0 131 -60 131 -160v-189c0 -63 6 -65 58 -73v-32z" />
    <glyph glyph-name="oacute" unicode="&#xf3;" horiz-adv-x="525" 
d="M260 489l-31 13c14 44 42 144 49 165c10 7 92 15 109 11l6 -10zM268 454h1c139 0 227 -105 227 -225c0 -161 -115 -241 -232 -241c-157 0 -234 114 -234 223c0 161 127 243 238 243zM255 415h-1c-41 0 -81 -53 -81 -168c0 -123 39 -220 102 -220c38 0 78 25 78 172
c0 139 -35 216 -98 216z" />
    <glyph glyph-name="ocircumflex" unicode="&#xf4;" horiz-adv-x="525" 
d="M389 506l-28 -22c-38 31 -68 63 -99 92c-31 -29 -61 -62 -98 -92l-27 22c41 61 70 110 106 173h37c36 -64 67 -112 109 -173zM268 454h1c139 0 227 -105 227 -225c0 -161 -115 -241 -232 -241c-157 0 -234 114 -234 223c0 161 127 243 238 243zM255 415h-1
c-41 0 -81 -53 -81 -168c0 -123 39 -220 102 -220c38 0 78 25 78 172c0 139 -35 216 -98 216z" />
    <glyph glyph-name="odieresis" unicode="&#xf6;" horiz-adv-x="525" 
d="M159 519c-35 0 -67 30 -67 66c0 38 32 67 68 67c38 0 68 -29 68 -67c0 -36 -30 -66 -69 -66zM365 519c-36 0 -67 30 -67 66c0 38 31 67 68 67s67 -29 67 -67c0 -36 -30 -66 -68 -66zM268 454h1c139 0 227 -105 227 -225c0 -161 -115 -241 -232 -241
c-157 0 -234 114 -234 223c0 161 127 243 238 243zM255 415h-1c-41 0 -81 -53 -81 -168c0 -123 39 -220 102 -220c38 0 78 25 78 172c0 139 -35 216 -98 216z" />
    <glyph glyph-name="ograve" unicode="&#xf2;" horiz-adv-x="525" 
d="M299 502l-32 -13c-49 60 -101 122 -129 156l4 14c15 10 82 22 102 19c19 -59 37 -116 55 -176zM268 454h1c139 0 227 -105 227 -225c0 -161 -115 -241 -232 -241c-157 0 -234 114 -234 223c0 161 127 243 238 243zM255 415h-1c-41 0 -81 -53 -81 -168
c0 -123 39 -220 102 -220c38 0 78 25 78 172c0 139 -35 216 -98 216z" />
    <glyph glyph-name="otilde" unicode="&#xf5;" horiz-adv-x="525" 
d="M144 512l-29 19c23 71 56 105 93 105c18 0 33 -6 62 -21c24 -12 40 -20 58 -20c22 0 39 22 50 46l28 -14c-25 -89 -62 -106 -87 -106c-23 0 -44 10 -67 22c-24 14 -37 20 -56 20c-18 0 -36 -14 -52 -51zM268 454h1c139 0 227 -105 227 -225c0 -161 -115 -241 -232 -241
c-157 0 -234 114 -234 223c0 161 127 243 238 243zM255 415h-1c-41 0 -81 -53 -81 -168c0 -123 39 -220 102 -220c38 0 78 25 78 172c0 139 -35 216 -98 216z" />
    <glyph glyph-name="scaron" unicode="&#x161;" horiz-adv-x="383" 
d="M300 689l27 -22c-42 -60 -71 -111 -106 -173h-38c-35 63 -67 113 -108 173l27 22c39 -31 68 -62 100 -92c30 29 60 61 98 92zM338 322l-30 -9c-27 61 -59 102 -106 102c-26 0 -51 -22 -51 -54c0 -31 23 -54 74 -77c81 -35 135 -70 135 -148c0 -99 -95 -148 -179 -148
c-53 0 -106 19 -126 34c-6 16 -15 86 -16 134l30 3c22 -63 68 -132 129 -132c33 0 55 24 55 54c0 29 -14 54 -76 83c-46 23 -127 62 -127 148c0 78 63 142 168 142c46 1 73 -8 96 -18c10 -23 22 -94 24 -114z" />
    <glyph glyph-name="uacute" unicode="&#xfa;" horiz-adv-x="555" 
d="M270 489l-31 13c14 44 42 144 49 165c10 7 92 15 109 11l6 -10zM542 56v-32c-29 -4 -57 -9 -90 -16c-31 -6 -63 -13 -93 -20l-8 7v60c-18 -14 -28 -24 -50 -37c-29 -19 -56 -30 -87 -30c-84 0 -131 54 -131 142v207c0 46 -6 51 -32 58l-23 7v29c25 1 56 4 89 7
c34 3 69 7 96 11c-2 -42 -3 -93 -3 -151v-145c0 -65 34 -88 69 -88c27 0 49 6 72 28v243c0 46 -6 53 -32 59l-32 7v29c29 1 65 4 100 7s68 7 91 11v-325c0 -53 6 -62 42 -66z" />
    <glyph glyph-name="ucircumflex" unicode="&#xfb;" horiz-adv-x="555" 
d="M400 506l-28 -22c-38 31 -68 63 -99 92c-31 -29 -61 -62 -98 -92l-27 22c41 61 70 110 106 173h37c36 -64 67 -112 109 -173zM542 56v-32c-29 -4 -57 -9 -90 -16c-31 -6 -63 -13 -93 -20l-8 7v60c-18 -14 -28 -24 -50 -37c-29 -19 -56 -30 -87 -30
c-84 0 -131 54 -131 142v207c0 46 -6 51 -32 58l-23 7v29c25 1 56 4 89 7c34 3 69 7 96 11c-2 -42 -3 -93 -3 -151v-145c0 -65 34 -88 69 -88c27 0 49 6 72 28v243c0 46 -6 53 -32 59l-32 7v29c29 1 65 4 100 7s68 7 91 11v-325c0 -53 6 -62 42 -66z" />
    <glyph glyph-name="udieresis" unicode="&#xfc;" horiz-adv-x="555" 
d="M165 519c-35 0 -67 30 -67 66c0 38 32 67 68 67c38 0 68 -29 68 -67c0 -36 -30 -66 -69 -66zM371 519c-36 0 -67 30 -67 66c0 38 31 67 68 67s67 -29 67 -67c0 -36 -30 -66 -68 -66zM542 56v-32c-29 -4 -57 -9 -90 -16c-31 -6 -63 -13 -93 -20l-8 7v60
c-18 -14 -28 -24 -50 -37c-29 -19 -56 -30 -87 -30c-84 0 -131 54 -131 142v207c0 46 -6 51 -32 58l-23 7v29c25 1 56 4 89 7c34 3 69 7 96 11c-2 -42 -3 -93 -3 -151v-145c0 -65 34 -88 69 -88c27 0 49 6 72 28v243c0 46 -6 53 -32 59l-32 7v29c29 1 65 4 100 7s68 7 91 11
v-325c0 -53 6 -62 42 -66z" />
    <glyph glyph-name="ugrave" unicode="&#xf9;" horiz-adv-x="555" 
d="M314 502l-32 -13c-49 60 -101 122 -129 156l4 14c15 10 82 22 102 19c19 -59 37 -116 55 -176zM542 56v-32c-29 -4 -57 -9 -90 -16c-31 -6 -63 -13 -93 -20l-8 7v60c-18 -14 -28 -24 -50 -37c-29 -19 -56 -30 -87 -30c-84 0 -131 54 -131 142v207c0 46 -6 51 -32 58
l-23 7v29c25 1 56 4 89 7c34 3 69 7 96 11c-2 -42 -3 -93 -3 -151v-145c0 -65 34 -88 69 -88c27 0 49 6 72 28v243c0 46 -6 53 -32 59l-32 7v29c29 1 65 4 100 7s68 7 91 11v-325c0 -53 6 -62 42 -66z" />
    <glyph glyph-name="yacute" unicode="&#xfd;" horiz-adv-x="465" 
d="M250 489l-31 13c14 44 42 144 49 165c10 7 92 15 109 11l6 -10zM483 442v-32c-48 -8 -58 -18 -83 -72c-25 -53 -58 -136 -116 -275c-67 -162 -87 -225 -105 -281c-7 -22 -20 -27 -37 -27c-28 0 -70 27 -70 63c0 17 7 26 27 39c39 21 63 40 81 72c11 18 16 30 20 41
c5 16 2 31 -4 47c-52 145 -107 287 -126 331c-18 43 -30 55 -77 62v32h248v-32c-43 -8 -51 -14 -40 -46l75 -222c23 56 57 156 75 213c11 33 1 46 -48 55v32h180z" />
    <glyph glyph-name="ydieresis" unicode="&#xff;" horiz-adv-x="465" 
d="M140 519c-35 0 -67 30 -67 66c0 38 32 67 68 67c38 0 68 -29 68 -67c0 -36 -30 -66 -69 -66zM346 519c-36 0 -67 30 -67 66c0 38 31 67 68 67s67 -29 67 -67c0 -36 -30 -66 -68 -66zM483 442v-32c-48 -8 -58 -18 -83 -72c-25 -53 -58 -136 -116 -275
c-67 -162 -87 -225 -105 -281c-7 -22 -20 -27 -37 -27c-28 0 -70 27 -70 63c0 17 7 26 27 39c39 21 63 40 81 72c11 18 16 30 20 41c5 16 2 31 -4 47c-52 145 -107 287 -126 331c-18 43 -30 55 -77 62v32h248v-32c-43 -8 -51 -14 -40 -46l75 -222c23 56 57 156 75 213
c11 33 1 46 -48 55v32h180z" />
    <glyph glyph-name="zcaron" unicode="&#x17e;" horiz-adv-x="445" 
d="M326 689l27 -22c-42 -60 -71 -111 -106 -173h-38c-35 63 -67 113 -108 173l27 22c39 -31 68 -62 100 -92c30 29 60 61 98 92zM410 152l29 -14c-19 -56 -35 -107 -47 -138h-355l-13 16c82 131 149 249 226 383h-53c-67 0 -91 -15 -120 -71l-17 -33l-31 13
c15 49 31 111 41 156h22c8 -16 22 -22 61 -22h245l9 -14c-77 -131 -143 -249 -220 -384h64c70 0 104 13 142 80z" />
    <glyph glyph-name="twodotenleader" unicode="&#x2025;" horiz-adv-x="517" 
d="M125 -12h-1c-43 0 -77 33 -77 81c0 46 34 79 78 79c45 0 79 -33 79 -79c0 -48 -34 -81 -79 -81zM391 -12h-1c-44 0 -77 33 -77 81c0 46 33 79 78 79s79 -33 79 -79c0 -48 -34 -81 -79 -81z" />
    <glyph glyph-name="onedotenleader" unicode="&#x2024;" horiz-adv-x="500" 
d="M250 -12h-1c-43 0 -77 33 -77 81c0 46 34 79 78 79c45 0 79 -33 79 -79c0 -48 -34 -81 -79 -81z" />
    <glyph glyph-name="colonmonetary" unicode="&#x20a1;" horiz-adv-x="500" 
d="M479 474l-32 -5c-10 38 -20 73 -45 91l-72 -520c60 5 85 40 122 122l31 -10c-9 -48 -28 -104 -39 -128c-18 -7 -73 -22 -120 -23l-10 -69h-33l10 70c-21 2 -31 3 -47 9l-12 -79h-35l13 87c-117 40 -176 145 -176 286c0 191 115 306 259 317l10 62h35l-8 -60h5
c13 0 22 -1 42 -3l8 63h35l-10 -71c17 -4 36 -9 53 -13c7 -41 13 -82 16 -126zM296 41l75 536c-17 8 -29 10 -46 9l-74 -525c16 -11 29 -16 45 -20zM219 85l70 498c-63 -18 -119 -119 -119 -276c0 -104 21 -190 49 -222z" />
    <glyph glyph-name="figuredash" unicode="&#x2012;" horiz-adv-x="459" 
d="M423 285h-386v66h386v-66z" />
    <glyph glyph-name="oneeighth" unicode="&#x215b;" horiz-adv-x="789" 
d="M288 278h-218v29c49 5 60 14 60 65v154c0 38 -2 46 -35 49l-25 2v29c46 4 103 14 158 30v-264c0 -51 10 -60 60 -65v-29zM599 621l-406 -661l-38 28l404 660zM586 358h1c70 0 116 -37 116 -85c0 -13 -5 -31 -17 -43c-9 -8 -21 -17 -46 -31c38 -16 81 -44 81 -97
c0 -73 -77 -109 -144 -109c-71 0 -135 34 -135 97c0 23 12 39 28 52c13 12 33 22 47 29c-33 19 -63 44 -63 86c0 55 52 101 132 101zM578 326h-1c-28 0 -42 -21 -42 -41c0 -30 31 -51 78 -71c8 7 20 28 20 49c0 45 -34 63 -55 63zM585 25h1c33 0 52 26 52 49
c-1 38 -35 57 -92 82c-12 -10 -27 -32 -27 -61c0 -44 33 -70 66 -70z" />
    <glyph glyph-name="threeeighths" unicode="&#x215c;" horiz-adv-x="789" 
d="M230 486v-2c64 -9 97 -39 97 -82c0 -90 -130 -131 -182 -131c-31 0 -63 12 -74 21c-8 8 -12 20 -7 33c6 15 16 25 25 31c6 3 15 3 23 -3c22 -19 50 -42 75 -42c21 0 44 18 44 66c0 50 -31 69 -66 69c-16 0 -30 -3 -40 -6l-7 29c55 18 86 42 86 69c0 23 -19 39 -44 39
c-30 0 -54 -21 -70 -39l-18 18l34 45c18 18 51 35 90 35h1c68 0 105 -39 105 -79c0 -16 -9 -32 -19 -41c-10 -7 -29 -19 -53 -30zM598 621l-406 -661l-38 28l404 660zM586 358h1c70 0 116 -37 116 -85c0 -13 -5 -31 -17 -43c-9 -8 -21 -17 -46 -31c38 -16 81 -44 81 -97
c0 -73 -77 -109 -144 -109c-71 0 -135 34 -135 97c0 23 12 39 28 52c13 12 33 22 47 29c-33 19 -63 44 -63 86c0 55 52 101 132 101zM578 326h-1c-28 0 -42 -21 -42 -41c0 -30 31 -51 78 -71c8 7 20 28 20 49c0 45 -34 63 -55 63zM585 25h1c33 0 52 26 52 49
c-1 38 -35 57 -92 82c-12 -10 -27 -32 -27 -61c0 -44 33 -70 66 -70z" />
    <glyph glyph-name="fiveeighths" unicode="&#x215d;" horiz-adv-x="789" 
d="M140 559l-15 -72c23 8 59 16 79 16c82 0 122 -44 122 -96c0 -35 -19 -68 -61 -95c-36 -23 -83 -41 -127 -41c-22 -1 -52 11 -63 20c-11 8 -14 19 -10 31s13 25 22 30c9 7 18 7 28 -2c12 -11 42 -38 70 -38c30 0 45 27 45 59c0 51 -36 78 -86 78c-24 0 -46 -6 -64 -11
l27 191h204l-16 -70h-155zM599 621l-406 -661l-38 28l404 660zM586 358h1c70 0 116 -37 116 -85c0 -13 -5 -31 -17 -43c-9 -8 -21 -17 -46 -31c38 -16 81 -44 81 -97c0 -73 -77 -109 -144 -109c-71 0 -135 34 -135 97c0 23 12 39 28 52c13 12 33 22 47 29
c-33 19 -63 44 -63 86c0 55 52 101 132 101zM578 326h-1c-28 0 -42 -21 -42 -41c0 -30 31 -51 78 -71c8 7 20 28 20 49c0 45 -34 63 -55 63zM585 25h1c33 0 52 26 52 49c-1 38 -35 57 -92 82c-12 -10 -27 -32 -27 -61c0 -44 33 -70 66 -70z" />
    <glyph glyph-name="seveneighths" unicode="&#x215e;" horiz-adv-x="789" 
d="M352 629l5 -11c-58 -112 -118 -227 -175 -340l-65 -7l-6 11c63 93 123 186 175 278h-115c-42 0 -47 -3 -63 -37h-27c8 54 12 82 15 106h256zM570 621l-406 -661l-38 28l404 660zM568 358h1c70 0 116 -37 116 -85c0 -13 -5 -31 -17 -43c-9 -8 -21 -17 -46 -31
c38 -16 81 -44 81 -97c0 -73 -77 -109 -144 -109c-71 0 -135 34 -135 97c0 23 12 39 28 52c13 12 33 22 47 29c-33 19 -63 44 -63 86c0 55 52 101 132 101zM560 326h-1c-28 0 -42 -21 -42 -41c0 -30 31 -51 78 -71c8 7 20 28 20 49c0 45 -34 63 -55 63zM567 25h1
c33 0 52 26 52 49c-1 38 -35 57 -92 82c-12 -10 -27 -32 -27 -61c0 -44 33 -70 66 -70z" />
    <glyph glyph-name="onethird" unicode="&#x2153;" horiz-adv-x="789" 
d="M288 278h-218v29c49 5 60 14 60 65v154c0 38 -2 46 -35 49l-25 2v29c46 4 103 14 158 30v-264c0 -51 10 -60 60 -65v-29zM603 621l-406 -661l-38 28l404 660zM620 208v-2c64 -9 97 -39 97 -82c0 -90 -130 -131 -182 -131c-31 0 -63 12 -74 21c-8 8 -12 20 -7 33
c6 15 16 25 25 31c6 3 15 3 23 -3c22 -19 50 -42 75 -42c21 0 44 18 44 66c0 50 -31 69 -66 69c-16 0 -30 -3 -40 -6l-7 29c55 18 86 42 86 69c0 23 -19 39 -44 39c-30 0 -54 -21 -70 -39l-18 18l34 45c18 18 51 35 90 35h1c68 0 105 -39 105 -79c0 -16 -9 -32 -19 -41
c-10 -7 -29 -19 -53 -30z" />
    <glyph glyph-name="twothirds" unicode="&#x2154;" horiz-adv-x="789" 
d="M315 387l26 -8c-12 -34 -19 -67 -27 -101h-258v26c64 49 158 131 158 200c0 42 -21 66 -57 66c-35 0 -63 -25 -81 -50l-21 20l34 49c23 29 66 47 103 47c69 0 122 -42 122 -110c0 -49 -33 -83 -109 -143l-43 -34v-2h90c35 0 44 5 63 40zM626 621l-406 -661l-38 28
l404 660zM634 208v-2c64 -9 97 -39 97 -82c0 -90 -130 -131 -182 -131c-31 0 -63 12 -74 21c-8 8 -12 20 -7 33c6 15 16 25 25 31c6 3 15 3 23 -3c22 -19 50 -42 75 -42c21 0 44 18 44 66c0 50 -31 69 -66 69c-16 0 -30 -3 -40 -6l-7 29c55 18 86 42 86 69
c0 23 -19 39 -44 39c-30 0 -54 -21 -70 -39l-18 18l34 45c18 18 51 35 90 35h1c68 0 105 -39 105 -79c0 -16 -9 -32 -19 -41c-10 -7 -29 -19 -53 -30z" />
    <glyph glyph-name="uni2014.alt" unicode="&#xe0fb;" horiz-adv-x="766" 
d="M715 196h-664v67h664v-67z" />
    <glyph glyph-name="R_p" unicode="&#xf6dd;" horiz-adv-x="986" 
d="M686 379l75 48c9 5 20 7 35 7c100 0 150 -96 150 -187c0 -139 -103 -232 -208 -259c-24 0 -38 5 -52 11v-118c0 -50 2 -63 66 -68v-34h-244v34c53 5 55 18 55 65v113l-18 1c-106 6 -141 33 -175 89c-27 44 -51 98 -74 149c-14 31 -23 39 -45 39h-13v-132
c0 -83 4 -97 69 -103v-34h-261v34c65 6 68 20 68 103v349c0 87 -3 99 -65 105v33h240c75 0 119 -9 153 -32c36 -24 58 -69 58 -125c0 -80 -44 -133 -105 -161c12 -27 42 -89 67 -134c30 -50 53 -86 70 -110c15 -20 24 -27 31 -32v277c0 47 1 53 -47 61v32
c53 8 113 24 170 44v-65zM238 310h20c33 0 53 7 71 24c30 27 41 62 41 118c0 103 -51 131 -94 131c-35 0 -38 -7 -38 -42v-231zM686 343v-276c19 -17 42 -30 70 -30c30 0 69 42 69 162c0 121 -52 161 -92 161c-20 0 -31 -7 -47 -17z" />
    <glyph glyph-name="K.alt" unicode="&#xe03a;" horiz-adv-x="694" 
d="M709 -17l-10 -32c-17 0 -48 4 -82 11c-73 16 -112 41 -150 89s-96 126 -163 224c-22 33 -37 39 -52 38v-180c0 -86 9 -91 85 -98v-35h-298v35c72 7 82 12 82 98v383c0 85 -10 92 -84 99v35h294v-35c-71 -7 -79 -14 -79 -99v-171c23 6 46 19 76 50c68 70 113 122 149 170
c22 29 19 41 -26 47l-19 3v35h254v-35c-68 -7 -101 -17 -157 -71c-57 -55 -105 -107 -146 -150c61 -95 140 -201 205 -284c69 -91 101 -118 121 -127z" />
    <glyph glyph-name="R.alt" unicode="&#xe057;" horiz-adv-x="653" 
d="M676 -16l-10 -33c-14 0 -33 2 -57 6c-103 13 -150 65 -181 118c-36 60 -66 115 -91 161c-16 30 -30 43 -64 43h-21v-146c0 -86 10 -91 85 -98v-35h-301v35c76 7 85 12 85 98v385c0 86 -9 90 -81 97v35h285c86 0 133 -11 171 -36c41 -26 67 -71 67 -129
c0 -91 -56 -142 -123 -170c40 -74 103 -177 148 -245c37 -53 62 -75 88 -86zM252 319h26c43 0 73 7 95 25c35 30 48 68 48 122c0 109 -66 144 -117 144c-24 0 -37 -5 -43 -11c-7 -6 -9 -16 -9 -36v-244z" />
    <glyph glyph-name="Dcroat" unicode="&#x110;" horiz-adv-x="760" 
d="M52 650h300c117 0 214 -25 280 -88c50 -48 86 -119 86 -210c0 -122 -46 -210 -124 -268c-76 -57 -175 -84 -297 -84h-253v34c79 8 88 18 88 103v178h-94v50h94v148c0 86 -9 96 -80 102v35zM266 315v-178c0 -67 9 -92 81 -92c126 0 221 111 221 286c0 104 -27 174 -72 220
c-38 38 -96 56 -157 56c-33 0 -56 -5 -64 -14c-7 -7 -9 -21 -9 -49v-179h141v-50h-141z" />
    <glyph glyph-name="Eng" unicode="&#x14a;" horiz-adv-x="740" 
d="M724 650v-34c-54 -3 -76 -17 -80 -62c-4 -31 -9 -80 -9 -168v-356c0 -82 -12 -133 -35 -172c-26 -42 -57 -65 -94 -65c-32 0 -60 25 -60 59c0 12 4 25 15 25c15 0 23 -8 47 -8c55 0 77 58 77 123l-413 494h-4v-219c0 -88 4 -136 7 -166c5 -45 24 -63 98 -67v-34h-246v34
c56 4 79 21 84 63c3 34 9 82 9 170v204c0 65 -2 85 -21 109c-18 24 -41 32 -83 36v34h183l385 -438h3v175c0 88 -5 137 -7 166c-5 43 -27 59 -100 63v34h244z" />
    <glyph glyph-name="Hbar" unicode="&#x126;" horiz-adv-x="783" 
d="M740 465h-78v-333c0 -85 8 -91 84 -98v-34h-305v34c80 7 87 14 87 98v169h-273v-169c0 -85 8 -91 82 -98v-34h-298v34c73 7 82 13 82 98v333h-80v43h80v15c0 84 -9 86 -86 92v35h300v-35c-72 -6 -80 -8 -80 -92v-15h273v14c0 85 -8 87 -82 93v35h300v-35
c-78 -6 -84 -8 -84 -92v-15h78v-43zM528 351v114h-273v-114h273z" />
    <glyph glyph-name="Tbar" unicode="&#x166;" horiz-adv-x="637" 
d="M612 486l-35 -3c-12 52 -24 83 -41 102c-17 17 -52 22 -110 22h-39v-253h141v-45h-141v-176c0 -85 10 -91 98 -98v-35h-327v35c84 7 94 13 94 98v176h-141v45h141v253h-28c-82 0 -104 -10 -118 -27c-16 -18 -30 -48 -43 -97h-35c4 72 10 141 12 192h23
c15 -23 29 -25 57 -25h400c27 0 41 6 58 25h23c1 -42 6 -126 11 -189z" />
    <glyph glyph-name="uni021C" unicode="&#x21c;" horiz-adv-x="542" 
d="M124 259l-14 40c140 53 204 103 204 198c0 77 -44 121 -96 121c-62 0 -104 -55 -137 -149l-38 7c11 59 19 107 24 148c64 17 117 40 196 40c110 0 193 -53 194 -139c0 -70 -60 -124 -130 -162v-2c99 -18 177 -82 177 -186c0 -152 -161 -274 -398 -301l-72 53l11 25
c27 -7 61 -17 108 -17c113 0 203 68 203 192c0 112 -78 155 -134 155c-28 0 -56 -8 -98 -23z" />
    <glyph glyph-name="a.end" unicode="&#xe084;" horiz-adv-x="640" 
d="M265 275v33c0 61 -23 99 -59 99c-13 0 -25 -7 -34 -19c-11 -14 -20 -39 -28 -69c-8 -26 -23 -34 -42 -34c-24 0 -63 24 -63 50c0 17 12 31 37 48c42 29 101 60 161 71c39 0 73 -9 99 -28c44 -32 53 -75 53 -131v-158c0 -66 20 -93 85 -93c81 0 97 22 97 53
c0 17 -6 31 -9 40c-2 6 -1 11 1 14c9 12 37 29 49 29c14 0 28 -19 28 -46c0 -21 -12 -55 -40 -82c-44 -43 -113 -62 -188 -63c-74 0 -124 10 -143 58c-38 -27 -85 -59 -104 -59c-85 0 -135 66 -135 126c0 54 24 78 76 98c59 21 136 42 159 63zM265 80v158
c-18 -10 -34 -20 -55 -31c-30 -16 -47 -33 -47 -67c0 -56 37 -77 60 -77c14 0 25 5 42 17z" />
    <glyph glyph-name="e.end" unicode="&#xe08f;" horiz-adv-x="620" 
d="M398 121l18 -24c-61 -91 -139 -109 -180 -109c-132 0 -207 99 -207 214c0 72 29 137 74 181c45 45 101 71 151 71h1c97 0 153 -79 153 -165h72c74 0 92 24 92 50c0 16 -6 31 -11 43c-1 15 41 42 56 42c14 0 25 -22 25 -43s-10 -50 -35 -78c-30 -34 -85 -62 -168 -62h-287
c5 -108 62 -162 133 -162c39 0 74 10 113 42zM236 414h-1c-41 0 -72 -52 -78 -124c41 0 78 -1 115 0c14 0 20 3 21 18c0 55 -23 106 -57 106z" />
    <glyph glyph-name="k.alt" unicode="&#xe0a5;" horiz-adv-x="534" 
d="M547 -23l-9 -26c-24 0 -57 3 -89 11c-47 11 -78 30 -111 72c-32 40 -70 98 -110 162c-7 11 -11 16 -17 16c-3 2 -7 2 -10 2v-104c0 -64 5 -71 62 -78v-32h-253v32c59 8 66 14 66 78v458c0 64 -6 65 -59 71v29c46 5 116 17 184 35v-459c24 5 45 22 60 38
c19 21 42 52 61 84c13 21 16 37 -32 43v30l217 9v-30c-62 -11 -92 -24 -124 -55c-26 -24 -44 -44 -70 -80c27 -47 89 -143 138 -204c48 -60 76 -89 96 -102z" />
    <glyph glyph-name="m.end" unicode="&#xe0b1;" horiz-adv-x="1053" 
d="M767 294v-185c0 -44 7 -53 35 -57c18 -3 48 -5 75 -5c89 0 101 25 101 57c0 19 -8 37 -11 46c-3 6 2 15 9 21c12 12 32 25 48 25c14 0 29 -22 29 -50c0 -25 -11 -56 -41 -87c-34 -34 -83 -61 -165 -61c-84 1 -183 1 -259 2v32c46 7 52 11 52 79v166c0 79 -36 98 -72 98
c-22 0 -43 -7 -76 -34c1 -11 2 -24 2 -39v-199c0 -59 7 -64 52 -71v-32h-230v32c47 7 50 12 50 71v179c0 72 -31 93 -68 93c-25 0 -50 -12 -78 -33v-239c0 -59 7 -64 45 -71v-32h-238v32c59 6 66 12 66 75v208c0 58 -8 66 -51 74v29c46 7 114 21 176 38v-75
c22 15 42 29 64 42c31 19 55 31 86 31c55 0 97 -30 116 -76c24 18 46 32 71 49c24 16 45 27 75 27c87 0 137 -58 137 -160z" />
    <glyph glyph-name="n.end" unicode="&#xe0b2;" horiz-adv-x="776" 
d="M492 297v-187c0 -44 6 -53 34 -57c18 -3 48 -5 76 -5c88 0 101 24 101 56c0 19 -8 37 -12 46c-3 6 2 15 9 21c13 12 32 25 48 25c15 0 29 -22 29 -50c0 -25 -10 -56 -41 -87c-40 -40 -87 -61 -164 -61c-83 1 -181 1 -254 2v32c41 7 46 11 46 77v173c0 72 -32 94 -67 94
c-26 0 -51 -13 -77 -33v-237c0 -61 6 -67 47 -74v-32h-241v32c60 7 67 12 67 77v208c0 56 -3 62 -53 72v29c56 7 121 21 180 38v-72c20 13 39 26 61 40c30 19 51 30 80 30c81 0 131 -56 131 -157z" />
    <glyph glyph-name="r.end" unicode="&#xe0da;" horiz-adv-x="493" 
d="M501 455l23 -19c-18 -46 -55 -112 -109 -111c-18 0 -38 7 -58 18c-19 10 -34 15 -51 15c-21 0 -47 -17 -86 -92v-157c0 -64 6 -67 74 -75v-34h-266v34c56 7 65 10 65 75v211c0 57 -5 58 -54 69v29c60 8 119 20 181 37v-127h3c37 69 94 126 139 126c21 0 39 -7 59 -22
c28 -20 47 -16 80 23z" />
    <glyph glyph-name="longs" unicode="&#x17f;" horiz-adv-x="296" 
d="M53 442h40v17c0 24 5 45 12 68c8 24 29 75 87 122c35 30 74 48 115 54c44 -2 70 -12 89 -31c14 -13 15 -31 8 -45c-4 -11 -15 -25 -30 -36c-14 -11 -24 -10 -34 -1c-23 25 -60 54 -87 54c-19 0 -29 -12 -34 -39c-5 -29 1 -99 1 -193v-302c0 -65 7 -69 61 -78v-32h-248v32
c54 8 60 13 60 75v287h-65l-4 12z" />
    <glyph glyph-name="dcroat" unicode="&#x111;" horiz-adv-x="548" 
d="M542 58v-32c-24 -4 -118 -16 -197 -39v57l-61 -38c-25 -15 -39 -18 -50 -18c-86 0 -205 70 -205 219c0 136 119 247 277 247c7 0 17 -2 39 -5v77h-138v42h138v21c0 46 -7 45 -64 55v30c64 8 141 21 192 36v-142h79v-42h-79v-396c0 -62 5 -65 48 -70zM345 81v280
c-17 38 -46 51 -71 51c-23 0 -103 -27 -103 -178c1 -124 74 -171 119 -171c16 0 34 5 55 18z" />
    <glyph glyph-name="eng" unicode="&#x14b;" horiz-adv-x="558" 
d="M220 456v-71c20 13 36 25 59 39c30 19 50 30 79 30c81 0 132 -56 132 -157v-153c0 -83 -6 -137 -36 -200c-22 -47 -50 -79 -73 -102c-28 -28 -57 -49 -84 -49c-22 0 -47 23 -47 61c0 11 6 21 15 21c13 0 45 -17 61 -17c12 0 24 3 29 24c8 30 8 59 8 167v232
c0 72 -33 96 -68 96c-26 0 -49 -12 -75 -32v-238c0 -62 5 -68 62 -75v-32h-255v32c61 7 66 12 66 78v208c0 56 -4 63 -54 73v28c57 8 122 22 181 37z" />
    <glyph glyph-name="hbar" unicode="&#x127;" horiz-adv-x="551" 
d="M533 0h-236v32c48 7 51 14 51 69v180c0 77 -36 100 -73 100c-26 0 -51 -11 -73 -31v-249c0 -59 6 -62 48 -69v-32h-237v32c51 6 62 9 62 75v419h-70v43h70v51c0 24 -2 29 -33 36v27c42 6 109 16 160 27v-141h154v-43h-154v-136c35 35 87 64 137 64c87 0 136 -56 136 -164
v-183c0 -65 10 -67 58 -75v-32z" />
    <glyph glyph-name="kgreenlandic" unicode="&#x138;" horiz-adv-x="553" 
d="M550 0h-185c-11 18 -73 131 -106 186c-14 24 -26 27 -39 26v-98c0 -70 6 -76 61 -82v-32h-250v32c56 4 62 10 62 83v202c0 67 -6 79 -60 83v32c66 5 128 12 187 23v-212c9 1 29 8 45 23c40 36 62 63 83 94c16 25 9 42 -14 46l-20 4v32h217v-32c-53 -5 -82 -16 -117 -47
c-17 -15 -44 -43 -81 -82c53 -84 98 -152 137 -200c28 -36 45 -46 80 -49v-32z" />
    <glyph glyph-name="napostrophe" unicode="&#x149;" horiz-adv-x="566" 
d="M53 717h1c51 0 108 -37 108 -109c0 -73 -72 -114 -148 -132l-11 28c51 22 76 49 76 81c0 30 -27 50 -66 57c-4 1 -13 11 -13 29c0 28 27 46 53 46zM549 0h-233v32c42 7 47 10 47 81v170c0 72 -33 94 -69 94c-25 0 -48 -11 -74 -31v-242c0 -62 6 -65 47 -72v-32h-241v32
c62 9 67 10 67 77v207c0 60 -5 64 -54 73v29c57 7 122 21 181 38v-74c20 14 40 30 62 44c30 19 49 28 78 28c81 0 131 -60 131 -160v-189c0 -63 6 -65 58 -73v-32z" />
    <glyph glyph-name="tbar" unicode="&#x167;" horiz-adv-x="336" 
d="M327 37l-81 -38c-18 -8 -34 -11 -41 -11c-77 0 -122 36 -122 126v110h-66v43h66v125h-63l-6 12l29 38h40v73l113 78l14 -6v-145h99c11 -11 9 -42 -6 -50h-93v-125h96v-43h-96v-75c0 -78 37 -90 57 -90c17 0 33 3 51 11z" />
    <glyph glyph-name="uni021D" unicode="&#x21d;" horiz-adv-x="406" 
d="M70 105l-12 33c114 46 150 93 150 151s-33 84 -73 84c-32 0 -61 -17 -101 -52l-24 26c52 65 109 107 180 107c78 0 146 -44 146 -130c0 -37 -21 -67 -55 -94c-9 -8 -27 -19 -39 -26v-3c74 -18 137 -73 137 -156c0 -137 -144 -245 -323 -269l-58 42l10 23
c20 -5 42 -10 70 -10c95 0 164 59 164 170c0 89 -55 118 -96 118c-20 0 -41 -3 -76 -14z" />
    <glyph glyph-name="IJ" unicode="&#x132;" horiz-adv-x="744" 
d="M338 0h-300v35c74 7 83 14 83 98v383c0 85 -9 92 -83 99v35h300v-35c-74 -7 -83 -14 -83 -99v-383c0 -84 9 -91 83 -98v-35zM716 650v-35c-70 -7 -79 -14 -79 -99v-330c0 -116 -10 -211 -102 -287c-40 -34 -82 -52 -122 -62l-15 37c54 23 84 58 94 121
c9 56 11 120 11 195v326c0 85 -10 92 -86 99v35h299z" />
    <glyph glyph-name="c_h" unicode="&#xe085;" horiz-adv-x="952" 
d="M399 120l19 -24c-46 -65 -111 -108 -172 -108c-137 0 -217 104 -217 213c0 73 37 144 101 191c65 48 131 62 169 62h1c36 0 69 -11 86 -25c14 -10 18 -22 18 -36c0 -29 -26 -55 -43 -55c-7 0 -13 3 -22 11c-42 36 -73 52 -101 52c-40 0 -84 -38 -84 -145
c0 -133 95 -177 138 -177c42 0 71 10 107 41zM934 0h-236v32c48 7 51 14 51 69v176c0 77 -33 103 -72 103c-24 0 -51 -7 -72 -28v-251c0 -55 4 -62 46 -69v-32h-237v32c57 6 63 10 63 73v466c0 61 -4 61 -56 67v29c53 7 124 21 184 36v-314c34 35 84 65 133 65
c87 0 138 -56 138 -166v-183c0 -64 6 -64 58 -73v-32z" />
    <glyph glyph-name="c_k" unicode="&#xe086;" horiz-adv-x="915" 
d="M399 120l19 -24c-46 -65 -111 -108 -172 -108c-137 0 -217 104 -217 213c0 73 37 144 101 191c65 48 131 62 169 62h1c36 0 69 -11 86 -25c14 -10 18 -22 18 -36c0 -29 -26 -55 -43 -55c-7 0 -13 3 -22 11c-42 36 -73 52 -101 52c-40 0 -84 -38 -84 -145
c0 -133 95 -177 138 -177c42 0 71 10 107 41zM938 0l-176 -2c-29 37 -85 126 -130 198c-8 12 -14 17 -20 17c-3 1 -6 2 -9 2v-107c0 -65 7 -68 65 -76v-32h-257v32c60 8 66 10 66 76v462c0 56 -7 62 -60 69v28c46 6 118 17 186 36v-459c23 5 42 22 57 38c22 25 47 65 58 87
c12 21 8 34 -30 40v30l216 9v-30c-63 -11 -97 -24 -125 -52c-27 -27 -42 -44 -70 -82c26 -44 114 -162 145 -201c32 -36 49 -45 84 -51v-32z" />
    <glyph glyph-name="c_t" unicode="&#xe087;" horiz-adv-x="752" 
d="M743 37l-82 -38c-17 -8 -33 -11 -40 -11c-77 0 -122 36 -122 126v280h-59l-7 12l30 36h36v39c0 81 -22 129 -81 128c-54 0 -83 -52 -82 -108c1 -28 5 -42 15 -56c21 -9 38 -22 38 -45c-1 -30 -27 -56 -43 -56c-8 0 -15 5 -23 12c-33 32 -57 47 -85 47
c-45 0 -82 -51 -82 -149c0 -133 93 -177 136 -177c41 0 74 15 109 44l19 -25c-46 -65 -112 -108 -173 -108c-138 0 -217 104 -217 213c0 74 38 144 103 192c64 47 126 61 156 61c6 0 10 0 16 -1c-11 18 -17 37 -17 61c0 87 68 152 173 152c97 0 165 -46 165 -180v-44h99
c9 -11 7 -40 -8 -48h-91v-245c0 -78 36 -92 56 -92c17 0 34 4 52 12z" />
    <glyph glyph-name="ij" unicode="&#x133;" horiz-adv-x="583" 
d="M148 517c-37 0 -70 32 -70 70c0 40 33 70 71 70c40 0 71 -30 71 -70c0 -38 -31 -70 -72 -70zM285 0h-256v32c58 7 64 11 64 82v198c0 66 -7 69 -55 77v29c60 7 126 20 182 36v-340c0 -69 5 -74 65 -82v-32zM438 517c-37 0 -70 32 -70 70c0 40 33 70 71 70
c39 0 71 -30 71 -70c0 -38 -32 -70 -72 -70zM321 388v30c61 7 126 21 189 36v-325c0 -77 -8 -116 -28 -162c-39 -95 -115 -179 -139 -196c-15 -11 -23 -15 -35 -15c-14 0 -40 23 -40 55c0 16 10 27 24 27c44 1 68 8 75 20c6 12 10 36 12 71c2 59 4 123 4 188v188
c0 72 -7 74 -62 83z" />
    <glyph glyph-name="s_p" unicode="&#xe0db;" horiz-adv-x="902" 
d="M565 395l71 41c21 13 39 18 55 18c121 0 181 -99 181 -193c0 -143 -116 -243 -245 -273c-26 0 -47 7 -62 13v-115c0 -70 6 -79 84 -85v-32h-280v32c65 6 69 15 69 77v722h-38c-73 -2 -115 -43 -113 -109c1 -18 2 -33 10 -49c6 -1 11 -4 15 -6c11 -23 22 -73 24 -93
l-32 -12c-30 56 -56 85 -95 85c-25 0 -50 -23 -50 -56c0 -31 18 -54 67 -76c81 -38 138 -72 138 -149c0 -101 -95 -147 -184 -147c-53 0 -107 20 -128 36c-6 15 -16 89 -15 139l30 2c22 -63 74 -138 135 -138c32 0 54 24 54 56c0 33 -14 55 -76 86c-46 23 -123 59 -123 143
c0 78 61 140 166 142c13 0 21 -1 32 -3c-11 20 -17 43 -17 63c0 81 73 138 180 138c11 0 18 1 20 4v16c37 9 77 20 118 36l9 -5v-308zM565 356v-281c21 -17 52 -35 80 -35c39 0 97 33 97 172c0 119 -59 167 -112 167c-26 0 -45 -9 -65 -23z" />
    <glyph glyph-name="s_t" unicode="&#xfb06;" horiz-adv-x="717" 
d="M708 37l-82 -38c-17 -8 -33 -11 -40 -11c-77 0 -123 36 -123 126v280h-59l-6 11l29 37h36v38c0 86 -20 131 -90 130c-57 -1 -88 -54 -87 -108c0 -24 5 -44 13 -60c6 -2 11 -4 15 -6c10 -23 22 -73 24 -92l-30 -12c-32 56 -66 84 -101 84c-24 0 -47 -22 -47 -56
c0 -32 18 -54 68 -76c81 -37 137 -72 137 -149c0 -101 -98 -147 -186 -147c-54 0 -105 20 -126 35c-6 16 -15 90 -16 136l29 7c23 -63 74 -139 135 -139c33 0 57 24 57 57c0 30 -18 54 -79 85c-46 24 -121 59 -121 143c0 78 60 140 165 142c13 0 24 -1 33 -3
c-11 21 -17 38 -17 61c0 90 76 156 174 156c102 0 178 -45 178 -186v-40h98c8 -11 5 -41 -7 -48h-91v-244c0 -77 36 -92 56 -92c17 0 34 5 52 12z" />
    <glyph glyph-name="zero.slash" unicode="&#xf638;" horiz-adv-x="500" 
d="M436 648l-40 -80c55 -62 75 -166 75 -256c0 -146 -53 -324 -221 -324c-47 0 -84 14 -115 37l-39 -74l-32 19l43 81c-57 63 -79 168 -79 260c0 148 57 324 223 324c49 0 87 -15 118 -39l35 70zM170 173l151 334c-12 53 -35 88 -72 88c-63 0 -89 -115 -89 -282
c0 -46 4 -102 10 -140zM332 445l-151 -337c12 -46 37 -80 69 -80c67 0 90 122 90 287c0 40 -2 95 -8 130z" />
    <glyph glyph-name="Euro" unicode="&#x20ac;" horiz-adv-x="500" 
d="M445 146l32 -9c-9 -42 -26 -95 -40 -126c-20 -7 -76 -23 -120 -23c-165 0 -232 117 -247 259h-59l12 40h43c-1 15 1 41 2 59h-41l13 40h34c27 162 135 251 264 251c53 0 97 -16 116 -23c6 -48 10 -79 15 -125l-36 -8c-18 70 -46 115 -101 115c-64 0 -107 -73 -122 -210
h243l-13 -40h-234c-2 -19 -1 -41 0 -59h215l-13 -40h-198c12 -139 48 -216 118 -216c46 0 81 38 117 115z" />
    <glyph glyph-name="franc" unicode="&#x20a3;" horiz-adv-x="500" 
d="M462 481l-34 -7c-10 38 -17 60 -34 79c-18 20 -34 28 -80 28h-28c-32 0 -38 -5 -38 -33v-192c133 1 136 5 175 12v-73c-41 8 -47 12 -175 12v-104h132v-42h-132v-36c0 -78 8 -84 91 -91v-34h-295v34c62 6 74 13 74 91v36h-83v42h83v297c0 75 -6 83 -74 89v34h408
c1 -16 5 -85 10 -142z" />
    <glyph glyph-name="lira" unicode="&#x20a4;" horiz-adv-x="500" 
d="M392 237h-144c-14 -45 -55 -85 -104 -111c42 1 70 -5 104 -19c48 -20 97 -43 132 -43c29 0 37 11 37 25c0 15 -3 28 -7 38c-4 7 -2 17 3 24c13 18 31 27 44 27c16 0 26 -17 26 -41c0 -50 -49 -101 -85 -127c-35 -26 -68 -37 -103 -37c-45 0 -90 33 -135 59
c-31 17 -45 21 -63 21c-13 0 -27 -15 -32 -42c-3 -11 -9 -16 -16 -16c-17 0 -36 16 -27 47c8 27 43 63 64 91c26 35 36 68 37 104h-95v42h95c-3 20 -6 32 -10 55h-85v42h80c-1 10 -2 29 -2 42c0 53 25 124 96 173c36 26 72 42 113 44c50 0 82 -22 98 -38
c11 -12 13 -29 3 -46c-7 -12 -18 -21 -25 -26c-9 -6 -21 -7 -34 2c-31 24 -63 50 -97 50c-30 0 -42 -19 -42 -62c0 -39 13 -98 22 -139h153v-42h-145c5 -22 8 -35 8 -55h137z" />
    <glyph glyph-name="peseta" unicode="&#x20a7;" horiz-adv-x="500" 
d="M495 414h-38c-8 -95 -68 -158 -165 -171c-7 0 -13 -1 -23 0l-49 15v-129c0 -79 7 -88 82 -94v-35h-277v35c62 5 70 18 70 94v285h-55v44h55v37c0 84 -6 88 -64 94v34h230c58 0 99 -11 132 -35c39 -28 62 -76 64 -130h38v-44zM220 458h115c-4 74 -31 127 -85 127
c-12 0 -17 -5 -23 -9c-6 -6 -7 -16 -7 -30v-88zM334 414h-114v-115c11 -5 23 -8 34 -8c37 0 79 41 80 123z" />
    <glyph glyph-name="peseta.alt" unicode="&#xe0d9;" horiz-adv-x="895" 
d="M843 237l-27 -5c-16 37 -39 73 -76 73c-24 0 -39 -16 -39 -36c0 -25 18 -38 60 -58c64 -30 97 -58 97 -111c0 -68 -56 -112 -140 -112c-40 0 -83 14 -106 27c-1 5 -2 9 -3 13l-64 -31c-14 -6 -28 -9 -33 -9c-62 0 -104 31 -104 99v212c-20 -7 -41 -10 -55 -12
c-12 -2 -33 -2 -45 -1l-66 16v-169c0 -82 9 -92 91 -98v-35h-300v35c71 5 81 17 81 98v358c0 77 -7 92 -75 98v34h266c78 0 135 -10 174 -35c41 -27 68 -69 68 -123c0 -44 -15 -76 -30 -98v-36h87c8 -13 6 -37 -7 -43h-80v-170c0 -60 28 -69 44 -69c15 0 30 6 44 12
c-3 21 -5 37 -6 61l24 2c18 -45 51 -101 105 -101c23 0 42 13 42 36c0 22 -16 37 -67 63c-43 21 -92 53 -92 108c0 61 52 109 127 110c43 0 67 -7 86 -13c8 -18 17 -71 19 -90zM242 549v-209c13 -5 32 -9 54 -9c44 0 113 26 113 132c0 89 -55 123 -120 123
c-19 0 -33 -5 -38 -9c-6 -6 -9 -15 -9 -28z" />
    <glyph glyph-name="afii61352" unicode="&#x2116;" horiz-adv-x="897" 
d="M458 253v115c0 176 20 210 40 236c16 21 40 32 61 32c22 0 41 -20 41 -42c0 -15 -15 -27 -30 -31c-44 -12 -68 -42 -68 -221v-349h-49l-258 474h-2v-185c0 -172 -14 -217 -42 -255c-18 -25 -43 -39 -72 -39c-28 0 -54 19 -54 51c0 22 17 40 37 40c13 0 26 -7 39 -7
c31 0 50 25 50 259v167c0 23 -1 39 -13 58c-14 23 -39 33 -81 36v32h185l214 -371h2zM710 232h-1c-97 0 -152 76 -152 149c0 110 85 159 150 159c83 0 147 -65 147 -152c0 -103 -74 -156 -144 -156zM713 265h1c30 0 51 30 51 107c0 76 -23 134 -64 134
c-32 0 -55 -44 -55 -108c0 -81 28 -133 67 -133zM827 150h-237v45h237v-45z" />
    <glyph glyph-name="estimated" unicode="&#x212e;" horiz-adv-x="777" 
d="M749 302h-583c-3 0 -5 -1 -5 -4v-176c0 -8 3 -15 8 -20c56 -59 134 -96 221 -96c93 0 175 42 232 107h52c-65 -76 -169 -126 -285 -126c-199 0 -360 145 -360 324s161 324 360 324s360 -145 360 -324v-9zM617 325v178c0 8 -3 15 -9 21c-56 56 -133 92 -218 92
c-86 0 -164 -37 -220 -95c-6 -6 -9 -13 -9 -22v-174c0 -2 2 -5 5 -5h447c3 0 4 3 4 5z" />
    <glyph glyph-name="a.sc" unicode="&#xf761;" horiz-adv-x="611" 
d="M586 0h-259v35l18 2c26 5 33 14 19 48l-21 55h-159c-6 -15 -13 -35 -21 -59c-9 -31 3 -38 28 -43l25 -3v-35h-192v35c45 6 66 13 91 73l161 370l58 10l166 -392c19 -46 39 -57 86 -61v-35zM325 187l-60 165h-2l-62 -165h124z" />
    <glyph glyph-name="b.sc" unicode="&#xf762;" horiz-adv-x="575" 
d="M386 264v-2c83 -9 140 -47 140 -118c0 -114 -135 -144 -260 -144h-226v34c63 4 69 9 69 76v254c0 69 -6 73 -65 77v34h277c113 0 176 -34 176 -109c0 -64 -61 -92 -111 -102zM236 273h33c57 0 95 21 95 81c0 65 -46 84 -87 84c-37 0 -41 -14 -41 -45v-120zM236 235v-128
c0 -59 24 -69 54 -69c47 0 97 31 97 102c0 68 -49 95 -119 95h-32z" />
    <glyph glyph-name="c.sc" unicode="&#xf763;" horiz-adv-x="555" 
d="M486 151l35 -12c-9 -38 -27 -105 -39 -128c-23 -8 -95 -24 -153 -24c-200 0 -287 119 -287 244c0 153 126 257 304 257c70 0 125 -16 147 -22c3 -41 6 -77 14 -130l-36 -8c-29 92 -77 121 -136 121c-86 0 -149 -81 -149 -206c0 -135 78 -216 157 -216c45 0 98 33 143 124
z" />
    <glyph glyph-name="d.sc" unicode="&#xf764;" horiz-adv-x="631" 
d="M44 475h261c90 0 166 -17 221 -66c38 -34 64 -90 64 -154c0 -177 -143 -255 -324 -255h-228v34c61 5 71 10 71 75v256c0 68 -8 71 -65 76v34zM238 384v-271c0 -56 11 -73 53 -73c91 0 154 72 154 203c0 135 -66 194 -155 194c-25 0 -39 -5 -44 -10c-6 -5 -8 -20 -8 -43z
" />
    <glyph glyph-name="e.sc" unicode="&#xf765;" horiz-adv-x="517" 
d="M454 135l35 -2c-6 -39 -21 -113 -27 -133h-427v34c67 5 74 10 74 80v250c0 70 -6 73 -67 77v34h400c1 -20 4 -70 8 -119l-35 -2c-10 28 -17 43 -29 57c-12 16 -33 24 -81 24h-38c-28 0 -29 -4 -29 -31v-135h57c56 0 64 7 72 55h35v-154h-35c-8 44 -16 53 -72 53h-57v-102
c0 -44 5 -63 17 -70c14 -8 35 -10 74 -10c41 0 64 4 83 25c14 14 27 38 42 69z" />
    <glyph glyph-name="f.sc" unicode="&#xf766;" horiz-adv-x="495" 
d="M455 352l-35 -5c-9 26 -16 45 -28 62c-12 16 -31 26 -78 26h-49c-26 -2 -26 -1 -27 -29v-152h64c68 0 75 5 86 56h34v-161h-35c-8 58 -17 60 -86 60h-63v-101c0 -63 8 -70 77 -74v-34h-272v34c59 4 66 9 66 74v257c0 67 -7 72 -66 76v34h403c1 -20 4 -70 9 -123z" />
    <glyph glyph-name="g.sc" unicode="&#xf767;" horiz-adv-x="599" 
d="M562 233v-34c-38 -5 -43 -6 -43 -58v-58c0 -27 2 -50 6 -65c-51 -13 -117 -31 -191 -31c-182 0 -292 99 -292 242c0 174 141 259 312 259c69 0 126 -16 152 -23c3 -25 6 -68 13 -137l-35 -2c-27 96 -88 124 -143 124c-77 0 -155 -59 -155 -204c0 -115 59 -219 160 -219
c26 0 44 10 44 48v65c0 50 -4 54 -81 59v34h253z" />
    <glyph glyph-name="h.sc" unicode="&#xf768;" horiz-adv-x="661" 
d="M621 0h-259v34c55 5 62 11 62 80v114h-186v-114c0 -68 6 -75 57 -80v-34h-255v34c62 4 69 11 69 81v245c0 70 -7 76 -71 81v34h260v-34c-54 -5 -60 -10 -60 -80v-85h186v85c0 70 -7 75 -60 80v34h257v-31c-60 -8 -67 -14 -67 -83v-246c0 -70 7 -76 67 -81v-34z" />
    <glyph glyph-name="i.sc" unicode="&#xf769;" horiz-adv-x="347" 
d="M306 0h-265v34c60 5 68 9 68 76v255c0 67 -8 70 -68 75v35h265v-34c-62 -4 -68 -9 -68 -77v-254c0 -67 6 -71 68 -76v-34z" />
    <glyph glyph-name="j.sc" unicode="&#xf76a;" horiz-adv-x="337" 
d="M307 475v-34c-59 -5 -67 -9 -67 -79v-222c0 -96 -9 -178 -94 -229c-34 -21 -69 -34 -103 -41l-11 32c36 15 60 44 68 88c10 50 11 116 11 181v191c0 69 -7 74 -73 79v34h269z" />
    <glyph glyph-name="k.sc" unicode="&#xf76b;" horiz-adv-x="603" 
d="M583 0h-185c-21 28 -92 149 -124 200c-15 24 -27 27 -39 26v-115c0 -66 6 -73 66 -77v-34h-256v34c56 1 64 11 64 76v254c0 69 -7 73 -66 77v34h254v-34c-56 -4 -62 -9 -62 -77v-108c9 2 27 9 44 23c41 33 88 91 110 121c15 21 16 32 -8 36l-28 5v34h217v-34
c-52 -4 -83 -14 -119 -45c-24 -21 -69 -67 -100 -100c55 -87 106 -165 147 -215c30 -36 50 -44 85 -47v-34z" />
    <glyph glyph-name="l.sc" unicode="&#xf76c;" horiz-adv-x="495" 
d="M443 150l36 -6c-6 -37 -22 -116 -28 -144h-415v34c67 5 73 11 73 78v252c0 68 -7 73 -68 77v34h270v-34c-66 -4 -73 -9 -73 -77v-254c0 -34 4 -51 17 -60c13 -8 37 -10 70 -10s60 6 78 27c15 18 25 43 40 83z" />
    <glyph glyph-name="m.sc" unicode="&#xf76d;" horiz-adv-x="734" 
d="M695 475v-35c-70 -5 -74 -12 -72 -77l5 -255c1 -64 4 -70 70 -74v-34h-263v34c65 4 68 10 69 74l4 288h-3l-163 -388h-34l-143 380h-2l-9 -180c-4 -80 -4 -102 -3 -125c2 -35 20 -46 70 -49v-34h-189v34c42 2 56 15 64 51c4 22 7 54 12 114l13 148c7 81 -2 88 -63 93v35
h191l122 -279l131 279h193z" />
    <glyph glyph-name="n.sc" unicode="&#xf76e;" horiz-adv-x="600" 
d="M586 475v-34c-41 -1 -64 -11 -68 -41c-3 -29 -7 -62 -7 -128v-277h-58l-301 354l-1 -1v-143c0 -71 3 -101 6 -126c4 -32 27 -41 80 -45v-34h-204v34c41 3 63 13 68 45c3 25 6 55 6 126v135c0 82 -19 97 -84 101v34h180l262 -297h2v94c0 66 -3 99 -7 125
c-4 33 -22 42 -78 44v34h204z" />
    <glyph glyph-name="o.sc" unicode="&#xf76f;" horiz-adv-x="618" 
d="M309 488h1c164 0 266 -109 266 -243c0 -169 -126 -258 -267 -258c-178 0 -268 123 -268 241c0 176 140 260 268 260zM302 449h-1c-60 0 -116 -71 -116 -201c0 -133 57 -222 133 -222c61 0 113 51 113 197c0 115 -44 226 -129 226z" />
    <glyph glyph-name="p.sc" unicode="&#xf770;" horiz-adv-x="547" 
d="M46 475h265c121 0 193 -46 193 -142c0 -94 -70 -143 -169 -156c-14 -2 -28 -2 -45 0l-55 14v-81c0 -65 6 -70 76 -76v-34h-269v34c60 6 66 11 66 76v249c0 72 -6 76 -62 81v35zM235 394v-164c13 -6 31 -10 46 -10c23 0 87 13 87 112c0 71 -46 106 -93 106
c-36 0 -40 -8 -40 -44z" />
    <glyph glyph-name="q.sc" unicode="&#xf771;" horiz-adv-x="621" 
d="M600 -117l-6 -21c-64 -9 -109 0 -139 8c-33 10 -90 41 -188 121c-152 20 -225 131 -225 235c0 178 139 262 270 262c165 0 266 -109 267 -245c1 -133 -81 -211 -161 -236c43 -33 116 -83 182 -124zM285 28l69 30c9 -6 17 -12 24 -19c21 16 57 72 57 181
c0 130 -48 230 -134 229c-59 0 -115 -69 -115 -203c0 -110 47 -199 99 -218z" />
    <glyph glyph-name="r.sc" unicode="&#xf772;" horiz-adv-x="588" 
d="M572 22l-4 -28h-37c-115 0 -145 25 -172 65c-25 34 -45 72 -66 112c-12 22 -21 30 -47 30h-11v-90c0 -65 6 -72 67 -77v-34h-262v34c61 4 69 9 69 77v256c0 65 -7 70 -66 74v34h271c62 0 99 -6 132 -24c34 -20 54 -55 54 -98c0 -61 -45 -102 -102 -121
c14 -25 47 -78 72 -113s40 -56 57 -72c15 -13 31 -21 45 -25zM235 238h23c29 0 53 4 73 18c22 16 33 45 33 79c0 73 -45 102 -92 102c-27 0 -37 -8 -37 -33v-166z" />
    <glyph glyph-name="s.sc" unicode="&#xf773;" horiz-adv-x="452" 
d="M391 342l-34 -9c-20 63 -59 118 -119 118c-41 0 -69 -31 -69 -66c0 -42 37 -61 68 -74l31 -12c85 -34 148 -73 148 -153c0 -98 -83 -159 -204 -159c-73 0 -124 28 -143 38c-8 21 -19 78 -26 135l32 10c20 -59 76 -145 149 -145c47 0 76 28 76 69c0 32 -20 56 -75 78
l-36 15c-58 24 -129 66 -129 147c0 92 70 154 195 154c52 0 101 -18 121 -27c4 -26 9 -62 15 -119z" />
    <glyph glyph-name="t.sc" unicode="&#xf774;" horiz-adv-x="543" 
d="M511 340l-34 -2c-13 46 -22 65 -35 79c-12 13 -35 17 -68 17h-37v-320c0 -71 7 -76 78 -80v-34h-281v34c67 4 74 9 74 80v320h-25c-48 0 -67 -6 -80 -22c-12 -14 -22 -37 -32 -73h-34c3 63 9 117 10 154h23c12 -16 20 -18 46 -18h320c25 0 29 4 42 18h24
c0 -37 5 -112 9 -153z" />
    <glyph glyph-name="u.sc" unicode="&#xf775;" horiz-adv-x="603" 
d="M586 475v-33c-43 -2 -61 -14 -65 -40c-3 -23 -6 -55 -6 -119v-55c0 -84 -15 -147 -57 -188c-34 -33 -86 -53 -146 -53c-55 0 -104 12 -142 39c-43 30 -69 85 -69 171v167c0 68 -6 73 -68 78v33h264v-33c-60 -5 -66 -10 -66 -78v-141c0 -119 45 -174 118 -174
c80 0 120 62 120 179v53c0 73 -3 98 -7 121c-5 28 -23 37 -79 40v33h203z" />
    <glyph glyph-name="v.sc" unicode="&#xf776;" horiz-adv-x="606" 
d="M581 475v-34c-51 -8 -66 -18 -95 -73c-38 -69 -106 -229 -169 -378h-43c-55 131 -110 257 -168 388c-22 52 -42 58 -84 63v34h261v-34l-24 -4c-28 -5 -32 -16 -16 -55c34 -79 65 -154 99 -235c26 59 80 196 91 230c15 44 12 56 -22 61l-20 3v34h190z" />
    <glyph glyph-name="w.sc" unicode="&#xf777;" horiz-adv-x="793" 
d="M768 475v-35c-53 -7 -62 -17 -80 -67c-46 -124 -89 -251 -134 -383h-41l-127 296h-2l-112 -296h-39l-132 379c-21 61 -34 66 -79 72v34h257v-35l-24 -4c-31 -5 -38 -12 -25 -51l66 -215h2l104 293h44l124 -297h2c26 78 49 145 67 215c11 42 4 51 -26 56l-30 3v35h185z
" />
    <glyph glyph-name="x.sc" unicode="&#xf778;" horiz-adv-x="594" 
d="M570 0h-275v34l23 5c21 4 27 15 7 47l-63 98c-27 -37 -46 -68 -65 -102c-15 -26 -13 -38 13 -43l28 -5v-34h-206v34c56 9 76 17 118 69c25 32 59 75 89 117l-107 166c-27 42 -40 48 -95 55v34h262v-34l-24 -5c-20 -3 -21 -13 -8 -32l56 -90c23 32 42 62 55 85
c16 25 9 35 -9 38l-21 4v34h199v-34c-61 -6 -81 -15 -122 -60c-20 -23 -45 -51 -81 -99l115 -173c37 -57 59 -69 111 -75v-34z" />
    <glyph glyph-name="y.sc" unicode="&#xf779;" horiz-adv-x="549" 
d="M528 475v-34c-51 -4 -67 -14 -97 -59c-19 -30 -45 -72 -84 -144c-8 -15 -10 -26 -10 -44v-84c0 -64 7 -70 76 -75v-35h-282v35c71 5 76 10 76 75v76c0 25 -5 35 -15 53c-28 50 -55 94 -84 143c-28 47 -43 54 -87 59v34h249v-34l-27 -5c-21 -5 -21 -15 -9 -37
c30 -55 53 -95 79 -142c29 53 55 106 68 135c14 29 11 40 -11 44l-28 5v34h186z" />
    <glyph glyph-name="z.sc" unicode="&#xf77a;" horiz-adv-x="529" 
d="M472 154l34 -8c-7 -40 -22 -121 -29 -146h-433l-11 19l286 414h-77c-79 0 -99 -10 -109 -25c-13 -15 -22 -39 -33 -75h-35c4 69 9 121 11 160h25c12 -16 20 -18 45 -18h328l9 -18l-280 -413c14 -1 46 -3 90 -3c61 0 102 4 124 23c19 15 39 47 55 90z" />
    <glyph glyph-name="dcroat.sc" unicode="&#xf676;" horiz-adv-x="656" 
d="M66 475h265c87 0 165 -17 218 -64c39 -35 64 -91 64 -154c0 -180 -142 -257 -315 -257h-238v34c63 4 71 12 71 80v111h-74v45h74v90c0 72 -8 76 -65 81v34zM261 225v-111c0 -57 8 -74 55 -74c93 0 153 71 153 202c0 141 -66 195 -158 195c-26 0 -38 -5 -43 -11
c-6 -7 -7 -20 -7 -40v-116h97v-45h-97z" />
    <glyph glyph-name="hbar.sc" unicode="&#xf681;" horiz-adv-x="663" 
d="M622 0h-257v34c55 5 62 12 62 84v88h-190v-88c0 -70 6 -79 58 -84v-34h-255v34c62 4 69 12 69 85v207h-66v45h66v9c0 51 -13 56 -71 61v34h260v-34c-49 -5 -60 -9 -61 -61v-9h190v10c0 47 -14 55 -62 60v34h257v-31c-54 -7 -66 -12 -67 -64v-9h64v-45h-64v-207
c0 -73 7 -80 67 -85v-34zM427 253v73h-190v-73h190z" />
    <glyph glyph-name="dotlessi.sc" unicode="&#xe08e;" horiz-adv-x="347" 
d="M306 0h-265v34c60 5 68 9 68 76v255c0 67 -8 70 -68 75v35h265v-34c-62 -4 -68 -9 -68 -77v-254c0 -67 6 -71 68 -76v-34z" />
    <glyph glyph-name="oslash.sc" unicode="&#xf7f8;" horiz-adv-x="621" 
d="M529 490l-42 -56c60 -45 92 -113 92 -189c0 -169 -125 -258 -267 -258c-51 0 -98 11 -140 31l-51 -64l-30 28l45 59c-64 49 -94 120 -94 187c0 175 141 260 270 260c52 0 97 -11 138 -33l45 60zM205 124l191 262c-24 45 -50 63 -95 63c-61 0 -119 -72 -119 -204
c0 -42 8 -88 23 -121zM418 346l-192 -263c24 -41 56 -57 92 -57c54 0 121 47 121 198c0 42 -7 88 -21 122z" />
    <glyph glyph-name="tbar.sc" unicode="&#xf69c;" horiz-adv-x="543" 
d="M511 340l-35 -2c-12 46 -22 63 -35 77s-34 20 -67 20h-37v-173h106v-44h-106v-100c0 -71 7 -80 78 -84v-34h-281v34c67 4 74 13 74 84v100h-104v44h104v173h-25c-48 0 -66 -9 -80 -24c-12 -14 -22 -36 -32 -72h-34c3 63 9 117 10 154h25c13 -16 20 -18 47 -18h313
c26 0 30 4 42 18h28c0 -37 5 -112 9 -153z" />
    <glyph glyph-name="eng.sc" unicode="&#xf67b;" horiz-adv-x="596" 
d="M582 475v-34c-41 -2 -65 -11 -68 -41s-7 -62 -7 -128v-224c0 -91 -11 -150 -38 -193c-26 -42 -58 -62 -93 -62c-28 0 -55 25 -55 56c0 13 5 27 16 27c12 0 23 -10 45 -10c44 0 70 48 74 121l-304 361l-1 -1v-142c0 -70 3 -101 6 -126c4 -32 27 -40 80 -44v-35h-204v35
c41 3 64 12 68 44c3 26 6 56 6 126v132c0 84 -11 99 -84 104v34h180l258 -296h2v93c0 66 -3 98 -7 124c-4 34 -24 42 -81 45v34h207z" />
    <glyph glyph-name="eth.sc" unicode="&#xf7f0;" horiz-adv-x="656" 
d="M66 475h265c87 0 165 -17 218 -64c39 -35 64 -91 64 -154c0 -180 -142 -257 -315 -257h-238v34c63 4 71 12 71 80v111h-74v45h74v90c0 72 -8 76 -65 81v34zM261 225v-111c0 -57 8 -74 55 -74c93 0 153 71 153 202c0 141 -66 195 -158 195c-26 0 -38 -5 -43 -11
c-6 -7 -7 -20 -7 -40v-116h97v-45h-97z" />
    <glyph glyph-name="thorn.sc" unicode="&#xf7fe;" horiz-adv-x="545" 
d="M300 475v-34c-58 -4 -64 -6 -63 -65h98c102 0 173 -40 173 -129c0 -88 -73 -132 -165 -142c-21 -1 -43 0 -56 2l-52 13v-16c0 -62 9 -66 73 -70v-34h-265v34c59 4 66 9 66 77v251c0 71 -7 74 -66 79v34h257zM235 302v-144c16 -6 33 -9 53 -9c32 0 82 17 82 96
c0 66 -48 93 -92 93c-41 0 -43 -6 -43 -36z" />
    <glyph glyph-name="uni021D.sc" unicode="&#xe203;" horiz-adv-x="453" 
d="M112 164l-12 34c109 45 148 82 148 157c0 60 -32 91 -72 91s-67 -36 -96 -109l-31 7c8 48 13 80 17 112c53 15 85 32 148 32c92 0 161 -41 161 -117c0 -38 -19 -63 -52 -89c-9 -7 -28 -20 -40 -26v-3c74 -18 132 -67 132 -144c0 -121 -138 -222 -319 -248l-56 42l8 18
c20 -4 43 -7 73 -7c90 0 157 49 157 154c0 83 -51 114 -91 114c-20 0 -37 -5 -75 -18z" />
    <glyph glyph-name="germandbls.sc" unicode="&#xe0a4;" horiz-adv-x="903" 
d="M391 342l-34 -9c-20 63 -59 118 -119 118c-41 0 -69 -31 -69 -66c0 -42 37 -61 68 -74l31 -12c85 -34 148 -73 148 -153c0 -98 -83 -159 -204 -159c-73 0 -124 28 -143 38c-8 21 -19 78 -26 135l32 10c20 -59 76 -145 149 -145c47 0 76 28 76 69c0 32 -20 56 -75 78
l-36 15c-58 24 -129 66 -129 147c0 92 70 154 195 154c52 0 101 -18 121 -27c4 -26 9 -62 15 -119zM843 342l-34 -9c-20 63 -59 118 -119 118c-41 0 -69 -31 -69 -66c0 -42 37 -61 68 -74l31 -12c85 -34 148 -73 148 -153c0 -98 -83 -159 -204 -159c-73 0 -124 28 -143 38
c-8 21 -19 78 -26 135l32 10c20 -59 76 -145 149 -145c47 0 76 28 76 69c0 32 -20 56 -75 78l-36 15c-58 24 -129 66 -129 147c0 92 70 154 195 154c52 0 101 -18 121 -27c4 -26 9 -62 15 -119z" />
    <glyph glyph-name="ae.sc" unicode="&#xf7e6;" horiz-adv-x="771" 
d="M707 135l36 -3c-6 -38 -21 -112 -27 -132h-424v33c66 5 72 14 72 76v93h-140c-18 -34 -40 -80 -56 -117c-10 -25 -9 -41 13 -46l33 -6v-33h-200v33c36 4 67 13 95 59c20 33 53 86 110 191l66 123c13 23 6 27 -21 31l-50 5v33h482c1 -20 4 -72 8 -121l-35 -2
c-9 26 -19 46 -29 60c-12 16 -33 24 -78 24h-45c-27 0 -28 -2 -28 -30v-160h60c55 0 64 6 72 57h35v-157h-35c-6 45 -17 56 -72 56h-60v-87c0 -36 5 -58 17 -65c13 -9 34 -11 72 -11c43 0 71 5 90 26c14 15 27 41 39 70zM364 246v191c-10 0 -19 -6 -30 -27
c-20 -38 -51 -98 -86 -164h116z" />
    <glyph glyph-name="oe.sc" unicode="&#xf6fa;" horiz-adv-x="833" 
d="M766 134l38 -2c-6 -39 -21 -112 -27 -132h-281c-36 0 -69 -1 -99 -4c-22 -2 -49 -4 -72 -4c-194 0 -283 115 -283 236c0 176 145 255 300 255c76 0 107 -8 140 -8h275c1 -20 4 -70 8 -119l-36 -2c-10 28 -17 44 -26 57c-13 19 -34 25 -82 25h-39c-28 0 -30 -2 -30 -31
v-138h58c58 0 65 7 73 57h34v-155h-34c-8 49 -16 55 -73 55h-58v-103c0 -42 5 -64 18 -72s35 -10 74 -10c41 0 66 5 85 25c13 15 25 40 37 70zM423 105v279c0 19 -1 39 -12 45c-10 7 -33 15 -64 15c-89 0 -161 -70 -161 -202c0 -127 66 -211 161 -211c23 0 44 5 60 14
c14 8 16 30 16 60z" />
    <glyph glyph-name="f_i.sc" unicode="&#xe099;" horiz-adv-x="841" 
d="M455 352l-35 -5c-9 26 -16 45 -28 62c-12 16 -31 26 -78 26h-49c-26 -2 -26 -1 -27 -29v-152h64c68 0 75 5 86 56h34v-161h-35c-8 58 -17 60 -86 60h-63v-101c0 -63 8 -70 77 -74v-34h-272v34c59 4 66 9 66 74v257c0 67 -7 72 -66 76v34h403c1 -20 4 -70 9 -123zM801 0
h-265v34c60 5 68 9 68 76v255c0 67 -8 70 -68 75v35h265v-34c-62 -4 -68 -9 -68 -77v-254c0 -67 6 -71 68 -76v-34z" />
    <glyph glyph-name="f_l.sc" unicode="&#xe09c;" horiz-adv-x="990" 
d="M455 352l-35 -5c-9 26 -16 45 -28 62c-12 16 -31 26 -78 26h-49c-26 -2 -26 -1 -27 -29v-152h64c68 0 75 5 86 56h34v-161h-35c-8 58 -17 60 -86 60h-63v-101c0 -63 8 -70 77 -74v-34h-272v34c59 4 66 9 66 74v257c0 67 -7 72 -66 76v34h403c1 -20 4 -70 9 -123zM938 150
l36 -6c-6 -37 -22 -116 -28 -144h-415v34c67 5 73 11 73 78v252c0 68 -7 73 -68 77v34h270v-34c-66 -4 -73 -9 -73 -77v-254c0 -34 4 -51 17 -60c13 -8 37 -10 70 -10s60 6 78 27c15 18 25 43 40 83z" />
    <glyph glyph-name="ij.sc" unicode="&#xf684;" horiz-adv-x="684" 
d="M306 0h-265v34c60 5 68 9 68 76v255c0 67 -8 70 -68 75v35h265v-34c-62 -4 -68 -9 -68 -77v-254c0 -67 6 -71 68 -76v-34zM654 475v-34c-59 -5 -67 -9 -67 -79v-222c0 -96 -9 -178 -94 -229c-34 -21 -69 -34 -103 -41l-11 32c36 15 60 44 68 88c10 50 11 116 11 181v191
c0 69 -7 74 -73 79v34h269z" />
    <glyph glyph-name="ampersand.sc" unicode="&#xf726;" horiz-adv-x="664" 
d="M649 312l-25 -3c-31 -4 -55 -20 -86 -55c-26 -30 -44 -56 -74 -96c85 -78 117 -117 149 -166l-6 -10c-87 -1 -150 18 -170 37c-9 6 -25 22 -52 47c-45 -46 -94 -78 -163 -78c-116 0 -177 79 -177 149c0 61 36 88 113 135c-32 28 -55 62 -55 108c0 81 73 143 164 143
c92 0 152 -55 152 -129c0 -23 -12 -46 -37 -66c-17 -13 -34 -24 -66 -44c36 -30 76 -63 119 -100c25 36 39 58 50 80c13 26 12 36 -20 43l-21 5v34h205v-34zM258 485h-1c-31 0 -56 -29 -56 -67c0 -37 28 -69 85 -113c25 22 37 56 37 95c0 47 -28 85 -65 85zM282 68h1
c37 0 60 12 74 24c-51 48 -99 89 -173 157c-11 -15 -17 -35 -17 -60c0 -72 54 -121 115 -121z" />
    <glyph glyph-name="exclam.sc" unicode="&#xf721;" horiz-adv-x="264" 
d="M132 521h1c73 0 96 -24 81 -87l-62 -243h-41l-60 243c-16 62 7 87 81 87zM133 -12h-1c-38 0 -71 31 -71 72c0 42 33 76 72 76c42 0 72 -34 72 -76c0 -41 -30 -72 -72 -72z" />
    <glyph glyph-name="exclamdown.sc" unicode="&#xf7a1;" horiz-adv-x="264" 
d="M132 521h1c38 0 71 -30 71 -72s-33 -76 -72 -76c-42 0 -73 34 -73 76s31 72 73 72zM113 318h41l60 -242c16 -64 -7 -88 -81 -88h-1c-73 0 -96 25 -80 87z" />
    <glyph glyph-name="question.sc" unicode="&#xf73f;" horiz-adv-x="399" 
d="M224 194l-26 -18c-48 20 -96 58 -96 103c0 33 23 57 85 87c68 33 91 48 91 66c0 20 -16 32 -35 32c-57 0 -86 -87 -129 -87c-36 0 -62 32 -62 54c0 18 9 34 28 49c21 18 69 41 113 41h1c74 0 160 -55 160 -143c0 -47 -27 -76 -84 -102c-42 -19 -55 -33 -55 -52
c0 -12 6 -22 9 -30zM191 -12h-1c-38 0 -71 31 -71 72c0 42 33 76 72 76c41 0 72 -34 72 -76c0 -41 -31 -72 -72 -72z" />
    <glyph glyph-name="questiondown.sc" unicode="&#xf7bf;" horiz-adv-x="399" 
d="M204 521h1c39 0 71 -30 71 -72c0 -41 -32 -76 -72 -76c-42 0 -72 35 -72 76c0 42 30 72 72 72zM175 315l27 19c47 -21 95 -58 95 -103c0 -33 -22 -58 -84 -87c-69 -33 -91 -47 -91 -66s17 -31 35 -31c58 0 84 85 126 85c36 0 65 -32 64 -54c0 -17 -9 -34 -27 -49
c-22 -18 -69 -41 -114 -41h-1c-74 0 -160 55 -160 143c0 48 27 77 85 103c41 19 54 32 54 51c0 12 -5 22 -9 30z" />
    <glyph glyph-name="zero.oldstyle" unicode="&#xf730;" horiz-adv-x="549" 
d="M274 458h1c141 0 233 -110 233 -235c0 -123 -93 -235 -234 -235c-142 0 -234 110 -234 235c0 124 93 235 234 235zM274 400h-1c-60 0 -113 -60 -113 -177c0 -119 53 -177 115 -177c61 0 113 62 113 177c0 117 -53 177 -114 177z" />
    <glyph glyph-name="one.oldstyle" unicode="&#xf731;" horiz-adv-x="367" 
d="M341 0h-297v34l45 6c36 5 40 21 40 71v205c0 44 -4 55 -41 57l-40 2v32c54 8 127 26 207 51v-347c0 -50 4 -66 40 -71l46 -6v-34z" />
    <glyph glyph-name="two.oldstyle" unicode="&#xf732;" horiz-adv-x="474" 
d="M457 139l-37 -139h-384v32c84 53 229 133 229 246c0 52 -28 90 -87 90c-51 0 -87 -37 -115 -77l-29 23l58 85c33 33 77 58 140 58c97 0 164 -62 164 -146c0 -48 -20 -86 -72 -130c-38 -32 -82 -56 -122 -84v-2h125c55 0 70 3 96 54z" />
    <glyph glyph-name="three.oldstyle" unicode="&#xf733;" horiz-adv-x="441" 
d="M253 217v-4c93 -14 144 -76 144 -143c0 -163 -210 -233 -266 -233c-43 0 -83 18 -102 35c-12 10 -19 24 -13 42c4 13 15 27 29 36c10 8 23 8 31 0c26 -22 68 -56 113 -56c47 0 78 54 78 123c0 91 -56 127 -104 127c-23 0 -42 -5 -59 -11l-8 36c83 32 138 66 138 132
c0 41 -26 79 -76 79c-41 0 -71 -31 -97 -66l-27 24l44 60c27 34 77 60 126 60h1c93 0 150 -52 150 -131c0 -27 -14 -46 -35 -65c-15 -13 -38 -28 -67 -45z" />
    <glyph glyph-name="four.oldstyle" unicode="&#xf734;" horiz-adv-x="501" 
d="M490 90l-10 -66h-81v-181h-122v181h-249v41c96 137 214 293 297 393h74v-368h91zM277 90v239h-3c-57 -78 -105 -148 -164 -239h167z" />
    <glyph glyph-name="five.oldstyle" unicode="&#xf735;" horiz-adv-x="413" 
d="M122 335l-15 -76c122 -2 265 -46 265 -190c0 -66 -33 -124 -105 -169c-67 -41 -166 -63 -241 -63l-5 37c78 13 228 52 228 168c0 83 -92 116 -206 115l41 275l287 26l-15 -101z" />
    <glyph glyph-name="six.oldstyle" unicode="&#xf736;" horiz-adv-x="527" 
d="M468 609l7 -38c-33 -7 -76 -20 -111 -38c-52 -26 -135 -77 -172 -188l51 24c21 11 39 18 57 18c113 0 187 -75 187 -184c0 -116 -89 -215 -224 -215c-127 0 -219 93 -219 239c0 205 161 317 276 352c64 19 110 25 148 30zM248 319h-1c-21 0 -40 -4 -60 -14
c-5 -19 -7 -39 -7 -73c0 -128 50 -202 101 -202c57 0 76 62 76 133c0 89 -40 156 -109 156z" />
    <glyph glyph-name="seven.oldstyle" unicode="&#xf737;" horiz-adv-x="451" 
d="M434 447l10 -14c-54 -102 -208 -393 -305 -579l-102 -17l-7 14c130 179 233 347 317 491h-319v105h406z" />
    <glyph glyph-name="eight.oldstyle" unicode="&#xf738;" horiz-adv-x="495" 
d="M253 609h1c107 0 175 -66 175 -148c0 -26 -11 -51 -29 -70c-11 -11 -33 -28 -72 -54c69 -38 128 -81 128 -171c0 -117 -118 -178 -213 -178c-117 0 -203 59 -203 162c0 42 22 69 41 86c19 18 56 43 84 57c-57 32 -105 79 -105 148c0 91 80 168 193 168zM241 568h-1
c-40 0 -70 -40 -70 -83c0 -56 47 -89 125 -130c15 16 33 49 33 102c0 80 -51 111 -87 111zM258 28h1c46 0 80 38 79 96c-1 70 -57 105 -142 150c-24 -22 -45 -63 -45 -115c0 -86 59 -131 107 -131z" />
    <glyph glyph-name="nine.oldstyle" unicode="&#xf739;" horiz-adv-x="523" 
d="M265 458h1c141 0 214 -109 214 -239c0 -198 -134 -306 -277 -352c-41 -13 -123 -29 -169 -30l-7 36c143 29 267 117 299 226l-37 -17c-23 -11 -41 -16 -55 -16c-123 0 -193 80 -193 179c0 98 78 213 224 213zM247 416h-1c-51 0 -72 -63 -72 -125c0 -93 48 -158 118 -158
c19 0 31 3 42 8c6 23 8 46 8 86c0 96 -30 189 -95 189z" />
    <glyph glyph-name="dollar.oldstyle" unicode="&#xf724;" horiz-adv-x="504" 
d="M274 286l18 -5c102 -26 163 -64 163 -144c0 -85 -73 -137 -181 -147v-79h-41v78c-73 1 -138 25 -157 37c-7 19 -20 65 -30 126l33 10c21 -51 73 -126 154 -135v151l-28 8c-90 23 -145 61 -145 133c0 76 62 134 173 144v68h41v-66c38 -1 83 -8 125 -25
c8 -29 16 -61 23 -116l-34 -8c-15 50 -47 99 -114 109v-139zM233 295v130c-55 -4 -78 -34 -78 -63c0 -36 28 -54 78 -67zM274 167v-139c38 4 78 28 78 68c0 30 -19 54 -78 71z" />
    <glyph glyph-name="cent.oldstyle" unicode="&#xf7a2;" horiz-adv-x="479" 
d="M430 146l21 -28c-34 -48 -85 -89 -142 -100v-97h-41v94c-142 5 -222 102 -222 202c0 72 39 139 100 183c38 27 84 44 122 51v82h41v-78c8 1 12 1 16 1c34 0 72 -7 95 -23c11 -9 15 -20 15 -31c0 -31 -25 -53 -39 -53c-4 0 -8 0 -17 10c-25 27 -48 43 -70 48v-311
c52 0 94 26 121 50zM268 103v307c-41 -2 -105 -37 -105 -143c0 -103 53 -151 105 -164z" />
    <glyph glyph-name="Euro.oldstyle" unicode="&#xe023;" horiz-adv-x="563" 
d="M496 139l30 -10c-10 -39 -27 -93 -42 -119c-21 -7 -85 -22 -131 -22c-170 0 -250 94 -269 213h-71l15 39h52c-1 18 0 38 3 57h-51l14 40h44c32 127 138 204 279 204c58 0 109 -16 128 -21c6 -40 10 -74 15 -120l-31 -7c-21 67 -63 110 -117 110c-70 0 -122 -65 -138 -166
h262l-15 -40h-252c-2 -16 -2 -40 0 -57h238l-15 -39h-219c14 -111 64 -173 138 -173c53 0 94 42 133 111z" />
    <glyph glyph-name="florin.oldstyle" unicode="&#xe09f;" horiz-adv-x="514" 
d="M179 308l4 27c13 75 52 126 102 166c58 48 102 54 127 54c29 0 63 -16 63 -47c-1 -30 -28 -57 -48 -57c-19 0 -39 55 -66 55c-12 0 -18 -8 -22 -24c-5 -18 -10 -59 -26 -174h100v-46h-106l-17 -102c-29 -183 -97 -238 -156 -276c-29 -20 -60 -29 -85 -29
c-29 0 -55 20 -54 46c0 29 29 54 44 54c19 0 45 -42 66 -42c11 0 19 10 22 24c5 20 10 49 19 118l25 207h-80v46h88z" />
    <glyph glyph-name="sterling.oldstyle" unicode="&#xe0dd;" horiz-adv-x="518" 
d="M394 241h-140c0 -5 -1 -9 -1 -13c-4 -44 -37 -88 -94 -119c41 3 73 1 110 -16c36 -16 79 -41 113 -41c22 0 32 11 32 28c0 12 -3 25 -7 35c-3 7 1 17 7 23c12 15 28 26 40 26c17 0 27 -21 27 -39c0 -47 -46 -97 -84 -123c-30 -22 -62 -34 -92 -34c-43 0 -101 34 -139 55
c-25 14 -39 22 -56 22c-15 0 -29 -17 -34 -37c-2 -9 -8 -15 -16 -15c-17 0 -35 17 -27 42c8 24 37 56 55 76c26 34 35 65 35 92c0 16 -1 28 -2 38h-86v44h78c-3 23 -5 40 -5 57c0 50 31 116 94 157c33 21 71 35 107 36c43 0 80 -14 101 -35c11 -12 11 -30 4 -44
c-6 -10 -16 -22 -26 -29s-21 -10 -32 0c-34 30 -68 53 -98 53c-25 0 -38 -18 -38 -47c0 -42 21 -98 30 -148h144v-44z" />
    <glyph glyph-name="yen.oldstyle" unicode="&#xe101;" horiz-adv-x="518" 
d="M498 534v-35c-43 -6 -56 -19 -82 -58c-21 -31 -52 -83 -84 -143h117v-40h-128v-20v-53h129v-39h-129v-30c0 -65 11 -77 77 -81v-35h-278v35c67 4 74 17 74 85v26h-132v39h132v36v37h-132v40h118c-17 34 -43 89 -77 149c-20 35 -31 43 -77 53v34h238v-35l-23 -5
c-19 -4 -20 -15 -15 -26c15 -38 50 -106 72 -151c28 50 50 102 65 133c14 29 9 40 -22 45l-22 4v35h179z" />
    <glyph glyph-name="colonmonetary.oldstyle" unicode="&#xe08b;" horiz-adv-x="538" 
d="M471 138l29 -12c-10 -40 -27 -90 -39 -115c-21 -6 -79 -20 -124 -21l-9 -58h-33l10 60c-22 1 -40 3 -52 7l-12 -67h-33l13 75c-134 39 -180 142 -180 252c0 165 121 260 268 273l10 57h32l-9 -55h8c13 0 30 -2 46 -4l10 59h32l-11 -64c19 -3 40 -8 58 -12
c5 -41 9 -73 12 -115l-30 -5c-11 36 -22 66 -48 83l-76 -451c61 5 91 44 128 113zM311 27l78 464c-17 7 -34 9 -52 9l-77 -454c14 -11 31 -16 51 -19zM231 70l72 427c-74 -17 -123 -118 -123 -236c0 -91 22 -157 51 -191z" />
    <glyph glyph-name="franc.oldstyle" unicode="&#xe0a1;" horiz-adv-x="518" 
d="M473 403l-33 -6c-9 32 -17 50 -33 67c-15 18 -34 24 -84 24h-35c-24 0 -29 -5 -29 -28v-152c115 0 145 5 180 10v-66c-37 6 -69 10 -180 10v-82h132v-41h-132v-34c0 -65 7 -67 82 -73v-32h-282v32c61 7 71 8 71 73v34h-79v41h79v240c0 65 -8 71 -71 77v32h404
c1 -14 5 -70 10 -126z" />
    <glyph glyph-name="lira.oldstyle" unicode="&#xe0a7;" horiz-adv-x="518" 
d="M398 196h-155c-12 -24 -33 -59 -80 -86c37 3 66 2 113 -17c36 -15 77 -40 109 -40c23 0 32 12 32 30c0 11 -4 24 -8 33c-3 7 1 18 6 24c13 16 30 26 42 26c17 0 27 -22 27 -40c0 -46 -46 -96 -83 -123c-31 -22 -60 -35 -90 -35c-43 0 -103 35 -138 54
c-29 16 -44 23 -62 23c-15 0 -26 -16 -32 -36c-3 -10 -10 -15 -17 -15c-17 0 -34 16 -26 42c8 24 37 56 55 77c21 27 31 59 33 83h-89v41h87c-1 13 -2 30 -5 53h-82v40h78c0 9 -1 18 -1 26c0 45 30 107 94 148c33 21 70 35 107 37c43 0 79 -15 98 -34c13 -14 14 -31 6 -46
c-5 -11 -16 -23 -26 -30s-20 -10 -32 0c-33 30 -71 55 -100 55c-26 0 -36 -19 -36 -48c0 -32 13 -80 20 -108h155v-40h-148c4 -20 4 -40 2 -54h146v-40z" />
    <glyph glyph-name="numbersign.oldstyle" unicode="&#xe0b4;" horiz-adv-x="536" 
d="M499 383l-12 -83h-103l-30 -121h92l-12 -84h-99l-41 -167h-49l41 167h-97l-40 -167h-50l40 167h-105l11 84h114l29 121h-99l10 83h109l34 144h51l-35 -144h96l35 144h49l-35 -144h96zM335 300h-96l-30 -121h97z" />
    <glyph glyph-name="percent.oldstyle" unicode="&#xf642;" horiz-adv-x="748" 
d="M560 528l-343 -558l-36 26l342 558zM196 542h1c104 0 147 -89 147 -156c0 -68 -43 -156 -150 -156c-108 0 -151 92 -151 156c0 68 44 156 153 156zM195 508h-1c-40 0 -51 -81 -51 -121c0 -42 11 -123 51 -123c41 0 50 83 50 123c0 44 -7 121 -49 121zM558 301h1
c103 0 146 -89 146 -156c0 -68 -43 -157 -149 -157c-109 0 -152 92 -152 157c0 68 44 156 154 156zM557 267h-1c-41 0 -52 -81 -52 -121c0 -42 11 -123 51 -123c41 0 51 83 51 123c0 44 -8 121 -49 121z" />
    <glyph glyph-name="perthousand.oldstyle" unicode="&#xf628;" horiz-adv-x="1071" 
d="M560 528l-343 -558l-36 26l342 558zM196 542h1c104 0 147 -89 147 -156c0 -68 -43 -156 -150 -156c-108 0 -151 92 -151 156c0 68 44 156 153 156zM195 508h-1c-40 0 -51 -81 -51 -121c0 -42 11 -125 51 -125c41 0 50 85 50 125c0 44 -7 121 -49 121zM558 301h1
c103 0 146 -89 146 -156c0 -68 -43 -157 -149 -157c-109 0 -152 92 -152 157c0 68 44 156 154 156zM557 267h-1c-41 0 -52 -81 -52 -121c0 -42 11 -123 51 -123c41 0 51 83 51 123c0 44 -8 121 -49 121zM885 301h1c104 0 147 -89 147 -156c0 -68 -43 -157 -150 -157
c-108 0 -151 92 -151 157c0 68 44 156 153 156zM885 267h-1c-41 0 -52 -81 -52 -121c0 -42 11 -123 51 -123c41 0 51 83 51 123c0 44 -8 121 -49 121z" />
    <glyph glyph-name="estimated.oldstyle" unicode="&#xe091;" horiz-adv-x="696" 
d="M654 257h-496c-3 0 -4 -2 -4 -4v-149c0 -7 2 -13 7 -18c47 -49 114 -80 188 -80c79 0 149 35 196 90h45c-56 -64 -144 -107 -243 -107c-168 0 -305 123 -305 275c0 153 137 276 305 276c170 0 307 -123 307 -276v-7zM542 277v150c0 7 -4 13 -9 18c-47 48 -112 78 -184 78
c-73 0 -140 -31 -188 -80c-4 -5 -7 -12 -7 -19v-147c0 -3 1 -5 4 -5h380c2 0 4 2 4 5z" />
    <glyph glyph-name="zero.fitted" unicode="&#xf639;" horiz-adv-x="524" 
d="M263 635h1c167 0 220 -178 220 -323c0 -146 -53 -324 -222 -324c-168 0 -222 179 -222 323c1 148 58 324 223 324zM262 595h-1c-67 0 -84 -146 -84 -280c0 -140 18 -287 86 -287c67 0 84 147 84 286c0 135 -17 281 -85 281z" />
    <glyph glyph-name="one.fitted" unicode="&#xf6dc;" horiz-adv-x="370" 
d="M346 0h-303v33c85 5 88 13 88 89v372c0 45 -6 52 -43 56l-53 4v29c70 11 139 29 223 52v-513c0 -76 3 -84 88 -89v-33z" />
    <glyph glyph-name="two.fitted" unicode="&#xf63a;" horiz-adv-x="494" 
d="M443 172l28 -9c-16 -58 -28 -121 -39 -163h-401v25c53 51 111 107 161 165c69 83 109 157 109 232c0 70 -35 120 -104 120c-61 0 -104 -40 -136 -87l-27 23l64 95c37 37 89 62 152 62c99 0 180 -67 180 -178c0 -83 -46 -142 -141 -235l-117 -114h161c60 0 73 1 110 64z
" />
    <glyph glyph-name="three.fitted" unicode="&#xf63b;" horiz-adv-x="484" 
d="M295 385v-2c96 -18 149 -84 149 -159c-1 -170 -218 -236 -280 -236c-51 0 -92 17 -112 33c-16 13 -23 27 -23 40c0 19 16 36 29 46c12 9 23 12 37 1c22 -19 71 -65 130 -65c50 0 89 36 89 134c0 97 -68 136 -119 136c-18 0 -39 -2 -54 -6l-6 32c84 27 143 69 143 130
c0 60 -39 89 -84 89c-53 0 -92 -37 -120 -76l-26 24l49 68c28 32 75 61 141 61h1c104 0 163 -57 163 -133c0 -26 -12 -50 -31 -67c-17 -14 -43 -29 -76 -50z" />
    <glyph glyph-name="four.fitted" unicode="&#xf63c;" horiz-adv-x="523" 
d="M496 176h-90v-66c0 -61 6 -70 80 -77v-33h-298v33c86 7 91 20 91 81v62h-254v36c107 152 216 300 311 417h70v-398h90v-55zM279 231v257h-2c-49 -66 -111 -154 -175 -257h177z" />
    <glyph glyph-name="five.fitted" unicode="&#xf63d;" horiz-adv-x="484" 
d="M136 515l-26 -151c50 19 107 35 133 35c128 0 200 -83 200 -172c0 -63 -30 -123 -100 -173c-57 -40 -128 -65 -188 -66c-40 0 -82 14 -104 32c-20 16 -24 26 -24 41s14 38 31 51c11 9 23 5 36 -6c24 -22 72 -61 127 -61c64 0 95 52 95 130c0 92 -56 152 -147 152
c-46 0 -89 -13 -110 -20l45 316h317l6 -10l-32 -98h-259z" />
    <glyph glyph-name="six.fitted" unicode="&#xf63e;" horiz-adv-x="532" 
d="M191 359l52 24c24 11 42 19 58 19c115 0 192 -74 192 -187c0 -126 -97 -227 -229 -227c-125 0 -224 96 -224 252c0 212 152 330 266 368c57 19 112 27 151 33l6 -37c-29 -7 -72 -19 -107 -36c-49 -25 -136 -82 -165 -209zM250 333h-1c-24 0 -45 -4 -64 -12
c-6 -21 -7 -48 -7 -83c0 -132 52 -211 106 -210c61 0 76 64 76 141c0 92 -43 164 -110 164z" />
    <glyph glyph-name="seven.fitted" unicode="&#xf63f;" horiz-adv-x="497" 
d="M463 623l9 -12c-95 -201 -196 -406 -287 -611l-104 -12l-7 13c117 175 218 351 304 514h-216c-68 0 -76 -5 -104 -64h-32c14 78 20 129 26 172h411z" />
    <glyph glyph-name="eight.fitted" unicode="&#xf640;" horiz-adv-x="520" 
d="M269 635h1c109 0 184 -65 183 -154c0 -26 -9 -51 -32 -73c-16 -14 -36 -31 -76 -56c70 -37 135 -86 135 -174c0 -126 -126 -190 -223 -190c-125 0 -217 62 -217 169c0 47 24 71 42 88s63 44 93 61c-58 32 -109 81 -109 155c0 95 83 174 203 174zM256 597h-1
c-47 0 -74 -44 -74 -86c0 -69 51 -105 128 -141c17 16 37 47 37 105c0 87 -51 122 -90 122zM267 26h1c61 0 93 45 91 110c-3 76 -66 111 -149 152c-28 -22 -50 -67 -50 -120c0 -97 59 -142 107 -142z" />
    <glyph glyph-name="nine.fitted" unicode="&#xf641;" horiz-adv-x="527" 
d="M268 635h1c145 0 217 -116 217 -252c0 -170 -101 -308 -247 -365c-40 -16 -126 -32 -171 -33l-5 33c148 27 250 136 276 256l-49 -26c-24 -12 -41 -17 -58 -17c-119 0 -193 83 -193 189c0 89 77 215 229 215zM249 596h-1c-57 0 -77 -76 -77 -136c0 -85 47 -160 119 -160
c25 0 41 7 55 13c4 34 5 58 5 74c0 98 -25 209 -101 209z" />
    <glyph glyph-name="zero.slashfitted" unicode="&#xe201;" horiz-adv-x="524" 
d="M448 648l-39 -80c54 -62 75 -166 75 -256c0 -146 -53 -324 -222 -324c-47 0 -84 14 -115 37l-39 -74l-32 19l43 81c-57 63 -79 168 -79 260c0 148 58 324 224 324c48 0 87 -15 117 -39l35 70zM182 173l152 334c-13 53 -36 88 -73 88c-63 0 -88 -115 -88 -282
c0 -46 4 -102 9 -140zM345 445l-151 -337c12 -46 36 -80 69 -80c67 0 90 122 90 287c0 40 -3 95 -8 130z" />
    <glyph glyph-name="dollar.fitted" unicode="&#xe08d;" horiz-adv-x="503" 
d="M272 381l38 -14c75 -29 149 -80 149 -169c-1 -105 -73 -173 -187 -186v-83h-41v80c-83 1 -146 30 -165 42c-8 25 -19 91 -27 142l32 6c17 -47 61 -140 160 -149v211l-31 13c-90 36 -148 88 -148 165c0 91 64 160 179 175v75h41v-72c31 0 67 -5 92 -13c14 -4 25 -6 36 -8
c7 -36 16 -72 24 -134l-33 -4c-16 49 -43 108 -119 120v-197zM231 397v181c-55 -9 -80 -50 -80 -90c0 -47 35 -73 80 -91zM272 247v-195c45 8 81 39 81 99c0 24 -6 59 -68 89z" />
    <glyph glyph-name="cent.fitted" unicode="&#xe089;" horiz-adv-x="498" 
d="M435 231l19 -27c-37 -52 -87 -93 -145 -103v-96h-40v93c-143 5 -224 102 -224 202c0 73 36 139 101 184c38 27 82 43 123 50v81h40v-77c7 1 12 0 17 0c29 0 73 -7 96 -23c12 -9 15 -21 15 -30c0 -28 -28 -51 -40 -51c-3 0 -7 1 -17 12c-24 27 -47 42 -71 46v-311
c53 1 92 19 126 50zM269 187v308c-45 -5 -107 -44 -107 -148c0 -99 54 -145 107 -160z" />
    <glyph glyph-name="Euro.fitted" unicode="&#xe022;" horiz-adv-x="604" 
d="M529 157l32 -12c-11 -41 -30 -102 -46 -134c-22 -7 -89 -23 -140 -23c-176 0 -269 104 -289 259h-73l15 40h54c-1 16 1 41 3 60h-52l15 40h43c31 157 154 250 304 250c62 0 113 -17 135 -23c7 -49 11 -88 17 -134l-32 -8c-24 78 -69 125 -132 125
c-74 0 -137 -76 -155 -210h299l-15 -40h-288c-2 -19 -1 -41 0 -60h267l-15 -40h-248c17 -144 77 -217 156 -217c57 0 98 39 145 127z" />
    <glyph glyph-name="florin.fitted" unicode="&#xe09e;" horiz-adv-x="502" 
d="M163 376l7 37c15 78 46 133 105 180c65 52 115 59 138 59c30 0 72 -20 70 -51c-1 -24 -27 -56 -44 -57c-17 0 -49 55 -79 55c-13 0 -22 -9 -28 -26c-7 -17 -15 -54 -33 -197h107v-46h-114l-22 -142c-31 -200 -97 -251 -161 -293c-34 -24 -70 -33 -95 -33
c-29 0 -61 20 -61 46c0 29 33 58 50 58c13 0 45 -44 72 -44c12 0 20 8 24 21c7 25 13 65 23 141l34 246h-88v46h95z" />
    <glyph glyph-name="sterling.fitted" unicode="&#xe0dc;" horiz-adv-x="510" 
d="M402 289h-153c1 -5 1 -9 1 -15c0 -64 -57 -119 -111 -148c40 1 77 -5 111 -19c47 -19 104 -43 139 -43c30 0 39 9 39 23c0 15 -4 30 -8 40c-3 7 -2 16 4 24c13 17 27 27 39 27c17 0 27 -20 27 -41c0 -51 -47 -100 -86 -127c-34 -26 -68 -37 -102 -37
c-48 0 -101 35 -146 59c-31 17 -50 22 -68 22c-15 0 -28 -16 -34 -40c-2 -11 -8 -17 -15 -17c-17 0 -32 15 -24 45c9 27 44 63 65 91c27 36 39 75 39 112c0 16 -2 31 -3 44h-95v46h87c-4 36 -8 61 -8 86c0 51 25 121 95 170c35 25 75 42 115 44c49 0 85 -22 100 -38
c11 -13 15 -28 4 -46c-8 -12 -18 -21 -26 -27c-10 -5 -20 -6 -33 3c-31 24 -65 50 -100 50c-30 0 -43 -21 -43 -64c0 -48 18 -109 32 -178h158v-46z" />
    <glyph glyph-name="yen.fitted" unicode="&#xe100;" horiz-adv-x="500" 
d="M496 623v-35c-47 -6 -57 -16 -88 -68c-25 -42 -50 -90 -93 -183h131v-42h-138v-29v-46h139v-42h-139v-39c0 -89 7 -99 90 -104v-35h-303v35c79 5 86 15 86 105v38h-140v42h140v34v41h-140v42h128c-19 46 -44 98 -82 176c-30 62 -43 69 -84 75v35h243v-35l-24 -4
c-24 -5 -28 -13 -20 -33c29 -72 59 -136 81 -189c27 58 59 129 74 170c12 33 12 47 -18 52l-26 4v35h183z" />
    <glyph glyph-name="colonmonetary.fitted" unicode="&#xe08a;" horiz-adv-x="599" 
d="M528 171l31 -11c-11 -48 -32 -110 -45 -134c-22 -7 -87 -24 -143 -25l-11 -69h-37l12 70c-24 2 -44 5 -63 10l-15 -80h-36l16 89c-146 40 -199 165 -199 284c0 171 112 298 297 316l11 63h37l-10 -60h7c15 0 34 -1 57 -3l11 63h37l-12 -71c20 -4 39 -9 60 -13
c7 -42 12 -82 17 -126l-33 -5c-10 40 -24 73 -54 91l-85 -521c71 5 106 50 150 132zM341 40l89 537c-20 8 -42 10 -64 9l-87 -525c19 -11 40 -17 62 -21zM247 86l82 497c-97 -22 -150 -138 -150 -274c0 -98 25 -183 68 -223z" />
    <glyph glyph-name="franc.fitted" unicode="&#xe0a0;" horiz-adv-x="520" 
d="M481 482l-33 -6c-11 38 -20 61 -37 80c-18 21 -38 28 -85 28h-37c-32 0 -37 -5 -37 -33v-195c132 1 151 5 191 12v-71c-42 8 -63 11 -191 12v-106h153v-42h-153v-38c0 -78 8 -84 91 -91v-32h-301v32c71 7 79 14 79 91v38h-88v42h88v299c0 75 -8 82 -79 89v32h429
c1 -16 5 -83 10 -141z" />
    <glyph glyph-name="lira.fitted" unicode="&#xe0a6;" horiz-adv-x="529" 
d="M415 237h-155c-15 -45 -56 -85 -105 -111c42 1 78 -5 112 -19c49 -20 97 -44 132 -44c30 0 38 11 38 26s-3 28 -7 38c-4 7 -2 17 3 24c13 18 31 27 44 27c16 0 26 -17 26 -41c0 -50 -49 -101 -85 -127c-35 -26 -69 -37 -103 -37c-45 0 -97 33 -143 59
c-30 17 -46 21 -64 21c-14 0 -27 -15 -32 -42c-3 -11 -8 -16 -15 -16c-18 0 -37 16 -28 47c8 27 43 63 64 91c26 35 36 68 38 104h-96v42h95c-2 20 -6 38 -10 61h-85v42h80c-1 10 -2 24 -2 37c0 53 25 122 96 172c35 25 72 42 112 44c51 0 84 -22 99 -38
c11 -12 13 -29 3 -46c-7 -12 -17 -21 -25 -26c-9 -6 -21 -7 -34 2c-31 24 -62 50 -96 50c-30 0 -43 -20 -43 -63c0 -39 13 -91 22 -132h165v-42h-157c5 -22 8 -41 8 -61h149z" />
    <glyph glyph-name="numbersign.fitted" unicode="&#xe0b3;" horiz-adv-x="496" 
d="M480 469l-12 -82h-103l-29 -121h91l-12 -82h-99l-40 -169h-49l40 169h-96l-41 -169h-50l40 169h-104l11 82h113l29 121h-99l10 82h108l35 145h51l-35 -145h96l35 145h49l-34 -145h95zM316 387h-96l-30 -121h97z" />
    <glyph glyph-name="zero.taboldstyle" unicode="&#xf643;" horiz-adv-x="523" 
d="M262 458h1c129 0 225 -100 225 -233c1 -141 -99 -237 -226 -237c-134 0 -227 103 -226 235c0 137 100 235 226 235zM262 401h-1c-57 0 -105 -62 -105 -178c0 -120 50 -178 107 -178s106 63 106 178s-49 178 -107 178z" />
    <glyph glyph-name="one.taboldstyle" unicode="&#xf644;" horiz-adv-x="523" 
d="M438 0h-335v34l56 6c44 4 48 21 48 71v205c0 44 -4 55 -40 57l-55 2v32c69 8 141 26 221 51v-347c0 -50 5 -66 49 -71l56 -6v-34z" />
    <glyph glyph-name="two.taboldstyle" unicode="&#xf645;" horiz-adv-x="523" 
d="M482 137l-36 -137h-386v27c83 53 230 138 230 251c0 50 -27 92 -89 92c-51 0 -86 -37 -115 -78l-28 22l59 86c33 33 76 57 139 57c98 0 165 -62 165 -146c0 -64 -33 -111 -139 -180c-17 -11 -36 -23 -54 -35v-2h128c54 0 68 2 94 53z" />
    <glyph glyph-name="three.taboldstyle" unicode="&#xf646;" horiz-adv-x="523" 
d="M293 213v-2c95 -12 145 -75 145 -143c0 -164 -211 -232 -267 -232c-42 0 -84 18 -102 35c-12 10 -19 24 -14 42c5 13 15 29 29 38c10 8 21 7 29 -1c24 -21 69 -58 114 -58c43 0 81 36 81 124c0 90 -57 127 -105 127c-22 0 -42 -4 -59 -10l-8 33c83 33 139 68 139 135
c0 54 -34 82 -77 82c-40 0 -73 -31 -100 -67l-24 22l44 62c26 32 73 58 126 58h1c95 0 152 -52 152 -132c0 -26 -13 -48 -34 -66c-15 -13 -39 -29 -70 -47z" />
    <glyph glyph-name="four.taboldstyle" unicode="&#xf647;" horiz-adv-x="523" 
d="M498 87l-10 -67h-81v-177h-122v177h-250v43c72 108 222 304 297 395h75v-371h91zM285 87v245h-2c-56 -75 -108 -154 -167 -245h169z" />
    <glyph glyph-name="five.taboldstyle" unicode="&#xf648;" horiz-adv-x="523" 
d="M173 335l-15 -75c122 -2 270 -46 270 -191c0 -66 -34 -123 -106 -169c-67 -42 -168 -64 -243 -64l-4 37c75 12 230 51 230 170c0 90 -99 118 -208 117l41 272l289 26l-16 -101z" />
    <glyph glyph-name="six.taboldstyle" unicode="&#xf649;" horiz-adv-x="523" 
d="M466 609l7 -40c-33 -7 -73 -19 -108 -38c-41 -21 -133 -71 -174 -186l50 24c21 11 40 18 57 18c113 0 187 -75 187 -184c0 -116 -89 -215 -223 -215c-128 0 -220 93 -220 239c0 205 162 317 276 352c64 19 110 25 148 30zM246 319h-1c-21 0 -40 -5 -60 -14
c-5 -20 -6 -39 -6 -73c0 -128 50 -202 100 -202c58 0 77 62 77 133c0 89 -41 156 -110 156z" />
    <glyph glyph-name="seven.taboldstyle" unicode="&#xf64a;" horiz-adv-x="523" 
d="M470 447l11 -14c-54 -99 -212 -393 -309 -580l-100 -17l-7 14c132 181 238 352 320 492h-322v105h407z" />
    <glyph glyph-name="eight.taboldstyle" unicode="&#xf64b;" horiz-adv-x="523" 
d="M267 609h1c107 0 176 -66 176 -148c0 -25 -10 -49 -28 -67c-11 -11 -35 -30 -76 -55c69 -37 131 -82 131 -173c0 -116 -119 -178 -215 -178c-116 0 -203 59 -203 163c0 41 22 69 41 86c19 18 59 40 86 54c-59 32 -107 81 -107 149c0 91 81 169 194 169zM257 570h-1
c-42 0 -73 -39 -73 -84c0 -56 47 -90 126 -130c15 16 34 48 34 101c0 82 -49 113 -86 113zM267 26h1c54 0 87 39 85 98c-2 71 -59 108 -144 151c-24 -23 -45 -65 -45 -117c0 -89 54 -132 103 -132z" />
    <glyph glyph-name="nine.taboldstyle" unicode="&#xf64c;" horiz-adv-x="523" 
d="M266 458h1c142 0 214 -110 214 -239c0 -198 -134 -307 -277 -353c-42 -13 -130 -29 -173 -30l-6 34c141 29 271 120 302 229l-37 -16c-24 -10 -41 -16 -55 -16c-122 0 -195 77 -195 178c0 96 79 213 226 213zM248 418h-1c-52 0 -74 -68 -74 -127c0 -93 49 -161 120 -161
c19 0 31 5 43 10c6 23 8 48 8 87c0 91 -25 191 -96 191z" />
    <glyph glyph-name="dollar.taboldstyle" unicode="&#xf653;" horiz-adv-x="523" 
d="M284 286l19 -5c102 -26 163 -64 163 -144c0 -85 -74 -137 -182 -147v-79h-40v78c-73 1 -138 25 -157 37c-7 19 -20 65 -30 126l35 10c20 -51 71 -125 152 -134v150l-28 8c-90 23 -145 61 -145 133c0 76 62 134 173 144v68h40v-66c39 -1 84 -8 126 -25
c8 -29 16 -61 23 -116l-36 -8c-15 50 -46 100 -113 109v-139zM244 295v130c-55 -3 -79 -34 -79 -63c0 -36 29 -54 79 -67zM284 167v-138c39 4 78 27 78 67c0 30 -18 54 -78 71z" />
    <glyph glyph-name="cent.taboldstyle" unicode="&#xf654;" horiz-adv-x="523" 
d="M449 144l22 -26c-35 -48 -85 -89 -143 -100v-97h-40v94c-142 5 -222 102 -222 202c0 72 38 139 100 183c38 27 84 44 122 51v82h40v-78c9 1 13 1 17 1c33 0 72 -7 95 -23c11 -9 15 -20 15 -31c0 -31 -25 -53 -39 -53c-4 0 -8 0 -17 10c-25 27 -48 45 -71 49v-314
c53 0 95 26 121 50zM288 101v310c-41 -2 -106 -38 -106 -144c0 -103 54 -152 106 -166z" />
    <glyph glyph-name="Euro.taboldstyle" unicode="&#xf64e;" horiz-adv-x="523" 
d="M465 138l32 -10c-10 -38 -26 -93 -40 -119c-20 -6 -75 -21 -118 -21c-161 0 -235 86 -254 213h-62l14 40h44c-1 17 1 36 4 56h-44l14 40h36c30 131 132 204 266 204c54 0 98 -16 116 -21c6 -39 9 -73 14 -119l-32 -7c-18 64 -52 107 -104 107c-66 0 -104 -65 -120 -164
h235l-14 -40h-225c-1 -17 -3 -39 -1 -56h211l-14 -40h-193c12 -105 48 -173 119 -173c48 1 74 32 116 110z" />
    <glyph glyph-name="florin.taboldstyle" unicode="&#xf64f;" horiz-adv-x="523" 
d="M186 308l5 27c13 75 51 127 101 166c59 48 103 54 128 54c29 0 63 -15 62 -47c0 -30 -28 -59 -48 -59c-18 0 -39 57 -65 57c-12 0 -20 -8 -24 -24c-5 -18 -8 -59 -25 -174h101v-46h-107l-16 -102c-30 -183 -98 -238 -156 -276c-30 -19 -61 -29 -86 -29
c-28 0 -54 20 -54 46c0 29 30 56 44 56c19 0 45 -45 66 -45c11 0 19 11 22 25c5 20 10 49 19 118l26 207h-81v46h88z" />
    <glyph glyph-name="sterling.taboldstyle" unicode="&#xf651;" horiz-adv-x="523" 
d="M395 241h-138c0 -5 -1 -9 -1 -13c-5 -44 -38 -88 -94 -119c40 3 73 1 110 -16c35 -16 78 -41 113 -41c22 0 31 11 31 28c0 12 -2 25 -6 35c-3 7 1 17 6 23c13 15 28 26 40 26c18 0 27 -21 27 -39c0 -47 -46 -97 -83 -123c-30 -22 -62 -34 -93 -34c-43 0 -100 34 -138 55
c-25 14 -39 22 -57 22c-15 0 -29 -17 -33 -37c-3 -9 -8 -15 -16 -15c-17 0 -35 17 -27 42c8 24 37 56 54 76c27 34 36 65 36 92c0 16 -1 28 -3 38h-85v44h78c-4 23 -5 40 -5 57c0 50 31 116 94 157c33 21 70 35 107 36c43 0 79 -14 100 -35c11 -12 12 -30 5 -44
c-6 -10 -16 -22 -26 -29s-21 -10 -32 0c-34 30 -70 56 -99 56c-26 0 -38 -19 -38 -48c0 -42 22 -100 31 -150h142v-44z" />
    <glyph glyph-name="yen.taboldstyle" unicode="&#xf652;" horiz-adv-x="523" 
d="M499 534v-35c-43 -5 -57 -19 -83 -57c-21 -31 -50 -81 -84 -142h113v-40h-124v-20v-48h125v-39h-125v-37c0 -65 12 -77 77 -82v-34h-278v34c68 4 74 18 74 86v33h-123v39h123v31v37h-123v40h109c-16 39 -37 87 -69 147c-19 35 -31 43 -77 53v34h238v-35l-20 -4
c-19 -5 -20 -16 -16 -27c15 -37 41 -101 62 -149c28 49 51 100 66 131c14 30 9 38 -22 46l-18 3v35h175z" />
    <glyph glyph-name="colonmonetary.taboldstyle" unicode="&#xf64d;" horiz-adv-x="525" 
d="M459 138l31 -12c-10 -40 -26 -90 -38 -115c-20 -6 -76 -20 -119 -21l-9 -58h-34l10 60c-22 1 -35 3 -47 7l-12 -67h-33l12 75c-132 39 -179 142 -179 252c0 166 125 262 264 273l10 57h33l-8 -55h7c13 0 26 -2 42 -4l9 59h33l-11 -64c18 -3 38 -8 57 -12
c5 -41 8 -73 11 -115l-32 -6c-10 37 -18 66 -43 82l-75 -447c59 5 85 43 121 111zM305 28l77 461c-17 7 -30 8 -47 8l-76 -451c14 -10 27 -15 46 -18zM230 71l69 423c-72 -17 -118 -115 -118 -233c0 -90 20 -157 49 -190z" />
    <glyph glyph-name="franc.taboldstyle" unicode="&#xe0a2;" horiz-adv-x="523" 
d="M472 401l-32 -6c-9 31 -16 50 -32 67c-14 18 -29 24 -78 24h-35c-24 0 -30 -5 -30 -28v-149c115 0 138 4 173 9v-66c-37 6 -62 9 -173 9v-81h117v-43h-117v-30c0 -65 8 -67 82 -73v-34h-282v34c62 7 71 8 71 73v30h-70v43h70v238c0 65 -8 71 -71 77v34h397
c1 -14 5 -72 10 -128z" />
    <glyph glyph-name="lira.taboldstyle" unicode="&#xe0a8;" horiz-adv-x="523" 
d="M400 196h-154c-11 -24 -33 -59 -80 -86c37 3 66 2 113 -17c36 -15 76 -40 109 -40c22 0 32 12 32 29c0 12 -4 25 -8 34c-3 7 1 18 6 24c12 16 30 26 42 26c17 0 27 -22 27 -40c0 -46 -46 -97 -83 -124c-31 -22 -59 -34 -89 -34c-43 0 -103 35 -139 54
c-28 16 -44 23 -61 23c-15 0 -27 -16 -33 -36c-2 -10 -9 -15 -17 -15c-17 0 -33 16 -25 42c8 24 37 56 54 77c22 27 32 60 33 83h-89v40h88c-1 14 -3 30 -5 54h-83v40h79c-1 9 -1 18 -1 26c0 45 30 107 94 148c32 21 70 35 106 37c44 0 80 -15 98 -34c14 -14 15 -31 7 -46
c-6 -11 -16 -23 -26 -30s-20 -10 -32 0c-34 30 -71 53 -100 53c-26 0 -36 -19 -36 -48c0 -32 13 -78 20 -106h153v-40h-146c3 -20 4 -39 2 -54h144v-40z" />
    <glyph glyph-name="numbersign.taboldstyle" unicode="&#xf650;" horiz-adv-x="523" 
d="M485 383l-12 -83h-94l-29 -121h82l-12 -84h-90l-40 -167h-49l40 167h-96l-41 -167h-50l41 167h-94l11 84h102l29 121h-87l10 83h97l34 144h51l-35 -144h97l34 144h49l-34 -144h86zM330 300h-96l-29 -121h96z" />
    <glyph glyph-name="a.superior" unicode="&#xf6e9;" horiz-adv-x="335" 
d="M318 307l-74 -36c-35 0 -50 21 -57 36c-23 -16 -55 -36 -73 -36c-50 0 -86 40 -86 80c0 32 18 52 56 66c26 10 80 25 101 39v16c0 28 -17 46 -39 46s-34 -23 -43 -53c-5 -15 -14 -21 -27 -21c-19 0 -43 15 -43 35c0 12 7 21 23 32c19 12 63 36 113 45c53 0 99 -26 99 -90
v-106c0 -27 10 -35 21 -35c9 0 16 2 23 5zM185 334v92c-10 -5 -27 -13 -38 -19c-19 -10 -28 -20 -28 -39c0 -31 24 -43 38 -43c11 0 19 3 28 9z" />
    <glyph glyph-name="b.superior" unicode="&#xf6ea;" horiz-adv-x="385" 
d="M153 534l23 9c21 8 35 13 49 13c77 0 133 -61 133 -129c0 -90 -78 -156 -177 -156c-42 0 -75 6 -119 25v325c1 36 -2 39 -43 43v27c33 3 86 12 134 22v-179zM153 506v-153c0 -9 1 -18 5 -25c4 -6 18 -23 40 -24c25 0 63 35 63 105c0 77 -48 101 -82 101
c-11 0 -16 -1 -26 -4z" />
    <glyph glyph-name="d.superior" unicode="&#xf6eb;" horiz-adv-x="392" 
d="M375 321v-27c-23 -2 -88 -10 -139 -25v34l-39 -22c-10 -6 -21 -10 -30 -10c-59 0 -140 44 -140 134c0 84 77 151 181 151c6 0 17 -1 28 -4v71c0 34 -2 36 -46 43v25c34 3 89 12 137 22v-359c0 -26 4 -29 21 -30zM236 333v155c-11 27 -29 35 -45 35
c-18 0 -63 -13 -63 -103c0 -73 42 -99 71 -99c12 0 23 5 37 12z" />
    <glyph glyph-name="e.superior" unicode="&#xf6ec;" horiz-adv-x="316" 
d="M182 556h1c60 0 110 -47 110 -102c0 -19 -3 -24 -17 -27c-8 -1 -99 -7 -162 -9c0 -50 43 -85 90 -85c26 0 48 7 75 25l13 -20c-44 -56 -97 -67 -121 -67c-91 0 -143 59 -144 132c-2 78 63 153 155 153zM117 450l80 2c10 0 13 4 13 17c0 24 -21 57 -42 57h-1
c-22 0 -47 -27 -50 -76z" />
    <glyph glyph-name="egrave.superior" unicode="&#xe090;" horiz-adv-x="316" 
d="M199 586l-24 -9c-34 37 -72 76 -91 97l3 8c9 7 62 15 75 13c13 -37 25 -73 37 -109zM182 556h1c60 0 110 -47 110 -102c0 -19 -3 -24 -17 -27c-8 -1 -99 -7 -162 -9c0 -50 43 -85 90 -85c26 0 48 7 75 25l13 -20c-44 -56 -97 -67 -121 -67c-91 0 -143 59 -144 132
c-2 78 63 153 155 153zM117 450l80 2c10 0 13 4 13 17c0 24 -21 57 -42 57h-1c-22 0 -47 -27 -50 -76z" />
    <glyph glyph-name="g.superior" unicode="&#xe0a3;" horiz-adv-x="346" 
d="M343 546l4 -4c-5 -10 -17 -33 -30 -40l-37 3c10 -13 17 -26 17 -46c0 -68 -69 -98 -134 -98c-11 0 -22 1 -32 2c-5 -4 -9 -9 -9 -16c0 -11 10 -20 42 -19c22 0 41 1 63 1c44 0 108 -17 108 -80c0 -71 -90 -126 -186 -126c-86 0 -130 42 -130 75c0 14 7 25 21 35
c16 12 36 20 53 29c-28 9 -44 21 -53 34c-7 11 -10 25 -10 33c35 13 60 29 72 41c-40 12 -69 46 -69 83c0 68 75 103 135 103c29 0 53 -5 78 -17c35 1 70 5 97 7zM164 530h-1c-19 0 -37 -23 -37 -67c0 -42 14 -75 45 -75c25 0 39 23 39 67c0 29 -9 75 -46 75zM169 258h-1
c-31 0 -45 -3 -55 -12c-9 -9 -15 -17 -15 -29c0 -29 33 -57 86 -57c50 0 79 24 79 55c0 22 -16 33 -37 37c-19 5 -36 6 -57 6z" />
    <glyph glyph-name="h.superior" unicode="&#xf637;" horiz-adv-x="407" 
d="M382 278h-166v26c33 7 35 12 35 47v98c0 40 -22 54 -47 54c-19 0 -34 -8 -48 -20v-132c0 -35 4 -40 31 -47v-26h-165v26c39 6 43 11 43 46v272c0 38 -1 40 -43 45v25c31 3 87 12 134 22v-200l35 23c23 14 38 20 60 20c57 0 91 -35 91 -92v-114c0 -35 3 -40 40 -47v-26z
" />
    <glyph glyph-name="i.superior" unicode="&#xf6ed;" horiz-adv-x="219" 
d="M106 704h1c29 0 51 -24 51 -53c0 -28 -22 -52 -52 -52c-28 0 -52 24 -52 52c0 29 24 53 52 53zM196 278h-171v27c38 4 41 11 41 44v121c0 32 -2 38 -40 42v24c41 4 86 12 127 21h5v-206c0 -35 4 -40 38 -46v-27z" />
    <glyph glyph-name="l.superior" unicode="&#xf6ee;" horiz-adv-x="219" 
d="M200 278h-178v27c40 6 43 11 43 46v272c0 36 -2 41 -43 45v25c31 3 87 12 134 22v-364c0 -35 3 -40 44 -46v-27z" />
    <glyph glyph-name="m.superior" unicode="&#xf6ef;" horiz-adv-x="598" 
d="M571 278h-166v26c33 8 35 10 35 47v96c0 39 -20 56 -46 56c-17 0 -34 -6 -50 -20c0 -6 1 -12 1 -22v-110c0 -35 6 -40 31 -47v-26h-157v26c32 7 34 12 34 47v99c0 38 -20 53 -46 53c-18 0 -33 -9 -48 -20v-132c0 -35 5 -40 31 -47v-26h-169v26c43 7 46 12 46 47v114
c0 37 -4 40 -41 46v25c39 4 87 12 129 21h4v-45l35 24c23 15 38 21 62 21c39 0 68 -18 81 -47l44 28c21 13 37 19 58 19c58 0 92 -35 92 -97v-109c0 -35 4 -40 40 -47v-26z" />
    <glyph glyph-name="n.superior" unicode="&#x207f;" horiz-adv-x="410" 
d="M385 278h-166v26c33 7 35 12 35 47v97c0 40 -22 55 -47 55c-19 0 -34 -8 -48 -20v-132c0 -35 4 -40 31 -47v-26h-169v26c43 7 47 12 47 46v115c0 37 -2 40 -41 46v25c40 4 88 13 127 21h5v-44l35 23c23 14 38 21 60 21c57 0 91 -35 91 -91v-115c0 -35 3 -40 40 -47v-26z
" />
    <glyph glyph-name="o.superior" unicode="&#xf6f0;" horiz-adv-x="369" 
d="M188 556h1c95 0 154 -67 153 -142c-2 -94 -74 -143 -158 -143c-106 0 -160 68 -158 140c2 92 86 145 162 145zM179 522h-1c-23 0 -46 -27 -48 -99c-1 -68 24 -119 59 -119c23 0 48 19 50 94c2 78 -21 124 -60 124z" />
    <glyph glyph-name="r.superior" unicode="&#xf6f1;" horiz-adv-x="292" 
d="M153 498h2c7 13 15 26 28 38c11 12 26 21 44 21c25 0 46 -18 46 -45c0 -26 -16 -43 -33 -48c-9 -4 -16 -2 -21 2c-11 9 -22 17 -34 17c-11 0 -24 -7 -32 -27v-105c0 -36 4 -41 55 -46v-27h-187v26c43 6 45 11 45 47v114c0 39 1 37 -40 47v24c39 4 82 12 126 21h1v-59z
" />
    <glyph glyph-name="s.superior" unicode="&#xf6f2;" horiz-adv-x="289" 
d="M247 473l-23 -7c-25 40 -47 59 -72 59s-39 -12 -39 -30c0 -15 22 -29 50 -38c49 -17 99 -39 99 -93c0 -65 -67 -93 -130 -93c-35 0 -82 16 -95 27c-5 17 -10 58 -10 78l24 5c17 -37 48 -78 88 -78c19 0 38 11 38 30c0 18 -21 32 -52 45c-35 13 -88 36 -88 87
c0 50 43 91 122 92c28 0 54 -7 70 -14c9 -14 17 -61 18 -70z" />
    <glyph glyph-name="t.superior" unicode="&#xf6f3;" horiz-adv-x="250" 
d="M233 305l-62 -27c-10 -5 -21 -7 -31 -7c-42 0 -75 21 -75 78v162h-40l-5 9l21 29h24v43l80 51l10 -6v-88h65c9 -6 7 -34 -6 -38h-59v-135c0 -45 20 -53 34 -53c13 0 26 4 37 9z" />
    <glyph glyph-name="zero.superior" unicode="&#x2070;" horiz-adv-x="348" 
d="M174 756h1c108 0 148 -96 148 -182c0 -89 -40 -183 -149 -183s-149 93 -149 183c0 86 40 182 149 182zM174 721h-1c-40 0 -48 -97 -48 -147s8 -149 49 -149c40 0 49 99 49 149s-9 147 -49 147z" />
    <glyph glyph-name="one.superior" unicode="&#xb9;" horiz-adv-x="348" 
d="M289 398h-218v29c49 5 60 14 60 65v154c0 38 -2 46 -35 49l-25 2v29c46 4 103 14 158 30v-264c0 -51 10 -60 60 -65v-29z" />
    <glyph glyph-name="two.superior" unicode="&#xb2;" horiz-adv-x="348" 
d="M295 507l26 -8c-12 -34 -19 -67 -27 -101h-258v26c64 49 158 131 158 200c0 42 -21 66 -57 66c-35 0 -63 -25 -81 -50l-21 20l34 49c23 29 66 47 103 47c69 0 122 -42 122 -110c0 -49 -33 -83 -109 -143l-43 -34v-2h90c35 0 44 5 63 40z" />
    <glyph glyph-name="three.superior" unicode="&#xb3;" horiz-adv-x="348" 
d="M208 606v-2c64 -9 97 -39 97 -82c0 -90 -130 -131 -182 -131c-31 0 -63 12 -74 21c-8 8 -12 20 -7 33c6 15 16 25 25 31c6 3 15 3 23 -3c22 -19 50 -42 75 -42c21 0 44 18 44 66c0 50 -31 69 -66 69c-16 0 -30 -3 -40 -6l-7 29c55 18 86 42 86 69c0 23 -19 39 -44 39
c-30 0 -54 -21 -70 -39l-18 18l34 45c18 18 51 35 90 35h1c68 0 105 -39 105 -79c0 -16 -9 -32 -19 -41c-10 -7 -29 -19 -53 -30z" />
    <glyph glyph-name="four.superior" unicode="&#x2074;" horiz-adv-x="348" 
d="M322 495h-55v-20c0 -33 9 -46 51 -50v-27h-202v27c53 4 60 16 60 50v20h-155v28c64 86 123 162 185 233h61v-216h55v-45zM176 540v129h-1c-31 -40 -58 -78 -93 -129h94z" />
    <glyph glyph-name="five.superior" unicode="&#x2075;" horiz-adv-x="348" 
d="M120 679l-15 -72c23 8 59 16 79 16c82 0 122 -44 122 -96c0 -35 -19 -68 -61 -95c-36 -23 -83 -41 -127 -41c-22 -1 -52 11 -63 20c-11 8 -14 19 -10 31s13 25 22 30c9 7 18 7 28 -2c12 -11 42 -38 70 -38c30 0 45 27 45 59c0 51 -36 78 -86 78c-24 0 -46 -6 -64 -11
l27 191h204l-16 -70h-155z" />
    <glyph glyph-name="six.superior" unicode="&#x2076;" horiz-adv-x="348" 
d="M133 604l29 13c15 7 26 11 39 11c72 0 117 -44 117 -108c0 -72 -60 -129 -145 -129c-81 0 -143 52 -143 141c0 119 91 185 160 207c37 12 68 16 104 20l6 -31c-20 -4 -42 -10 -65 -20c-32 -13 -84 -42 -102 -104zM164 582h-1c-9 0 -22 -2 -34 -8c-4 -13 -4 -21 -4 -43
c0 -70 29 -107 58 -107c33 0 44 32 44 72c0 49 -26 86 -63 86z" />
    <glyph glyph-name="seven.superior" unicode="&#x2077;" horiz-adv-x="348" 
d="M307 749l5 -11c-58 -112 -118 -227 -175 -340l-65 -7l-6 11c63 93 123 186 175 278h-115c-42 0 -47 -3 -63 -37h-27c8 54 12 82 15 106h256z" />
    <glyph glyph-name="eight.superior" unicode="&#x2078;" horiz-adv-x="348" 
d="M176 756h1c70 0 116 -37 116 -85c0 -13 -5 -31 -17 -43c-9 -8 -21 -17 -46 -31c38 -16 81 -44 81 -97c0 -73 -77 -109 -144 -109c-71 0 -135 34 -135 97c0 23 12 39 28 52c13 12 33 22 47 29c-33 19 -63 44 -63 86c0 55 52 101 132 101zM168 724h-1
c-28 0 -42 -21 -42 -41c0 -30 31 -51 78 -71c8 7 20 28 20 49c0 45 -34 63 -55 63zM175 423h1c33 0 52 26 52 49c-1 38 -35 57 -92 82c-12 -10 -27 -32 -27 -61c0 -44 33 -70 66 -70z" />
    <glyph glyph-name="nine.superior" unicode="&#x2079;" horiz-adv-x="348" 
d="M175 756h1c92 0 137 -68 137 -149c0 -94 -56 -165 -147 -199c-29 -11 -82 -19 -114 -20l-4 28c89 17 152 71 166 130l-29 -14c-13 -6 -23 -10 -33 -10c-76 0 -118 49 -118 108s51 126 141 126zM164 724h-1c-26 0 -41 -31 -41 -73c0 -49 31 -82 66 -82c11 0 22 4 30 7
c2 17 3 28 3 38c0 54 -16 110 -57 110z" />
    <glyph glyph-name="period.superior" unicode="&#xf6e8;" horiz-adv-x="187" 
d="M93 367h-1c-32 0 -63 25 -63 64c0 38 28 66 64 66c39 0 65 -31 65 -66c0 -37 -26 -64 -65 -64z" />
    <glyph glyph-name="comma.superior" unicode="&#xf6e2;" horiz-adv-x="187" 
d="M74 518h1c38 0 92 -33 92 -104c0 -73 -70 -116 -133 -132l-13 31c44 19 67 43 67 76c0 27 -21 48 -54 56c-5 1 -12 11 -12 31c0 24 24 42 52 42z" />
    <glyph glyph-name="dollar.superior" unicode="&#xf6e4;" horiz-adv-x="348" 
d="M190 619l16 -5c68 -18 112 -49 112 -108c0 -66 -56 -104 -128 -112v-57h-31v55c-52 2 -98 21 -112 30c-4 14 -13 48 -18 96l26 7c11 -39 51 -92 104 -99v108l-16 5c-68 20 -107 52 -107 106c0 57 45 102 123 109v51h31v-50c25 0 55 -5 88 -21c7 -21 12 -47 16 -85l-28 -5
c-12 33 -34 72 -76 78v-103zM159 628v94c-36 -2 -55 -20 -55 -46c0 -27 24 -39 55 -48zM190 526v-100c32 3 54 17 54 46c0 24 -8 38 -54 54z" />
    <glyph glyph-name="cent.superior" unicode="&#xf6e0;" horiz-adv-x="348" 
d="M300 516l15 -23c-25 -35 -61 -57 -96 -63v-60h-31v57c-105 5 -154 72 -154 140c0 50 23 92 63 121c26 19 57 32 91 37v48h31v-46h10c22 0 49 -6 64 -16c9 -6 11 -14 11 -21c0 -20 -20 -33 -27 -33c-4 0 -7 2 -12 7c-16 13 -28 24 -46 28v-208c31 0 59 12 81 32zM188 488
v205c-26 -1 -69 -28 -69 -102c0 -66 38 -96 69 -103z" />
    <glyph glyph-name="hyphen.superior" unicode="&#xf6e6;" horiz-adv-x="268" 
d="M236 533h-204v60h204v-60z" />
    <glyph glyph-name="parenleft.superior" unicode="&#x207d;" horiz-adv-x="237" 
d="M208 301l-18 -21c-104 58 -154 164 -154 275v1c0 110 50 216 154 274l18 -21c-39 -38 -89 -135 -89 -254c0 -115 50 -215 89 -254z" />
    <glyph glyph-name="parenright.superior" unicode="&#x207e;" horiz-adv-x="237" 
d="M201 555v-1c0 -110 -49 -216 -154 -274l-18 21c40 38 90 139 90 254c0 119 -51 215 -90 254l18 21c105 -58 154 -164 154 -275z" />
    <glyph glyph-name="zero.inferior" unicode="&#x2080;" horiz-adv-x="348" 
d="M174 260h1c108 0 148 -96 148 -182c0 -89 -40 -183 -149 -183s-149 93 -149 183c0 86 40 182 149 182zM174 225h-1c-40 0 -48 -97 -48 -147s8 -149 49 -149c40 0 49 99 49 149s-9 147 -49 147z" />
    <glyph glyph-name="one.inferior" unicode="&#x2081;" horiz-adv-x="348" 
d="M289 -98h-218v29c49 5 60 14 60 65v154c0 38 -2 46 -35 49l-25 2v29c46 4 103 14 158 30v-264c0 -51 10 -60 60 -65v-29z" />
    <glyph glyph-name="two.inferior" unicode="&#x2082;" horiz-adv-x="348" 
d="M295 11l26 -8c-12 -34 -19 -67 -27 -101h-258v26c64 49 158 131 158 200c0 42 -21 66 -57 66c-35 0 -63 -25 -81 -50l-21 20l34 49c23 29 66 47 103 47c69 0 122 -42 122 -110c0 -49 -33 -83 -109 -143l-43 -34v-2h90c35 0 44 5 63 40z" />
    <glyph glyph-name="three.inferior" unicode="&#x2083;" horiz-adv-x="348" 
d="M208 110v-2c64 -9 97 -39 97 -82c0 -90 -130 -131 -182 -131c-31 0 -63 12 -74 21c-8 8 -12 20 -7 33c6 15 16 25 25 31c6 3 15 3 23 -3c22 -19 50 -42 75 -42c21 0 44 18 44 66c0 50 -31 69 -66 69c-16 0 -30 -3 -40 -6l-7 29c55 18 86 42 86 69c0 23 -19 39 -44 39
c-30 0 -54 -21 -70 -39l-18 18l34 45c18 18 51 35 90 35h1c68 0 105 -39 105 -79c0 -16 -9 -32 -19 -41c-10 -7 -29 -19 -53 -30z" />
    <glyph glyph-name="four.inferior" unicode="&#x2084;" horiz-adv-x="348" 
d="M322 -1h-55v-20c0 -33 9 -46 51 -50v-27h-202v27c53 4 60 16 60 50v20h-155v28c64 86 123 162 185 233h61v-216h55v-45zM176 44v129h-1c-31 -40 -58 -78 -93 -129h94z" />
    <glyph glyph-name="five.inferior" unicode="&#x2085;" horiz-adv-x="348" 
d="M120 183l-15 -72c23 8 59 16 79 16c82 0 122 -44 122 -96c0 -35 -19 -68 -61 -95c-36 -23 -83 -41 -127 -41c-22 -1 -52 11 -63 20c-11 8 -14 19 -10 31s13 25 22 30c9 7 18 7 28 -2c12 -11 42 -38 70 -38c30 0 45 27 45 59c0 51 -36 78 -86 78c-24 0 -46 -6 -64 -11
l27 191h204l-16 -70h-155z" />
    <glyph glyph-name="six.inferior" unicode="&#x2086;" horiz-adv-x="348" 
d="M133 108l29 13c15 7 26 11 39 11c72 0 117 -44 117 -108c0 -72 -60 -129 -145 -129c-81 0 -143 52 -143 141c0 119 91 185 160 207c37 12 68 16 104 20l6 -31c-20 -4 -42 -10 -65 -20c-32 -13 -84 -42 -102 -104zM164 86h-1c-9 0 -22 -2 -34 -8c-4 -13 -4 -21 -4 -43
c0 -70 29 -107 58 -107c33 0 44 32 44 72c0 49 -26 86 -63 86z" />
    <glyph glyph-name="seven.inferior" unicode="&#x2087;" horiz-adv-x="348" 
d="M307 253l5 -11c-58 -112 -118 -227 -175 -340l-65 -7l-6 11c63 93 123 186 175 278h-115c-42 0 -47 -3 -63 -37h-27c8 54 12 82 15 106h256z" />
    <glyph glyph-name="eight.inferior" unicode="&#x2088;" horiz-adv-x="348" 
d="M176 260h1c70 0 116 -37 116 -85c0 -13 -5 -31 -17 -43c-9 -8 -21 -17 -46 -31c38 -16 81 -44 81 -97c0 -73 -77 -109 -144 -109c-71 0 -135 34 -135 97c0 23 12 39 28 52c13 12 33 22 47 29c-33 19 -63 44 -63 86c0 55 52 101 132 101zM168 228h-1
c-28 0 -42 -21 -42 -41c0 -30 31 -51 78 -71c8 7 20 28 20 49c0 45 -34 63 -55 63zM175 -73h1c33 0 52 26 52 49c-1 38 -35 57 -92 82c-12 -10 -27 -32 -27 -61c0 -44 33 -70 66 -70z" />
    <glyph glyph-name="nine.inferior" unicode="&#x2089;" horiz-adv-x="348" 
d="M175 260h1c92 0 137 -68 137 -149c0 -94 -56 -165 -147 -199c-29 -11 -82 -19 -114 -20l-4 28c89 17 152 71 166 130l-29 -14c-13 -6 -23 -10 -33 -10c-76 0 -118 49 -118 108s51 126 141 126zM164 228h-1c-26 0 -41 -31 -41 -73c0 -49 31 -82 66 -82c11 0 22 4 30 7
c2 17 3 28 3 38c0 54 -16 110 -57 110z" />
    <glyph glyph-name="period.inferior" unicode="&#xf6e7;" horiz-adv-x="187" 
d="M93 -129h-1c-32 0 -63 25 -63 64c0 38 28 66 64 66c39 0 65 -31 65 -66c0 -37 -26 -64 -65 -64z" />
    <glyph glyph-name="comma.inferior" unicode="&#xf6e1;" horiz-adv-x="187" 
d="M74 22h1c38 0 92 -33 92 -104c0 -73 -70 -116 -133 -132l-13 31c44 19 67 43 67 76c0 27 -21 48 -54 56c-5 1 -12 11 -12 31c0 24 24 42 52 42z" />
    <glyph glyph-name="dollar.inferior" unicode="&#xf6e3;" horiz-adv-x="348" 
d="M190 123l16 -5c68 -18 112 -49 112 -108c0 -66 -56 -104 -128 -112v-57h-31v55c-52 2 -98 21 -112 30c-4 14 -13 48 -18 96l26 7c11 -39 51 -92 104 -99v108l-16 5c-68 20 -107 52 -107 106c0 57 45 102 123 109v51h31v-50c25 0 55 -5 88 -21c7 -21 12 -47 16 -85l-28 -5
c-12 33 -34 72 -76 78v-103zM159 132v94c-36 -2 -55 -20 -55 -46c0 -27 24 -39 55 -48zM190 30v-100c32 3 54 17 54 46c0 24 -8 38 -54 54z" />
    <glyph glyph-name="cent.inferior" unicode="&#xf6df;" horiz-adv-x="348" 
d="M300 20l15 -23c-25 -35 -61 -57 -96 -63v-60h-31v57c-105 5 -154 72 -154 140c0 50 23 92 63 121c26 19 57 32 91 37v48h31v-46h10c22 0 49 -6 64 -16c9 -6 11 -14 11 -21c0 -20 -20 -33 -27 -33c-4 0 -7 2 -12 7c-16 13 -28 24 -46 28v-208c31 0 59 12 81 32zM188 -8
v205c-26 -1 -69 -28 -69 -102c0 -66 38 -96 69 -103z" />
    <glyph glyph-name="hyphen.inferior" unicode="&#xf6e5;" horiz-adv-x="268" 
d="M236 37h-204v60h204v-60z" />
    <glyph glyph-name="parenleft.inferior" unicode="&#x208d;" horiz-adv-x="237" 
d="M208 -195l-18 -21c-104 58 -154 164 -154 275v1c0 110 50 216 154 274l18 -21c-39 -38 -89 -135 -89 -254c0 -115 50 -215 89 -254z" />
    <glyph glyph-name="parenright.inferior" unicode="&#x208e;" horiz-adv-x="237" 
d="M201 59v-1c0 -110 -49 -216 -154 -274l-18 21c40 38 90 139 90 254c0 119 -51 215 -90 254l18 21c105 -58 154 -164 154 -275z" />
    <glyph glyph-name="zero.numerator" unicode="&#xf661;" horiz-adv-x="348" 
d="M174 636h1c108 0 148 -96 148 -182c0 -89 -40 -183 -149 -183s-149 93 -149 183c0 86 40 182 149 182zM174 601h-1c-40 0 -48 -97 -48 -147s8 -149 49 -149c40 0 49 99 49 149s-9 147 -49 147z" />
    <glyph glyph-name="one.numerator" unicode="&#xf662;" horiz-adv-x="348" 
d="M289 278h-218v29c49 5 60 14 60 65v154c0 38 -2 46 -35 49l-25 2v29c46 4 103 14 158 30v-264c0 -51 10 -60 60 -65v-29z" />
    <glyph glyph-name="two.numerator" unicode="&#xf663;" horiz-adv-x="348" 
d="M295 387l26 -8c-12 -34 -19 -67 -27 -101h-258v26c64 49 158 131 158 200c0 42 -21 66 -57 66c-35 0 -63 -25 -81 -50l-21 20l34 49c23 29 66 47 103 47c69 0 122 -42 122 -110c0 -49 -33 -83 -109 -143l-43 -34v-2h90c35 0 44 5 63 40z" />
    <glyph glyph-name="three.numerator" unicode="&#xf664;" horiz-adv-x="348" 
d="M208 486v-2c64 -9 97 -39 97 -82c0 -90 -130 -131 -182 -131c-31 0 -63 12 -74 21c-8 8 -12 20 -7 33c6 15 16 25 25 31c6 3 15 3 23 -3c22 -19 50 -42 75 -42c21 0 44 18 44 66c0 50 -31 69 -66 69c-16 0 -30 -3 -40 -6l-7 29c55 18 86 42 86 69c0 23 -19 39 -44 39
c-30 0 -54 -21 -70 -39l-18 18l34 45c18 18 51 35 90 35h1c68 0 105 -39 105 -79c0 -16 -9 -32 -19 -41c-10 -7 -29 -19 -53 -30z" />
    <glyph glyph-name="four.numerator" unicode="&#xf665;" horiz-adv-x="348" 
d="M322 375h-55v-20c0 -33 9 -46 51 -50v-27h-202v27c53 4 60 16 60 50v20h-155v28c64 86 123 162 185 233h61v-216h55v-45zM176 420v129h-1c-31 -40 -58 -78 -93 -129h94z" />
    <glyph glyph-name="five.numerator" unicode="&#xf666;" horiz-adv-x="348" 
d="M120 559l-15 -72c23 8 59 16 79 16c82 0 122 -44 122 -96c0 -35 -19 -68 -61 -95c-36 -23 -83 -41 -127 -41c-22 -1 -52 11 -63 20c-11 8 -14 19 -10 31s13 25 22 30c9 7 18 7 28 -2c12 -11 42 -38 70 -38c30 0 45 27 45 59c0 51 -36 78 -86 78c-24 0 -46 -6 -64 -11
l27 191h204l-16 -70h-155z" />
    <glyph glyph-name="six.numerator" unicode="&#xf667;" horiz-adv-x="348" 
d="M133 484l29 13c15 7 26 11 39 11c72 0 117 -44 117 -108c0 -72 -60 -129 -145 -129c-81 0 -143 52 -143 141c0 119 91 185 160 207c37 12 68 16 104 20l6 -31c-20 -4 -42 -10 -65 -20c-32 -13 -84 -42 -102 -104zM164 462h-1c-9 0 -22 -2 -34 -8c-4 -13 -4 -21 -4 -43
c0 -70 29 -107 58 -107c33 0 44 32 44 72c0 49 -26 86 -63 86z" />
    <glyph glyph-name="seven.numerator" unicode="&#xf668;" horiz-adv-x="348" 
d="M307 629l5 -11c-58 -112 -118 -227 -175 -340l-65 -7l-6 11c63 93 123 186 175 278h-115c-42 0 -47 -3 -63 -37h-27c8 54 12 82 15 106h256z" />
    <glyph glyph-name="eight.numerator" unicode="&#xf669;" horiz-adv-x="348" 
d="M176 636h1c70 0 116 -37 116 -85c0 -13 -5 -31 -17 -43c-9 -8 -21 -17 -46 -31c38 -16 81 -44 81 -97c0 -73 -77 -109 -144 -109c-71 0 -135 34 -135 97c0 23 12 39 28 52c13 12 33 22 47 29c-33 19 -63 44 -63 86c0 55 52 101 132 101zM168 604h-1
c-28 0 -42 -21 -42 -41c0 -30 31 -51 78 -71c8 7 20 28 20 49c0 45 -34 63 -55 63zM175 303h1c33 0 52 26 52 49c-1 38 -35 57 -92 82c-12 -10 -27 -32 -27 -61c0 -44 33 -70 66 -70z" />
    <glyph glyph-name="nine.numerator" unicode="&#xf66a;" horiz-adv-x="348" 
d="M175 636h1c92 0 137 -68 137 -149c0 -94 -56 -165 -147 -199c-29 -11 -82 -19 -114 -20l-4 28c89 17 152 71 166 130l-29 -14c-13 -6 -23 -10 -33 -10c-76 0 -118 49 -118 108s51 126 141 126zM164 604h-1c-26 0 -41 -31 -41 -73c0 -49 31 -82 66 -82c11 0 22 4 30 7
c2 17 3 28 3 38c0 54 -16 110 -57 110z" />
    <glyph glyph-name="period.numerator" unicode="&#xf66c;" horiz-adv-x="187" 
d="M93 247h-1c-32 0 -63 25 -63 64c0 38 28 66 64 66c39 0 65 -31 65 -66c0 -37 -26 -64 -65 -64z" />
    <glyph glyph-name="comma.numerator" unicode="&#xf66b;" horiz-adv-x="187" 
d="M74 398h1c38 0 92 -33 92 -104c0 -73 -70 -116 -133 -132l-13 31c44 19 67 43 67 76c0 27 -21 48 -54 56c-5 1 -12 11 -12 31c0 24 24 42 52 42z" />
    <glyph glyph-name="dollar.numerator" unicode="&#xf62f;" horiz-adv-x="348" 
d="M190 499l16 -5c68 -18 112 -49 112 -108c0 -66 -56 -104 -128 -112v-57h-31v55c-52 2 -98 21 -112 30c-4 14 -13 48 -18 96l26 7c11 -39 51 -92 104 -99v108l-16 5c-68 20 -107 52 -107 106c0 57 45 102 123 109v51h31v-50c25 0 55 -5 88 -21c7 -21 12 -47 16 -85l-28 -5
c-12 33 -34 72 -76 78v-103zM159 508v94c-36 -2 -55 -20 -55 -46c0 -27 24 -39 55 -48zM190 406v-100c32 3 54 17 54 46c0 24 -8 38 -54 54z" />
    <glyph glyph-name="cent.numerator" unicode="&#xf62e;" horiz-adv-x="348" 
d="M300 396l15 -23c-25 -35 -61 -57 -96 -63v-60h-31v57c-105 5 -154 72 -154 140c0 50 23 92 63 121c26 19 57 32 91 37v48h31v-46h10c22 0 49 -6 64 -16c9 -6 11 -14 11 -21c0 -20 -20 -33 -27 -33c-4 0 -7 2 -12 7c-16 13 -28 24 -46 28v-208c31 0 59 12 81 32zM188 368
v205c-26 -1 -69 -28 -69 -102c0 -66 38 -96 69 -103z" />
    <glyph glyph-name="hyphen.numerator" unicode="&#xf630;" horiz-adv-x="268" 
d="M236 413h-204v60h204v-60z" />
    <glyph glyph-name="parenleft.numerator" unicode="&#xf631;" horiz-adv-x="237" 
d="M208 181l-18 -21c-104 58 -154 164 -154 275v1c0 110 50 216 154 274l18 -21c-39 -38 -89 -135 -89 -254c0 -115 50 -215 89 -254z" />
    <glyph glyph-name="parenright.numerator" unicode="&#xf632;" horiz-adv-x="237" 
d="M201 435v-1c0 -110 -49 -216 -154 -274l-18 21c40 38 90 139 90 254c0 119 -51 215 -90 254l18 21c105 -58 154 -164 154 -275z" />
    <glyph glyph-name="zero.denominator" unicode="&#xf655;" horiz-adv-x="348" 
d="M174 358h1c108 0 148 -96 148 -182c0 -89 -40 -183 -149 -183s-149 93 -149 183c0 86 40 182 149 182zM174 323h-1c-40 0 -48 -97 -48 -147s8 -149 49 -149c40 0 49 99 49 149s-9 147 -49 147z" />
    <glyph glyph-name="one.denominator" unicode="&#xf656;" horiz-adv-x="348" 
d="M289 0h-218v29c49 5 60 14 60 65v154c0 38 -2 46 -35 49l-25 2v29c46 4 103 14 158 30v-264c0 -51 10 -60 60 -65v-29z" />
    <glyph glyph-name="two.denominator" unicode="&#xf657;" horiz-adv-x="348" 
d="M295 109l26 -8c-12 -34 -19 -67 -27 -101h-258v26c64 49 158 131 158 200c0 42 -21 66 -57 66c-35 0 -63 -25 -81 -50l-21 20l34 49c23 29 66 47 103 47c69 0 122 -42 122 -110c0 -49 -33 -83 -109 -143l-43 -34v-2h90c35 0 44 5 63 40z" />
    <glyph glyph-name="three.denominator" unicode="&#xf658;" horiz-adv-x="348" 
d="M208 208v-2c64 -9 97 -39 97 -82c0 -90 -130 -131 -182 -131c-31 0 -63 12 -74 21c-8 8 -12 20 -7 33c6 15 16 25 25 31c6 3 15 3 23 -3c22 -19 50 -42 75 -42c21 0 44 18 44 66c0 50 -31 69 -66 69c-16 0 -30 -3 -40 -6l-7 29c55 18 86 42 86 69c0 23 -19 39 -44 39
c-30 0 -54 -21 -70 -39l-18 18l34 45c18 18 51 35 90 35h1c68 0 105 -39 105 -79c0 -16 -9 -32 -19 -41c-10 -7 -29 -19 -53 -30z" />
    <glyph glyph-name="four.denominator" unicode="&#xf659;" horiz-adv-x="348" 
d="M322 97h-55v-20c0 -33 9 -46 51 -50v-27h-202v27c53 4 60 16 60 50v20h-155v28c64 86 123 162 185 233h61v-216h55v-45zM176 142v129h-1c-31 -40 -58 -78 -93 -129h94z" />
    <glyph glyph-name="five.denominator" unicode="&#xf65a;" horiz-adv-x="348" 
d="M120 281l-15 -72c23 8 59 16 79 16c82 0 122 -44 122 -96c0 -35 -19 -68 -61 -95c-36 -23 -83 -41 -127 -41c-22 -1 -52 11 -63 20c-11 8 -14 19 -10 31s13 25 22 30c9 7 18 7 28 -2c12 -11 42 -38 70 -38c30 0 45 27 45 59c0 51 -36 78 -86 78c-24 0 -46 -6 -64 -11
l27 191h204l-16 -70h-155z" />
    <glyph glyph-name="six.denominator" unicode="&#xf65b;" horiz-adv-x="348" 
d="M133 206l29 13c15 7 26 11 39 11c72 0 117 -44 117 -108c0 -72 -60 -129 -145 -129c-81 0 -143 52 -143 141c0 119 91 185 160 207c37 12 68 16 104 20l6 -31c-20 -4 -42 -10 -65 -20c-32 -13 -84 -42 -102 -104zM164 184h-1c-9 0 -22 -2 -34 -8c-4 -13 -4 -21 -4 -43
c0 -70 29 -107 58 -107c33 0 44 32 44 72c0 49 -26 86 -63 86z" />
    <glyph glyph-name="seven.denominator" unicode="&#xf65c;" horiz-adv-x="348" 
d="M307 351l5 -11c-58 -112 -118 -227 -175 -340l-65 -7l-6 11c63 93 123 186 175 278h-115c-42 0 -47 -3 -63 -37h-27c8 54 12 82 15 106h256z" />
    <glyph glyph-name="eight.denominator" unicode="&#xf65d;" horiz-adv-x="348" 
d="M176 358h1c70 0 116 -37 116 -85c0 -13 -5 -31 -17 -43c-9 -8 -21 -17 -46 -31c38 -16 81 -44 81 -97c0 -73 -77 -109 -144 -109c-71 0 -135 34 -135 97c0 23 12 39 28 52c13 12 33 22 47 29c-33 19 -63 44 -63 86c0 55 52 101 132 101zM168 326h-1
c-28 0 -42 -21 -42 -41c0 -30 31 -51 78 -71c8 7 20 28 20 49c0 45 -34 63 -55 63zM175 25h1c33 0 52 26 52 49c-1 38 -35 57 -92 82c-12 -10 -27 -32 -27 -61c0 -44 33 -70 66 -70z" />
    <glyph glyph-name="nine.denominator" unicode="&#xf65e;" horiz-adv-x="348" 
d="M175 358h1c92 0 137 -68 137 -149c0 -94 -56 -165 -147 -199c-29 -11 -82 -19 -114 -20l-4 28c89 17 152 71 166 130l-29 -14c-13 -6 -23 -10 -33 -10c-76 0 -118 49 -118 108s51 126 141 126zM164 326h-1c-26 0 -41 -31 -41 -73c0 -49 31 -82 66 -82c11 0 22 4 30 7
c2 17 3 28 3 38c0 54 -16 110 -57 110z" />
    <glyph glyph-name="period.denominator" unicode="&#xf660;" horiz-adv-x="187" 
d="M93 -31h-1c-32 0 -63 25 -63 64c0 38 28 66 64 66c39 0 65 -31 65 -66c0 -37 -26 -64 -65 -64z" />
    <glyph glyph-name="comma.denominator" unicode="&#xf65f;" horiz-adv-x="187" 
d="M74 120h1c38 0 92 -33 92 -104c0 -73 -70 -116 -133 -132l-13 31c44 19 67 43 67 76c0 27 -21 48 -54 56c-5 1 -12 11 -12 31c0 24 24 42 52 42z" />
    <glyph glyph-name="dollar.denominator" unicode="&#xf62a;" horiz-adv-x="348" 
d="M190 221l16 -5c68 -18 112 -49 112 -108c0 -66 -56 -104 -128 -112v-57h-31v55c-52 2 -98 21 -112 30c-4 14 -13 48 -18 96l26 7c11 -39 51 -92 104 -99v108l-16 5c-68 20 -107 52 -107 106c0 57 45 102 123 109v51h31v-50c25 0 55 -5 88 -21c7 -21 12 -47 16 -85l-28 -5
c-12 33 -34 72 -76 78v-103zM159 230v94c-36 -2 -55 -20 -55 -46c0 -27 24 -39 55 -48zM190 128v-100c32 3 54 17 54 46c0 24 -8 38 -54 54z" />
    <glyph glyph-name="cent.denominator" unicode="&#xf629;" horiz-adv-x="348" 
d="M300 118l15 -23c-25 -35 -61 -57 -96 -63v-60h-31v57c-105 5 -154 72 -154 140c0 50 23 92 63 121c26 19 57 32 91 37v48h31v-46h10c22 0 49 -6 64 -16c9 -6 11 -14 11 -21c0 -20 -20 -33 -27 -33c-4 0 -7 2 -12 7c-16 13 -28 24 -46 28v-208c31 0 59 12 81 32zM188 90
v205c-26 -1 -69 -28 -69 -102c0 -66 38 -96 69 -103z" />
    <glyph glyph-name="hyphen.denominator" unicode="&#xf62b;" horiz-adv-x="268" 
d="M236 135h-204v60h204v-60z" />
    <glyph glyph-name="parenleft.denominator" unicode="&#xf62c;" horiz-adv-x="237" 
d="M208 -97l-18 -21c-104 58 -154 164 -154 275v1c0 110 50 216 154 274l18 -21c-39 -38 -89 -135 -89 -254c0 -115 50 -215 89 -254z" />
    <glyph glyph-name="parenright.denominator" unicode="&#xf62d;" horiz-adv-x="237" 
d="M201 157v-1c0 -110 -49 -216 -154 -274l-18 21c40 38 90 139 90 254c0 119 -51 215 -90 254l18 21c105 -58 154 -164 154 -275z" />
    <glyph glyph-name="orn.001" unicode="&#xe0b5;" horiz-adv-x="974" 
d="M684 420l-3 2c-8 -3 -27 -11 -53 -18c-31 -8 -66 -16 -114 -16c-78 0 -180 36 -180 101c0 31 34 105 186 105c78 0 173 -36 200 -131c27 36 45 82 45 137c0 50 -21 93 -54 112c-13 7 -13 15 -3 25c9 6 24 15 38 21c12 5 23 4 36 -4c29 -17 51 -60 51 -109
c0 -78 -30 -138 -86 -210c108 -5 170 -96 170 -202c0 -76 -46 -135 -104 -135c-66 0 -124 65 -124 166c0 57 14 99 26 131l-2 2c-57 -76 -188 -159 -278 -209l2 -2c22 6 37 8 61 8c52 0 79 -36 79 -77c0 -108 -149 -232 -324 -232c-100 0 -191 53 -191 175
c0 94 93 268 256 268c59 0 76 -41 76 -64c0 -31 -9 -52 -31 -79l3 -2c37 24 52 31 133 84c72 47 142 97 185 153zM563 429h1c53 0 89 11 118 26c-15 59 -81 104 -164 104c-71 0 -104 -25 -104 -56c0 -48 78 -74 149 -74zM837 154h1c24 0 40 28 41 65c3 86 -60 171 -133 182
c-6 -18 -8 -39 -8 -73c0 -113 51 -174 99 -174zM515 86v1c0 42 -20 72 -71 72c-27 0 -60 -6 -104 -42c-45 -38 -63 -63 -69 -82c-4 -13 -14 -21 -26 -21c-16 0 -31 2 -36 4c-9 6 -12 12 -11 23c1 15 12 40 38 63c17 16 40 30 50 36c7 5 16 11 29 24c10 14 24 40 24 71
c0 27 -11 56 -57 56c-75 0 -146 -93 -146 -195c0 -99 68 -161 173 -161c133 0 206 91 206 151z" />
    <glyph glyph-name="orn.002" unicode="&#xe0b6;" horiz-adv-x="1124" 
d="M1057 110h10c-16 -39 -42 -46 -57 -46c-12 0 -23 3 -33 9c-17 -1 -84 -16 -133 -30c-58 -17 -128 -29 -183 -29c-80 0 -129 46 -129 102c0 42 22 69 60 87l35 4l4 -4c-15 -19 -23 -44 -23 -61c0 -33 14 -83 119 -83c71 0 175 31 229 51c-19 23 -29 63 -43 110
c-26 83 -68 205 -164 205c-62 0 -70 -43 -70 -72c0 -30 19 -60 38 -76c10 -3 20 -7 34 -11c63 -20 106 -47 122 -83c6 -10 0 -16 -4 -19c-6 -3 -27 -12 -43 -13c-12 -1 -14 0 -19 7c-10 16 -30 38 -62 56c-48 28 -104 47 -343 67c-26 2 -54 7 -75 9l-3 -2
c49 -26 50 -80 50 -94c0 -98 -79 -157 -144 -199c-21 -13 -34 -22 -48 -43c-13 -26 -38 -32 -69 -40c11 28 -1 101 -6 130c-6 27 -13 51 -13 84c0 62 29 139 160 169v4c-95 11 -194 41 -194 141c0 38 30 102 120 115c9 0 15 -10 10 -18c-31 -21 -43 -46 -43 -83
c0 -72 50 -100 136 -118c4 12 9 31 13 60c6 47 15 110 58 163c41 50 101 68 149 70c17 1 40 10 52 13c34 -27 47 -76 47 -114c0 -101 -59 -184 -235 -202v-2c24 -5 50 -8 77 -10c114 -10 194 -21 228 -32l1 2c-22 22 -37 49 -37 75c0 62 53 107 123 107
c139 0 192 -156 237 -284c20 -57 49 -72 61 -72zM332 348l2 -2c79 12 203 40 203 166c0 34 -11 65 -28 86c-97 -4 -118 -69 -154 -202c-7 -26 -17 -42 -23 -48zM305 198v1c0 26 -6 57 -27 76c-102 -15 -113 -104 -113 -148c0 -18 2 -43 8 -72c4 -23 7 -44 7 -60
c52 36 125 104 125 203z" />
    <glyph glyph-name="orn.003" unicode="&#xe0b7;" horiz-adv-x="1133" 
d="M634 478h3c2 15 8 35 8 69c0 62 -47 176 -204 176c-140 0 -309 -122 -309 -356c0 -228 161 -440 423 -440c199 0 453 135 453 442c0 120 -51 215 -120 267c-19 15 -41 23 -47 26c9 18 30 33 49 33c72 0 183 -113 183 -285c0 -265 -219 -541 -552 -541
c-316 0 -462 240 -462 441c0 277 211 459 421 459c173 0 213 -125 213 -185c0 -64 -16 -92 -29 -118l4 -2c33 38 69 67 129 67c79 0 117 -66 117 -121c0 -100 -68 -181 -133 -231c-102 -78 -211 -93 -235 -93c-35 0 -44 12 -44 30h-2c-14 -35 -53 -68 -113 -68
c-51 0 -90 34 -90 83c0 15 4 33 17 48c10 13 20 10 20 -5c0 -27 33 -81 83 -81c8 0 47 3 47 45c0 48 -21 71 -69 148c-35 56 -62 108 -62 148c0 117 100 157 160 157c91 0 126 -66 141 -113zM843 371v1c0 61 -25 108 -87 108c-74 0 -95 -82 -99 -113c-3 -16 -9 -22 -16 -27
c-9 -8 -36 -19 -46 -22c-11 -5 -14 4 -14 8c1 11 5 28 5 73c0 81 -45 155 -119 155c-59 0 -70 -43 -70 -77c0 -41 23 -85 61 -146c44 -71 59 -104 59 -144c0 -14 -2 -32 -7 -43c15 -4 30 -8 47 -8c181 0 286 123 286 235z" />
    <glyph glyph-name="orn.004" unicode="&#xe0b8;" horiz-adv-x="957" 
d="M335 249v4c-21 10 -37 32 -37 61c0 56 81 161 205 161c91 0 152 -56 213 -113c76 -71 132 -124 185 -119c-2 -17 -20 -40 -39 -50c-10 -4 -22 -7 -32 -6c-8 1 -26 -9 -42 -19c-20 -12 -55 -34 -142 -99c-62 -46 -131 -83 -196 -83c-74 0 -121 48 -121 103
c0 28 10 67 59 104l-1 2l-167 -1c-59 0 -101 2 -127 20c-25 17 -38 43 -38 71c0 35 24 78 64 103l15 -9c-9 -10 -17 -28 -17 -52c0 -60 54 -78 169 -78h49zM483 247h134c25 0 25 -4 19 -14s-9 -11 -22 -23c-14 -14 -36 -16 -75 -16h-57c-71 0 -96 -39 -96 -66
c0 -32 16 -79 97 -79c101 0 165 58 297 165c-26 19 -65 56 -122 109c-81 75 -121 108 -196 108c-74 0 -106 -49 -106 -97c0 -37 17 -87 127 -87z" />
    <glyph glyph-name="orn.005" unicode="&#xe0b9;" horiz-adv-x="457" 
d="M54 223v1c0 134 97 260 272 260c26 0 59 -5 68 -7c11 -3 17 -14 2 -19c-31 -12 -124 -84 -124 -235c0 -150 93 -221 124 -235c13 -5 11 -14 1 -19c-9 -2 -32 -7 -59 -7c-175 0 -284 127 -284 261zM144 223v-1c0 -165 117 -220 182 -220c-57 47 -109 100 -109 221
s53 180 103 222c-65 0 -176 -56 -176 -222z" />
    <glyph glyph-name="orn.006" unicode="&#xe0ba;" horiz-adv-x="603" 
d="M376 493h1c63 0 116 -14 143 -34c9 -7 11 -14 -4 -20c-68 -25 -142 -116 -142 -225c0 -110 74 -201 142 -225c15 -7 13 -14 4 -21c-27 -20 -84 -34 -146 -34c-157 0 -310 104 -310 280c0 175 153 279 312 279zM130 214v-1c0 -100 59 -206 166 -223c14 -2 16 6 7 14
c-35 29 -100 95 -100 210c0 114 65 181 100 210c9 7 7 16 -7 14c-107 -17 -166 -123 -166 -224z" />
    <glyph glyph-name="orn.007" unicode="&#xe0bb;" horiz-adv-x="623" 
d="M178 342v3c-27 26 -48 66 -48 110c0 52 21 104 65 142c39 35 82 51 122 51c50 0 77 -37 77 -66c0 -33 -27 -48 -43 -51c-11 -2 -15 0 -16 7c-7 36 -24 63 -65 63c-42 0 -78 -33 -78 -99c0 -45 20 -92 53 -122c38 46 85 68 141 68c84 0 171 -71 174 -196
c3 -106 -65 -221 -153 -276c-16 -12 -25 -16 -38 -34c-15 -22 -41 -37 -66 -37c-29 0 -54 23 -54 52c0 25 22 41 34 41c6 0 9 -5 13 -11c5 -12 19 -23 35 -23c22 0 42 20 42 51c0 47 -35 80 -91 80c-42 0 -72 -14 -89 -24c-8 -5 -15 -7 -25 -7c-60 0 -109 72 -109 141
c0 60 44 132 119 137zM491 239v1c0 84 -39 155 -129 155c-36 0 -72 -17 -94 -51c44 -55 70 -76 92 -95c54 -44 86 -86 94 -142c22 27 37 77 37 132z" />
    </font>
</defs>
</svg>
