<?xml version="1.0" standalone="no"?>
<!DOCTYPE svg PUBLIC "-//W3C//DTD SVG 1.1//EN" "http://www.w3.org/Graphics/SVG/1.1/DTD/svg11.dtd" >
<svg xmlns="http://www.w3.org/2000/svg" xmlns:xlink="http://www.w3.org/1999/xlink" version="1.1">
<metadata>
Created by FontForge 20161003 at Fri Mar 29 12:48:21 2019
 By www-data
Copyright 2000, 2002, 2004 , 2005Adobe Systems Incorporated. All Rights Reserved. U.S. Patent D371,799.Minion is either a registered trademark or a trademark of Adobe Systems Incorporated in the United States and/or other countries.
</metadata>
<defs>
<font id="MinionPro-Regular" horiz-adv-x="400" >
  <font-face 
    font-family="Minion Pro"
    font-weight="400"
    font-stretch="normal"
    units-per-em="1000"
    panose-1="2 4 5 3 5 2 1 2 2 3"
    ascent="727"
    descent="-273"
    x-height="437"
    cap-height="650"
    bbox="-290 -360 1684 989"
    underline-thickness="50"
    underline-position="-100"
    stemh="32"
    stemv="79"
    unicode-range="U+0020-FB06"
  />
<missing-glyph horiz-adv-x="500" 
d="M0 0v700h500v-700h-500zM250 395l170 255h-340zM280 350l170 -255v510zM80 50h340l-170 255zM50 605v-510l170 255z" />
    <glyph glyph-name="T_h" unicode="Th" horiz-adv-x="1071" 
d="M1052 0h-212v26c59 6 66 13 66 79v164c0 82 -31 124 -99 123c-37 0 -77 -19 -103 -52v-235c0 -65 5 -73 65 -79v-26h-214v26c63 6 70 13 70 79v503c-55 5 -107 6 -196 6h-70v-488c0 -85 8 -93 99 -99v-27h-281v27c88 6 97 14 97 99v488h-63c-89 0 -107 -9 -122 -32
c-12 -19 -21 -42 -32 -87h-29c4 58 10 125 12 180h19c14 -22 26 -25 54 -25h416c83 0 96 6 96 26v15c19 3 51 13 79 23v-337c36 38 88 71 139 72c85 2 142 -51 142 -170v-174c0 -68 7 -73 67 -79v-26z" />
    <glyph glyph-name="f_b" unicode="fb" horiz-adv-x="803" 
d="M447 405l82 34c16 7 30 10 42 10c106 0 197 -91 197 -209c0 -147 -118 -252 -252 -252c-41 0 -93 10 -147 36v599c-21 22 -56 42 -94 42c-34 0 -54 -17 -68 -36c-14 -21 -28 -68 -27 -151v-41h117c6 -10 2 -33 -11 -40h-106v-283c0 -72 8 -80 87 -88v-26h-234v26
c59 6 68 15 68 79v292h-70l-5 12l28 28h47v22c0 31 4 61 11 82c7 25 24 73 77 118c38 31 74 48 117 53c28 -1 56 -10 74 -22c19 5 44 14 62 22l5 -6v-301zM447 376v-260c0 -15 2 -25 6 -35c7 -20 36 -56 88 -56c85 -1 138 76 138 189s-68 181 -153 181c-29 0 -60 -8 -79 -19
z" />
    <glyph glyph-name="f_f" unicode="ff" horiz-adv-x="561" 
d="M99 437v13c0 27 5 55 12 76c9 25 27 70 79 110c40 32 79 50 127 54c57 -2 95 -26 116 -48c44 44 88 64 131 70c34 -1 64 -15 81 -35c9 -11 10 -23 5 -33c-3 -8 -12 -18 -21 -24c-9 -8 -20 -9 -29 0c-19 19 -49 41 -82 41c-26 0 -41 -14 -52 -32c-12 -20 -23 -66 -22 -158
l1 -34h119c5 -9 2 -32 -9 -39h-111v-294c0 -67 7 -72 82 -79v-25h-223v25c55 7 63 13 63 79v294h-188v-294c0 -66 7 -72 68 -79v-25h-215v26c60 6 68 12 68 78v294h-71l-3 11l26 28h48zM366 437v19c0 33 3 60 8 77c4 17 11 33 20 52c-20 30 -58 63 -111 63
c-38 0 -60 -21 -74 -43c-17 -25 -31 -68 -31 -144v-24h188z" />
    <glyph glyph-name="f_f_b" unicode="ffb" horiz-adv-x="1071" 
d="M715 707v-302c33 14 55 23 81 34c16 7 31 10 42 10c106 0 197 -91 197 -209c0 -147 -119 -252 -253 -252c-42 0 -92 10 -146 36v598c-20 25 -54 47 -91 47c-34 0 -55 -18 -68 -36c-16 -22 -29 -69 -30 -157v-39h117c6 -9 1 -33 -10 -40h-107v-293c0 -66 9 -72 79 -79v-25
h-220v25c54 7 62 13 62 80v292h-188v-293c0 -66 8 -71 68 -79v-25h-215v26c60 6 68 13 68 78v293h-70l-4 11l27 29h47v10c0 23 5 49 12 73c9 28 29 71 83 114c38 30 78 48 126 53c60 -2 95 -27 113 -48c43 45 88 68 139 73c27 -1 57 -9 75 -23c20 5 45 15 61 23zM368 437v17
c0 47 9 90 31 133c-18 26 -57 58 -108 58c-42 0 -66 -23 -80 -46c-17 -25 -31 -70 -31 -140v-22h188zM715 376v-259c0 -15 2 -25 6 -35c7 -20 36 -56 89 -56c79 -1 137 70 137 188c0 114 -69 180 -153 180c-28 0 -61 -8 -79 -18z" />
    <glyph glyph-name="f_f_h" unicode="ffh" horiz-adv-x="1081" 
d="M1063 0h-212v26c58 6 66 13 66 78v165c0 82 -32 125 -100 124c-37 0 -76 -18 -103 -52v-237c0 -64 9 -72 66 -78v-26h-208v26c54 6 64 13 64 78v518c-22 24 -54 46 -92 46c-34 0 -56 -18 -69 -37c-16 -22 -28 -67 -28 -155v-39h117c6 -10 3 -33 -10 -40h-107v-293
c0 -64 9 -71 71 -78v-26h-212v26c54 7 62 14 62 79v292h-188v-292c0 -65 8 -72 67 -79v-26h-212v26c58 7 66 16 66 79v292h-70l-3 11l27 29h46v10c0 24 6 50 13 73c8 26 30 73 82 114c38 30 78 49 128 53c58 -2 93 -27 112 -48c43 45 87 67 135 73c29 0 58 -10 75 -23
c21 5 46 14 64 23l4 -5v-329c37 38 89 70 141 71c84 3 141 -51 141 -170v-176c0 -65 8 -71 67 -77v-26zM368 437v17c0 47 9 91 31 133c-18 27 -55 58 -107 58c-43 0 -67 -23 -81 -47c-17 -26 -31 -69 -31 -139v-22h188z" />
    <glyph glyph-name="f_f_i" unicode="ffi" horiz-adv-x="798" 
d="M781 0h-211v26c55 6 63 11 63 74v245c0 45 -2 53 -51 53h-137v-298c0 -62 6 -68 66 -74v-26h-209v26c58 6 64 11 64 74v298h-188v-294c0 -66 6 -72 67 -79v-25h-212v26c59 6 66 10 66 78v294h-70l-4 10l27 29h47v20c0 22 4 48 11 72c9 28 31 72 84 113
c37 28 76 46 125 51c62 -2 100 -28 117 -52c47 45 104 69 147 72c63 -2 96 -33 108 -48c10 -13 11 -25 6 -36c-5 -8 -14 -19 -23 -25c-11 -7 -22 -9 -32 3c-21 23 -49 59 -99 59c-31 0 -51 -13 -67 -37c-20 -27 -31 -80 -31 -152v-40h80c79 0 134 3 187 13v-350
c0 -62 5 -68 69 -74v-26zM366 437v27c0 25 4 51 9 71c4 13 10 33 20 51c-19 31 -57 64 -110 64c-41 0 -63 -20 -77 -43c-16 -25 -30 -72 -30 -142v-28h188z" />
    <glyph glyph-name="f_f_j" unicode="ffj" horiz-adv-x="787" 
d="M447 437h80c80 0 134 3 187 13l1 -339c0 -65 -4 -108 -23 -161c-34 -100 -95 -176 -117 -196c-9 -8 -18 -11 -26 -11c-13 0 -36 18 -36 42c0 13 7 19 21 24c34 11 56 21 68 37c12 15 19 35 25 72c6 46 9 105 9 193l-1 234c0 45 -2 53 -50 53h-138v-298
c0 -62 5 -68 71 -74v-26h-215v26c60 6 65 12 65 74v298h-188v-294c0 -67 6 -72 67 -79v-25h-212v26c58 6 67 12 67 78v294h-71l-3 10l26 29h48v20c0 22 4 46 10 70c10 29 31 74 84 114c38 29 77 47 126 51c62 -2 99 -28 116 -53c47 46 104 71 147 73c63 -1 96 -32 108 -47
c9 -13 11 -25 6 -36c-5 -8 -14 -19 -23 -25c-11 -8 -22 -9 -32 2c-21 23 -51 59 -102 59c-29 0 -49 -15 -64 -36c-21 -27 -31 -81 -31 -152v-40zM368 437v27c0 25 3 52 10 72c4 14 9 31 20 49c-19 31 -59 64 -111 64c-40 0 -63 -19 -77 -42c-15 -25 -30 -72 -30 -142v-28
h188z" />
    <glyph glyph-name="f_f_k" unicode="ffk" horiz-adv-x="1045" 
d="M1061 0l-132 -2c-52 54 -112 132 -167 198c-13 17 -21 22 -30 22c-6 0 -12 -1 -18 -3v-110c0 -67 9 -73 73 -79v-26h-219v26c59 6 68 12 68 79v517c-22 24 -55 46 -92 46c-32 0 -55 -16 -68 -36c-16 -21 -29 -68 -29 -156v-39h117c6 -9 2 -34 -10 -40h-107v-294
c0 -64 9 -70 72 -77v-26h-213v26c54 7 62 13 62 77v294h-188v-293c0 -65 8 -70 68 -78v-26h-215v27c59 6 68 12 68 77v293h-70l-4 9l27 31h47v10c0 23 5 49 13 74c9 26 28 71 81 113c39 30 80 49 130 53c58 -2 93 -27 111 -48c42 45 87 67 136 73c27 -1 56 -9 74 -22
c19 3 44 13 64 22l4 -5v-466c31 7 49 20 64 35c20 20 53 61 70 87c20 31 16 40 -29 44v27l205 9v-26c-66 -10 -90 -24 -127 -58c-25 -25 -42 -45 -86 -97c23 -35 121 -148 156 -182s56 -51 94 -54v-26zM368 437v17c0 47 9 91 31 133c-18 27 -56 58 -109 58
c-39 0 -64 -22 -80 -47c-17 -24 -30 -68 -30 -139v-22h188z" />
    <glyph glyph-name="f_f_l" unicode="ffl" horiz-adv-x="801" 
d="M785 0h-213v26c57 5 64 11 64 73v523c-16 26 -50 46 -88 46c-31 0 -55 -15 -70 -34c-16 -20 -31 -70 -31 -151v-46h118c5 -8 1 -33 -10 -39h-107l-1 -298c0 -63 7 -68 67 -74v-26h-211v26c59 6 66 12 66 74v298h-189v-294c0 -66 8 -71 67 -78v-26h-212v26
c58 6 67 11 67 78v294h-71l-3 11l27 28h47v18c0 24 4 50 11 71c9 25 28 69 81 111c38 30 79 49 129 54c62 -2 98 -29 116 -49c40 39 90 66 137 70c36 0 65 -9 88 -25c13 6 27 15 41 23l9 -6v-605c0 -62 7 -67 71 -73v-26zM369 437v20c0 37 4 65 10 84c4 13 10 28 20 48
c-19 30 -58 58 -110 58c-39 0 -65 -20 -80 -44c-15 -23 -29 -66 -29 -141v-25h189z" />
    <glyph glyph-name="f_f_t" unicode="fft" horiz-adv-x="852" 
d="M844 34l-70 -35c-18 -8 -31 -11 -40 -11c-63 0 -98 40 -98 119v291h-189v-295c0 -66 9 -71 77 -78v-25h-218v25c54 7 62 13 62 78v295h-188v-295c0 -65 8 -70 68 -78v-25h-215v26c60 6 68 13 68 77v295h-70l-4 10l27 29h47v11c0 22 5 49 12 70c9 28 29 73 82 116
c39 30 80 49 129 53c57 -2 93 -26 112 -48c43 45 87 67 132 73c36 -1 61 -15 75 -30c10 -12 12 -23 7 -35c-5 -9 -14 -21 -25 -27c-8 -5 -13 -4 -22 4c-21 20 -48 36 -78 36c-23 0 -40 -11 -54 -32s-24 -62 -24 -159v-32h189v67l65 68l13 -2v-133h114c9 -10 6 -31 -7 -39
h-107v-257c0 -79 33 -96 59 -96s48 9 62 16zM368 437v19c0 46 8 88 30 130c-18 26 -56 58 -107 58c-42 0 -65 -22 -81 -44c-17 -24 -30 -70 -30 -141v-22h188z" />
    <glyph glyph-name="f_h" unicode="fh" horiz-adv-x="814" 
d="M796 0h-212v26c58 6 66 14 66 79v164c0 82 -31 123 -99 123c-37 -1 -77 -19 -104 -52v-235c0 -65 9 -73 66 -79v-26h-209v26c55 6 64 14 64 79v517c-20 24 -55 45 -93 45c-32 0 -55 -18 -68 -37c-15 -20 -27 -71 -27 -154v-39h116c6 -10 1 -33 -10 -40h-106v-284
c0 -74 8 -79 66 -87v-26h-212v26c59 8 67 14 67 78v293h-70l-3 9l27 31h46v18c0 31 4 63 11 86c7 24 24 71 77 116c37 32 74 50 115 55c33 -1 60 -10 75 -23c21 5 45 14 63 23l5 -4v-330c37 37 89 70 140 71c85 3 142 -51 142 -171v-174c0 -65 8 -72 67 -78v-26z" />
    <glyph glyph-name="f_i" unicode="fi" horiz-adv-x="535" 
d="M517 0h-212v26c56 5 63 11 63 74v245c0 45 -3 53 -51 53h-137v-298c0 -62 7 -68 70 -74v-26h-219v26c62 7 71 12 71 74v298h-72l-5 11l28 28h49v24c0 31 4 56 11 77c7 25 28 76 82 119c41 33 87 51 124 55c61 -2 95 -32 106 -48c9 -13 9 -26 5 -36c-5 -9 -13 -19 -22 -25
c-12 -7 -21 -7 -29 2c-22 26 -56 58 -104 58c-29 0 -49 -16 -62 -35c-19 -26 -33 -77 -33 -157v-34h79c80 0 136 3 188 13v-350c0 -63 6 -68 70 -74v-26z" />
    <glyph glyph-name="f_j" unicode="fj" horiz-adv-x="520" 
d="M181 437h79c80 0 135 3 187 13v-339c0 -65 -4 -109 -22 -162c-35 -100 -90 -166 -117 -193c-9 -9 -19 -13 -27 -13c-14 0 -37 17 -37 41c0 13 8 18 21 23c34 11 58 22 69 37c12 15 21 37 27 75c6 46 8 109 8 196v230c0 45 -3 53 -52 53h-136v-298c0 -63 6 -68 70 -74v-26
h-220v26c64 7 71 12 71 74v298h-71l-5 11l28 28h48v24c0 31 5 56 11 77c8 25 28 76 82 120c41 32 86 50 123 54c61 -2 96 -32 108 -48c8 -13 10 -26 5 -36c-5 -9 -14 -19 -23 -24c-11 -7 -20 -9 -29 1c-22 26 -57 58 -104 58c-28 0 -48 -13 -63 -35
c-19 -28 -31 -76 -31 -157v-34z" />
    <glyph glyph-name="f_k" unicode="fk" horiz-adv-x="778" 
d="M794 0l-132 -2c-52 55 -112 132 -167 198c-13 17 -21 22 -30 22c-6 0 -12 -1 -18 -3v-110c0 -66 9 -73 73 -78v-27h-221v27c61 5 70 11 70 78v519c-23 24 -56 42 -93 42c-34 0 -56 -18 -68 -37c-15 -22 -30 -70 -28 -153v-39h116c6 -9 2 -33 -9 -40h-107v-283
c0 -75 8 -80 67 -87v-27h-214v27c59 7 68 14 68 78v292h-71l-2 10l26 30h47v18c0 31 4 62 11 86c8 26 27 73 77 116c39 32 75 50 114 55c33 -1 60 -9 75 -22c19 3 45 13 64 22l5 -5v-466c31 7 49 20 64 35c21 20 53 62 71 88c21 31 20 40 -28 44v26l203 9v-25
c-67 -11 -88 -23 -126 -58c-26 -24 -43 -46 -88 -97c24 -35 122 -149 157 -183c35 -35 56 -51 94 -54v-26z" />
    <glyph glyph-name="f_l" unicode="fl" horiz-adv-x="533" 
d="M519 0h-216v26c58 5 65 12 65 74v522c-17 26 -53 45 -89 45c-31 0 -53 -15 -68 -36c-17 -22 -31 -66 -31 -141v-53h117c5 -9 1 -33 -10 -39h-107v-298c0 -62 6 -68 67 -74v-26h-216v26c64 7 70 12 70 74v298h-70l-4 11l27 28h47v18c0 40 5 67 13 89c8 26 26 71 81 116
c38 31 76 47 117 52c30 0 62 -10 82 -23c16 4 30 13 45 21l8 -5v-605c0 -62 8 -68 72 -74v-26z" />
    <glyph glyph-name="f_t" unicode="ft" horiz-adv-x="582" 
d="M577 34l-69 -34c-17 -9 -32 -12 -41 -12c-63 0 -98 40 -98 119v290h-189v-292c0 -65 7 -73 74 -79v-26h-223v26c63 7 70 15 70 78v293h-70l-5 11l26 29h49v25c0 31 4 56 10 77c7 23 24 75 80 120c38 31 73 48 110 53c36 -1 61 -15 75 -30c10 -11 12 -24 7 -36
c-5 -9 -13 -19 -24 -26c-8 -5 -15 -5 -24 4c-18 18 -50 35 -77 35c-23 0 -41 -10 -54 -30c-14 -21 -25 -66 -24 -166v-26h189v68l64 67l14 -2v-133h114c8 -9 6 -32 -7 -40h-107v-256c0 -81 33 -97 59 -97s48 10 62 17z" />
    <glyph glyph-name="longs_b" unicode="&#x17f;b" horiz-adv-x="804" 
d="M447 404l79 35c16 7 32 10 43 10c107 0 199 -90 199 -209c0 -147 -121 -252 -253 -252c-41 0 -93 10 -147 36v601c-23 25 -55 44 -91 44s-56 -20 -70 -41c-15 -23 -27 -76 -27 -175v-340c0 -76 6 -80 73 -87v-26h-218v26c60 6 66 11 66 78v294h-70l-4 10l27 29h47v21
c0 32 4 60 10 82c8 25 25 74 77 118c37 32 76 49 117 54c31 -1 58 -11 75 -24c19 5 43 15 61 24l6 -5v-303zM447 376v-260c0 -15 1 -25 5 -35c7 -20 38 -55 91 -56c81 0 136 70 136 189c0 112 -71 180 -155 180c-27 0 -61 -9 -77 -18z" />
    <glyph glyph-name="longs_h" unicode="&#x17f;h" horiz-adv-x="814" 
d="M793 0h-208v26c57 6 64 11 64 78v165c0 83 -32 124 -100 123c-37 0 -76 -17 -102 -51v-238c0 -65 6 -71 64 -77v-26h-208v26c58 6 65 11 65 77v521c-24 27 -56 46 -93 46c-34 0 -55 -21 -68 -41c-15 -23 -27 -76 -27 -190v-328c0 -74 7 -78 67 -85v-26h-212v26
c59 7 66 14 66 77v295h-70l-4 10l27 29h47v22c0 31 4 60 11 81c7 25 24 73 76 118c37 31 75 49 115 54c33 -1 61 -11 76 -24c19 5 44 15 63 24l5 -5v-331c36 38 88 72 139 73c85 3 142 -50 142 -171v-175c0 -67 7 -71 65 -77v-26z" />
    <glyph glyph-name="longs_i" unicode="&#x17f;i" horiz-adv-x="533" 
d="M54 437h47v23c0 28 5 55 12 75c7 26 29 79 83 123c39 31 83 50 124 54c60 -2 94 -33 107 -50c9 -13 9 -25 5 -33c-4 -9 -14 -19 -22 -25c-11 -8 -22 -10 -30 0c-21 26 -54 60 -104 60c-29 0 -48 -15 -64 -38c-19 -28 -32 -85 -32 -188v-328c0 -72 7 -77 67 -84v-26h-211
v26c58 6 65 13 65 77v295h-71l-2 10zM514 0h-213v26c60 6 67 11 67 81v201c0 69 -5 71 -63 82v22c49 8 98 21 142 39v-344c0 -70 6 -75 67 -81v-26z" />
    <glyph glyph-name="longs_k" unicode="&#x17f;k" horiz-adv-x="777" 
d="M792 0l-131 -2c-48 49 -112 132 -167 198c-13 17 -21 21 -30 21c-6 0 -11 -1 -18 -3v-110c0 -66 7 -72 72 -78v-26h-217v26c61 6 67 12 67 77v521c-25 27 -55 46 -93 46c-35 0 -56 -21 -68 -41c-15 -24 -27 -76 -27 -186v-335c0 -70 7 -75 66 -82v-26h-212v26
c59 7 67 14 67 74v298h-71l-3 10l27 29h47v22c0 31 4 60 11 81c7 25 25 75 76 117c38 33 75 50 115 55c33 -1 63 -11 76 -24c19 5 45 15 62 24l5 -5v-465c32 7 49 18 63 33c23 22 55 62 76 94c16 24 14 35 -33 39v26l203 9v-25c-65 -11 -91 -24 -128 -59
c-25 -25 -43 -45 -86 -95c23 -34 118 -145 156 -184c35 -35 57 -51 95 -54v-26z" />
    <glyph glyph-name="longs_l" unicode="&#x17f;l" horiz-adv-x="533" 
d="M517 -1h-216v26c61 6 67 11 67 79v521c-22 24 -53 44 -92 44c-34 0 -54 -19 -66 -37c-19 -25 -30 -81 -30 -199v-320c0 -75 6 -80 64 -87v-26h-209v26c59 7 66 12 66 78v294h-70l-3 10l26 29h47v22c0 31 4 59 11 82c7 24 25 73 75 116c38 33 77 50 116 55
c34 -1 62 -11 77 -23c16 4 43 14 61 23l6 -6v-602c0 -69 7 -73 70 -79v-26z" />
    <glyph glyph-name="longs_longs" unicode="&#x17f;&#x17f;" horiz-adv-x="533" 
d="M101 437v10c0 26 5 51 12 71c9 25 29 72 78 114c40 33 82 51 126 55c49 -1 89 -19 115 -51c35 39 83 69 132 76c38 -1 69 -17 83 -34c10 -12 13 -23 8 -33c-4 -8 -14 -18 -22 -25c-8 -6 -15 -6 -23 2c-21 22 -49 42 -83 42c-28 0 -47 -17 -58 -38
c-14 -26 -22 -77 -22 -196v-321c0 -71 7 -76 69 -83v-26h-214v26c58 6 66 12 66 78v293h-72l-3 11l27 29h48v18c0 49 8 89 30 130c-28 34 -61 62 -114 62c-38 0 -63 -26 -78 -52c-16 -27 -26 -83 -26 -183v-305c0 -71 5 -74 64 -81v-26h-211v26c60 6 68 12 68 73v298h-70
l-3 11l26 29h47z" />
    <glyph glyph-name="longs_t" unicode="&#x17f;t" horiz-adv-x="578" 
d="M54 437h47v22c0 30 4 56 11 78c6 25 24 76 82 123c36 30 73 47 108 52c37 -1 61 -15 76 -30c10 -12 12 -25 7 -36c-5 -9 -15 -19 -25 -26c-8 -5 -13 -5 -21 3c-23 23 -50 40 -80 40c-21 0 -39 -13 -53 -34c-16 -26 -26 -78 -26 -191v-326c0 -71 8 -80 73 -86v-26h-219v26
c61 7 67 16 67 77v295h-70l-5 10zM572 33l-69 -34c-18 -8 -31 -11 -41 -11c-62 0 -98 39 -98 119v291h-68l-5 10l28 29h45v68l65 67l14 -2v-133h113c8 -10 5 -31 -7 -39h-106v-257c0 -81 30 -98 58 -98c24 0 47 9 61 16z" />
    <glyph glyph-name="longs_longs_i" unicode="&#x17f;&#x17f;i" horiz-adv-x="800" 
d="M101 437v10c0 21 3 49 11 72c10 24 27 71 79 115c38 31 79 49 125 53c51 -1 93 -20 121 -53c35 40 93 73 147 78c62 -2 97 -33 110 -51c9 -12 9 -24 5 -33c-4 -8 -13 -18 -23 -24c-10 -7 -20 -8 -28 1c-21 26 -57 59 -103 59c-30 0 -51 -14 -66 -38
c-19 -28 -32 -80 -32 -181v-336c0 -70 8 -76 69 -83v-26h-214v26c58 6 66 13 66 78v293h-71l-4 10l27 30h48v21c0 46 10 87 32 125c-26 34 -66 61 -118 61c-38 0 -60 -23 -75 -46c-16 -26 -27 -85 -27 -189v-301c0 -69 8 -75 64 -82v-26h-211v26c60 7 68 13 68 77v294h-72
l-3 10l27 30h48zM785 0h-218v26c60 7 68 14 68 80v202c0 69 -5 71 -63 81v23c49 8 98 21 142 39v-344c0 -67 8 -74 71 -81v-26z" />
    <glyph glyph-name="longs_longs_l" unicode="&#x17f;&#x17f;l" horiz-adv-x="800" 
d="M787 -1h-218v27c57 6 67 12 67 79v521c-24 27 -56 41 -89 41c-34 0 -58 -19 -71 -39c-15 -23 -28 -67 -28 -193v-323c0 -73 8 -79 67 -86v-26h-213v26c58 6 67 14 67 79v292h-71l-4 10l27 30h47v18c0 47 8 89 31 131c-24 35 -62 59 -113 59c-35 0 -58 -20 -74 -43
c-20 -28 -31 -91 -31 -186v-304c0 -73 8 -79 64 -86v-26h-211v26c59 6 67 14 67 78v293h-71l-3 10l27 30h47v10c0 20 4 50 11 71c10 27 28 73 80 116c39 32 81 50 125 54c47 0 88 -18 117 -52c36 37 88 70 137 76c33 0 60 -10 77 -24c16 4 44 15 62 24l5 -5v-602
c0 -67 9 -73 72 -79v-27z" />
    <glyph glyph-name="Tcommaaccent_h" unicode="&#x162;h" horiz-adv-x="1071" 
d="M1052 0h-212v26c59 6 66 13 66 79v164c0 82 -31 124 -99 123c-37 0 -77 -19 -103 -52v-235c0 -65 5 -73 65 -79v-26h-214v26c63 6 70 13 70 79v503c-55 5 -107 6 -196 6h-70v-488c0 -85 8 -93 99 -99v-27h-281v27c88 6 97 14 97 99v488h-63c-89 0 -107 -9 -122 -32
c-12 -19 -21 -42 -32 -87h-29c4 58 10 125 12 180h19c14 -22 26 -25 54 -25h416c83 0 96 6 96 26v15c19 3 51 13 79 23v-337c36 38 88 71 139 72c85 2 142 -51 142 -170v-174c0 -68 7 -73 67 -79v-26zM311 -28h1c37 0 73 -31 73 -78c0 -60 -49 -92 -106 -106l-10 27
c38 16 61 32 61 56c0 22 -21 35 -45 41c-8 2 -15 9 -15 24c0 24 21 36 41 36z" />
    <glyph glyph-name="Tcaron_h" unicode="&#x164;h" horiz-adv-x="1071" 
d="M1052 0h-212v26c59 6 66 13 66 79v164c0 82 -31 124 -99 123c-37 0 -77 -19 -103 -52v-235c0 -65 5 -73 65 -79v-26h-214v26c63 6 70 13 70 79v503c-55 5 -107 6 -196 6h-70v-488c0 -85 8 -93 99 -99v-27h-281v27c88 6 97 14 97 99v488h-63c-89 0 -107 -9 -122 -32
c-12 -19 -21 -42 -32 -87h-29c4 58 10 125 12 180h19c14 -22 26 -25 54 -25h416c83 0 96 6 96 26v15c19 3 51 13 79 23v-337c36 38 88 71 139 72c85 2 142 -51 142 -170v-174c0 -68 7 -73 67 -79v-26zM442 821l15 -26c-43 -32 -86 -66 -125 -107h-22c-40 41 -83 74 -126 107
l15 26c41 -18 82 -38 122 -62c39 23 81 44 121 62z" />
    <glyph glyph-name=".notdef" horiz-adv-x="500" 
d="M0 0v700h500v-700h-500zM250 395l170 255h-340zM280 350l170 -255v510zM80 50h340l-170 255zM50 605v-510l170 255z" />
    <glyph glyph-name="space" unicode=" " horiz-adv-x="227" 
 />
    <glyph glyph-name="exclam" unicode="!" horiz-adv-x="276" 
d="M136 665h1c36 0 53 -9 53 -30c0 -16 -2 -39 -7 -80c-13 -114 -20 -230 -29 -358c-5 -7 -30 -7 -35 0c-9 128 -15 244 -29 358c-4 41 -7 64 -7 80c0 21 17 30 53 30zM137 -12h-1c-31 0 -55 23 -55 59c0 33 24 58 56 58c33 0 57 -25 57 -58c0 -36 -24 -59 -57 -59z" />
    <glyph glyph-name="quotedbl" unicode="&#x22;" horiz-adv-x="318" 
d="M119 710l6 -5c-2 -23 -18 -158 -26 -219l-28 -12c-10 93 -25 195 -29 209zM268 710l6 -5c-2 -24 -17 -159 -26 -219l-28 -12c-11 93 -24 195 -28 209z" />
    <glyph glyph-name="numbersign" unicode="#" horiz-adv-x="480" 
d="M448 454l-9 -58h-91l-30 -137h86l-10 -58h-89l-38 -174h-38l37 174h-108l-38 -174h-39l39 174h-96l10 58h100l29 137h-93l8 58h98l33 154h39l-34 -154h108l33 154h38l-32 -154h87zM309 396h-108l-28 -137h107z" />
    <glyph glyph-name="dollar" unicode="$" horiz-adv-x="480" 
d="M264 363l29 -11c74 -27 141 -77 141 -167c0 -95 -64 -161 -170 -174v-87h-35v85c-59 0 -115 15 -156 41c-6 21 -19 80 -28 131l30 9c18 -59 58 -137 154 -148v242l-36 16c-70 29 -126 76 -126 153c0 79 56 149 162 161v79h35v-76c32 0 65 -6 89 -13c14 -4 23 -6 34 -8
c6 -34 12 -71 21 -125l-28 -7c-17 58 -37 108 -116 120v-221zM229 376v208c-64 -6 -93 -54 -93 -100c0 -53 36 -86 93 -108zM264 272v-229c61 8 95 53 95 107c0 46 -14 86 -83 117z" />
    <glyph glyph-name="percent" unicode="%" horiz-adv-x="756" 
d="M594 629l-404 -661l-30 23l401 661zM194 635h1c100 0 143 -101 143 -181s-42 -182 -144 -182s-145 102 -145 181c0 81 43 182 145 182zM195 605h-1c-61 0 -72 -100 -72 -151s11 -152 73 -152s71 103 71 151c0 51 -9 152 -71 152zM566 352h1c100 0 143 -102 143 -182
s-43 -182 -144 -182c-102 0 -145 102 -145 181c0 81 43 183 145 183zM566 322h-1c-60 0 -71 -99 -71 -152c0 -50 11 -152 73 -152c61 0 70 103 70 152c0 51 -9 152 -71 152z" />
    <glyph glyph-name="ampersand" unicode="&#x26;" horiz-adv-x="711" 
d="M717 427v-28c-70 -8 -83 -26 -116 -74c-28 -39 -52 -80 -87 -133c42 -42 133 -143 163 -201l-7 -10c-55 5 -110 28 -122 41c-12 15 -54 62 -87 97c-72 -97 -138 -133 -209 -133c-127 0 -198 95 -198 182c0 92 66 132 150 193c-45 43 -72 85 -72 139c0 89 76 158 164 158
c81 0 148 -58 148 -138c0 -41 -21 -70 -42 -88c-18 -15 -42 -34 -81 -60c33 -28 104 -90 168 -155c24 37 41 70 60 115c19 46 10 58 -61 67v28h229zM286 624h-1c-46 0 -81 -40 -81 -100c0 -52 31 -87 91 -133c48 35 74 74 74 128c0 57 -34 105 -83 105zM277 55h1
c67 0 127 45 160 91c-53 58 -117 119 -208 193c-66 -46 -91 -94 -91 -143c0 -95 73 -141 138 -141z" />
    <glyph glyph-name="quoteright" unicode="&#x2019;" horiz-adv-x="223" 
d="M86 710h1c42 0 93 -38 93 -102c0 -70 -65 -114 -128 -130l-10 27c48 20 77 43 77 84c0 35 -29 56 -62 62c-7 1 -13 8 -13 20c0 27 25 39 42 39z" />
    <glyph glyph-name="parenleft" unicode="(" horiz-adv-x="346" 
d="M300 -147l-18 -22c-146 98 -212 259 -212 439v1c0 179 66 339 212 438l18 -23c-100 -83 -157 -244 -157 -416s58 -333 157 -417z" />
    <glyph glyph-name="parenright" unicode=")" horiz-adv-x="346" 
d="M275 270v-1c0 -179 -62 -337 -211 -438l-19 22c102 85 158 245 158 417s-58 334 -158 416l19 23c149 -100 211 -259 211 -439z" />
    <glyph glyph-name="asterisk" unicode="*" horiz-adv-x="404" 
d="M364 492l-132 -24l39 -137l-23 -10l-70 130l-122 -76l-15 22l103 93l-104 102l15 21l120 -80l58 132l25 -6l-28 -139l134 -2v-26z" />
    <glyph glyph-name="plus" unicode="+" horiz-adv-x="580" 
d="M529 230h-209v-230h-58v230h-210v49h210v208h58v-208h209v-49z" />
    <glyph glyph-name="comma" unicode="," horiz-adv-x="228" 
d="M94 129h1c35 0 91 -38 91 -108c0 -77 -70 -120 -131 -138l-11 29c48 20 77 46 77 84c0 36 -28 59 -63 67c-5 1 -12 8 -12 25c0 25 24 41 48 41z" />
    <glyph glyph-name="hyphen" unicode="-" horiz-adv-x="356" 
d="M300 253l-15 -55h-228l14 55h229z" />
    <glyph glyph-name="period" unicode="." horiz-adv-x="228" 
d="M114 -12h-1c-31 0 -55 23 -55 58c0 32 24 57 56 57s56 -25 56 -57c0 -35 -24 -58 -56 -58z" />
    <glyph glyph-name="slash" unicode="/" horiz-adv-x="331" 
d="M298 665l-217 -709h-56l217 709h56z" />
    <glyph glyph-name="zero" unicode="0" horiz-adv-x="480" 
d="M240 635h1c149 0 202 -169 202 -323c0 -146 -53 -324 -203 -324c-151 0 -205 165 -205 323c0 146 55 324 205 324zM239 602h-1c-90 0 -114 -150 -114 -289c0 -140 29 -291 116 -291c90 0 114 150 114 290c0 142 -25 290 -115 290z" />
    <glyph glyph-name="one" unicode="1" horiz-adv-x="480" 
d="M384 0h-275v27c91 7 96 15 96 87v385c0 52 -4 57 -48 59l-48 2v23c64 11 123 30 178 52v-521c0 -72 6 -80 97 -87v-27z" />
    <glyph glyph-name="two" unicode="2" horiz-adv-x="480" 
d="M412 140l28 -9c-13 -42 -23 -86 -35 -131h-374v23c56 55 112 112 162 170c62 74 125 156 125 242c0 84 -44 133 -118 133c-68 0 -110 -54 -136 -93l-22 20l57 81c30 33 77 59 135 59c88 0 168 -64 168 -169c0 -87 -40 -146 -132 -244l-142 -149h187c54 0 67 4 97 67z" />
    <glyph glyph-name="three" unicode="3" horiz-adv-x="480" 
d="M285 378v-2c88 -17 139 -79 139 -152c0 -162 -190 -236 -262 -236c-46 0 -87 22 -100 34c-14 13 -18 24 -16 36c1 13 14 26 23 33c8 6 16 7 24 0c26 -23 67 -51 124 -51c71 0 121 53 121 152c0 92 -70 129 -127 129c-24 0 -48 -6 -64 -11l-7 29c92 29 160 68 160 142
c0 62 -42 94 -95 94c-55 0 -95 -42 -120 -79l-21 20l44 63c28 31 74 56 126 56h1c90 0 149 -56 149 -132c0 -29 -12 -52 -31 -71c-15 -16 -39 -34 -68 -54z" />
    <glyph glyph-name="four" unicode="4" horiz-adv-x="480" 
d="M456 178h-96v-72c0 -67 4 -72 85 -79v-27h-256v27c87 7 91 13 91 79v72h-260v28c95 142 197 290 300 426h40v-407h96v-47zM280 225v296h-2c-64 -90 -129 -185 -195 -296h197z" />
    <glyph glyph-name="five" unicode="5" horiz-adv-x="480" 
d="M152 550l-26 -185c38 14 85 30 112 30c128 0 193 -87 193 -169c0 -60 -28 -117 -89 -167c-54 -44 -121 -70 -174 -71c-46 0 -88 21 -103 35c-13 14 -18 22 -16 34c1 10 10 23 21 33c9 7 17 8 27 0c21 -19 62 -51 123 -51c85 0 127 73 127 148c0 88 -54 151 -163 151
c-42 0 -80 -11 -103 -20l39 305h285l6 -8l-26 -65h-233z" />
    <glyph glyph-name="six" unicode="6" horiz-adv-x="480" 
d="M137 343l67 33c22 10 43 17 63 17c107 0 180 -82 180 -185c0 -119 -85 -220 -205 -220c-117 0 -205 96 -205 250c0 219 152 332 258 371c40 14 88 25 128 32l7 -32c-33 -6 -72 -18 -109 -35c-61 -29 -154 -92 -184 -231zM228 337h-1c-37 0 -71 -15 -95 -28
c-5 -19 -6 -43 -6 -69c0 -120 51 -218 133 -218c78 0 102 84 102 150c0 83 -42 165 -133 165z" />
    <glyph glyph-name="seven" unicode="7" horiz-adv-x="480" 
d="M447 623l8 -12c-94 -203 -187 -407 -283 -613l-74 -10l-7 11c105 171 218 377 297 551h-216c-66 0 -72 -9 -96 -75h-29c9 55 14 105 18 148h382z" />
    <glyph glyph-name="eight" unicode="8" horiz-adv-x="480" 
d="M248 635h1c94 0 162 -67 162 -148c0 -29 -10 -58 -29 -80c-7 -9 -34 -33 -79 -64c69 -39 132 -87 132 -174c0 -117 -113 -181 -198 -181c-107 0 -192 62 -192 169c0 46 23 74 45 95c16 15 54 42 88 64c-65 37 -108 85 -108 155c0 84 71 164 178 164zM238 603h-1
c-58 0 -92 -52 -92 -103c0 -74 59 -107 130 -142c34 27 61 64 61 124c0 84 -52 121 -98 121zM247 20h1c60 0 107 46 107 123c0 75 -71 118 -148 157c-48 -32 -82 -82 -82 -137c0 -92 59 -143 122 -143z" />
    <glyph glyph-name="nine" unicode="9" horiz-adv-x="480" 
d="M242 635h1c124 0 197 -114 197 -250c0 -184 -101 -314 -236 -368c-54 -22 -115 -32 -140 -32l-5 30c143 24 252 124 285 276l-67 -36c-22 -12 -41 -16 -60 -16c-106 0 -179 78 -179 183c0 96 75 213 204 213zM229 602h-1c-76 0 -104 -86 -104 -145
c0 -88 50 -161 134 -161c35 0 69 12 90 28c3 22 4 46 4 66c0 88 -26 212 -123 212z" />
    <glyph glyph-name="colon" unicode=":" horiz-adv-x="228" 
d="M114 411h1c31 0 55 -23 55 -56c0 -34 -24 -58 -56 -58s-55 24 -55 58c0 33 23 56 55 56zM115 -12h-1c-31 0 -55 23 -55 58c0 32 24 57 56 57s56 -25 56 -57c0 -35 -24 -58 -56 -58z" />
    <glyph glyph-name="semicolon" unicode=";" horiz-adv-x="228" 
d="M114 411h1c31 0 54 -23 54 -57c0 -33 -23 -57 -55 -57s-56 24 -56 57c0 34 24 57 56 57zM94 130h1c36 0 91 -39 91 -108c0 -78 -69 -121 -130 -140l-11 30c48 20 76 46 76 84c0 37 -28 59 -62 67c-5 1 -13 8 -13 25c0 25 24 42 48 42z" />
    <glyph glyph-name="less" unicode="&#x3c;" horiz-adv-x="552" 
d="M493 0l-433 230v47l433 230v-56l-374 -197v-2l374 -196v-56z" />
    <glyph glyph-name="equal" unicode="=" horiz-adv-x="580" 
d="M529 321h-477v50h477v-50zM529 138h-477v50h477v-50z" />
    <glyph glyph-name="greater" unicode="&#x3e;" horiz-adv-x="552" 
d="M492 230l-432 -230v56l374 196v2l-374 197v56l432 -230v-47z" />
    <glyph glyph-name="question" unicode="?" horiz-adv-x="379" 
d="M219 216l-18 -23c-38 14 -111 69 -111 130c0 34 21 64 84 112c37 27 99 68 99 111c0 35 -23 55 -60 55c-63 0 -102 -54 -114 -54c-13 0 -41 20 -41 44c0 13 6 23 21 36c31 27 75 38 92 38h1c83 0 160 -78 160 -160c0 -35 -14 -60 -48 -88c-32 -27 -111 -72 -111 -120
c0 -34 17 -55 46 -81zM184 -12h-1c-30 0 -54 23 -54 58c0 32 24 57 55 57c32 0 56 -25 56 -57c0 -35 -24 -58 -56 -58z" />
    <glyph glyph-name="at" unicode="@" horiz-adv-x="753" 
d="M545 -14l11 -28c-70 -41 -135 -54 -203 -54c-158 0 -302 101 -302 304c1 234 190 371 382 371c179 0 280 -119 280 -257c0 -136 -102 -248 -236 -248c-53 0 -53 30 -45 71l11 57l-2 1c-33 -49 -124 -129 -170 -129c-24 0 -48 26 -48 84c0 55 22 132 81 188
c44 42 98 73 160 74c14 1 37 -5 50 -7c14 -3 23 -5 34 -5c-16 -65 -33 -145 -49 -227c-9 -53 -5 -66 20 -65c67 2 146 71 146 206c0 138 -100 218 -237 218c-187 0 -312 -135 -312 -322c0 -132 70 -270 269 -270c59 0 133 23 160 38zM423 380h-1c-26 0 -48 -12 -65 -30
c-28 -32 -57 -103 -58 -168c0 -36 9 -44 21 -44c18 0 72 37 131 120c11 33 20 81 26 111c-13 6 -35 11 -54 11z" />
    <glyph glyph-name="A" unicode="A" horiz-adv-x="691" 
d="M673 0h-245v28c63 8 72 16 59 55s-33 93 -55 154h-213c-16 -45 -31 -87 -44 -129c-22 -63 -13 -73 62 -80v-28h-217v28c63 9 77 15 112 103l207 525l31 9c62 -172 129 -362 193 -536c32 -86 45 -95 110 -101v-28zM418 280l-88 255h-2c-32 -86 -64 -173 -94 -255h184z" />
    <glyph glyph-name="B" unicode="B" horiz-adv-x="588" 
d="M372 353v-3c99 -15 177 -59 177 -159c0 -67 -37 -118 -96 -151c-51 -28 -117 -40 -196 -40h-221v28c86 6 92 12 92 96v403c0 83 -4 89 -84 95v28h257c75 0 119 -12 150 -34c36 -24 56 -68 56 -114c0 -95 -79 -134 -135 -149zM212 362h47c110 0 156 44 156 128
c0 68 -38 128 -133 128c-25 0 -47 -4 -57 -10c-9 -6 -13 -17 -13 -50v-196zM212 329v-204c0 -72 19 -91 83 -91c82 1 155 43 155 147c0 103 -70 148 -192 148h-46z" />
    <glyph glyph-name="C" unicode="C" horiz-adv-x="665" 
d="M614 176l29 -11c-14 -46 -39 -120 -57 -153c-28 -7 -112 -27 -184 -27c-249 0 -358 172 -358 331c0 210 162 349 385 349c81 0 149 -22 177 -27c8 -57 14 -97 20 -151l-30 -7c-26 106 -86 149 -194 149c-167 0 -256 -141 -256 -293c0 -187 110 -315 262 -315
c102 0 156 55 206 155z" />
    <glyph glyph-name="D" unicode="D" horiz-adv-x="735" 
d="M42 650h281c127 0 221 -26 283 -85c49 -48 84 -121 84 -215c0 -120 -46 -209 -123 -267c-75 -58 -174 -83 -297 -83h-237v27c86 6 94 12 94 97v401c0 86 -8 90 -85 96v29zM213 547v-416c0 -76 33 -95 106 -95c187 0 273 140 273 300c0 103 -38 192 -118 239
c-45 29 -103 41 -170 41c-42 0 -68 -5 -78 -12s-13 -18 -13 -57z" />
    <glyph glyph-name="E" unicode="E" horiz-adv-x="568" 
d="M516 162l30 -4c-6 -33 -26 -127 -35 -158h-482v28c91 7 99 15 99 96v398c0 90 -8 93 -86 100v28h446c0 -25 5 -93 8 -144l-29 -5c-9 42 -19 64 -32 86c-14 21 -41 28 -113 28h-76c-31 0 -33 -2 -33 -32v-227h94c90 0 95 8 108 75h29v-192h-29c-13 72 -20 78 -107 78h-95
v-189c0 -47 6 -68 24 -81c19 -12 54 -13 104 -13c76 0 104 8 126 34c17 20 36 54 49 94z" />
    <glyph glyph-name="F" unicode="F" horiz-adv-x="529" 
d="M493 503l-30 -4c-8 40 -14 59 -28 80c-16 28 -38 36 -114 36h-76c-29 0 -32 -2 -32 -31v-238h103c91 0 95 9 108 73h28v-192h-28c-13 68 -17 80 -108 80h-103v-181c0 -86 8 -92 99 -98v-28h-272v28c80 6 88 12 88 98v398c0 87 -8 92 -85 98v28h440c0 -36 5 -100 10 -147z
" />
    <glyph glyph-name="G" unicode="G" horiz-adv-x="715" 
d="M692 301v-27c-60 -9 -64 -14 -64 -73v-85c0 -35 1 -67 7 -94c-62 -15 -144 -37 -224 -37c-220 0 -367 137 -367 335c0 232 186 345 382 345c83 0 160 -22 192 -29c3 -35 8 -90 16 -156l-28 -6c-24 122 -100 155 -195 155c-153 0 -265 -112 -265 -297
c0 -144 85 -312 278 -312c34 0 65 7 87 18c20 11 32 23 32 65v85c0 72 -7 78 -105 86v27h254z" />
    <glyph glyph-name="H" unicode="H" horiz-adv-x="766" 
d="M729 650v-28c-82 -7 -90 -12 -90 -95v-404c0 -84 8 -89 89 -95v-28h-268v28c85 6 94 11 94 95v200h-341v-200c0 -83 8 -89 90 -95v-28h-263v28c80 6 88 11 88 95v404c0 84 -8 88 -90 95v28h259v-28c-76 -7 -84 -12 -84 -95v-162h341v162c0 83 -8 88 -86 95v28h261z" />
    <glyph glyph-name="I" unicode="I" horiz-adv-x="341" 
d="M303 0h-265v28c82 6 90 12 90 97v400c0 85 -8 91 -90 97v28h265v-28c-82 -6 -90 -12 -90 -97v-400c0 -86 8 -91 90 -97v-28z" />
    <glyph glyph-name="J" unicode="J" horiz-adv-x="329" 
d="M303 650v-28c-77 -6 -85 -13 -85 -97v-374c0 -128 -20 -197 -86 -258c-34 -31 -68 -50 -93 -58l-13 28c56 28 86 74 96 131c9 48 11 106 11 190v341c0 84 -8 91 -89 97v28h259z" />
    <glyph glyph-name="K" unicode="K" horiz-adv-x="673" 
d="M667 0h-154c-77 87 -158 185 -248 291c-23 27 -37 31 -54 28v-190c0 -88 10 -95 92 -101v-28h-260v28c76 6 85 13 85 101v391c0 91 -9 96 -88 102v28h258v-28c-77 -6 -87 -13 -87 -102v-175c22 6 42 20 70 46c55 53 123 122 168 177c29 36 29 46 -17 51l-22 3v28h240v-28
c-76 -7 -99 -17 -163 -75c-38 -35 -109 -106 -177 -175c76 -94 185 -218 235 -272c53 -57 73 -66 122 -72v-28z" />
    <glyph glyph-name="L" unicode="L" horiz-adv-x="538" 
d="M495 163l30 -6c-6 -31 -27 -126 -36 -157h-453v28c84 6 92 13 92 98v400c0 85 -7 90 -88 96v28h261v-28c-79 -6 -88 -11 -88 -96v-395c0 -54 5 -74 23 -84c20 -11 54 -13 96 -13c55 0 89 5 112 31c17 20 36 52 51 98z" />
    <glyph glyph-name="M" unicode="M" horiz-adv-x="891" 
d="M861 0h-263v28c81 8 85 13 84 119l-3 408h-4l-244 -548h-20l-224 534h-2l-15 -285c-4 -82 -4 -126 -3 -166c2 -48 26 -55 92 -62v-28h-233v28c58 7 78 18 85 60c5 35 11 79 19 183l14 208c9 130 4 134 -87 143v28h164l228 -500l231 500h170v-28c-88 -8 -95 -10 -92 -113
l10 -362c3 -106 6 -111 93 -119v-28z" />
    <glyph glyph-name="N" unicode="N" horiz-adv-x="743" 
d="M719 650v-28c-56 -3 -80 -16 -84 -60c-4 -30 -6 -75 -6 -168v-403h-31l-426 524h-2v-251c0 -92 3 -140 6 -169c5 -51 28 -63 96 -67v-28h-237v28c58 3 83 16 88 65c3 31 6 79 6 171v220c0 73 -2 77 -20 101c-20 25 -42 33 -89 37v28h148l417 -502h3v246
c0 92 -4 138 -7 166c-5 45 -29 58 -98 62v28h236z" />
    <glyph glyph-name="O" unicode="O" horiz-adv-x="747" 
d="M380 665h1c169 0 322 -132 322 -332c0 -216 -151 -348 -334 -348c-181 0 -325 141 -325 333c0 180 126 347 336 347zM360 629h-1c-111 0 -213 -96 -213 -283c0 -188 103 -325 244 -325c111 0 211 93 211 285c0 211 -110 323 -241 323z" />
    <glyph glyph-name="P" unicode="P" horiz-adv-x="563" 
d="M46 650h247c71 0 128 -12 168 -42c39 -29 65 -75 65 -141c0 -129 -98 -192 -195 -205c-15 -1 -34 -1 -45 0l-74 19v-157c0 -85 9 -90 99 -96v-28h-271v28c80 6 88 14 88 97v400c0 88 -8 92 -82 97v28zM212 559v-245c13 -5 40 -12 73 -12c65 0 145 35 145 162
c0 108 -69 154 -151 154c-28 0 -49 -5 -56 -12c-8 -7 -11 -19 -11 -47z" />
    <glyph glyph-name="Q" unicode="Q" horiz-adv-x="745" 
d="M720 -138l-8 -21c-48 -1 -98 7 -128 15c-31 8 -108 45 -230 130c-56 3 -143 25 -206 86c-61 57 -104 143 -104 242c0 185 126 351 340 351c168 0 319 -133 319 -335c0 -177 -109 -291 -227 -328c62 -43 151 -98 244 -140zM348 25l68 22c9 -6 18 -13 27 -19
c80 23 158 114 158 274c0 208 -104 326 -241 326c-111 0 -214 -96 -214 -287c0 -169 85 -292 202 -316z" />
    <glyph glyph-name="R" unicode="R" horiz-adv-x="621" 
d="M631 18l-4 -26c-12 0 -23 0 -35 1c-75 4 -117 26 -162 91c-35 49 -71 111 -101 160c-17 28 -34 40 -86 40h-32v-159c0 -85 9 -91 89 -97v-28h-263v28c82 6 91 12 91 97v402c0 85 -8 88 -86 95v28h248c73 0 122 -9 160 -34c40 -26 66 -71 66 -131
c0 -86 -53 -139 -127 -171c17 -33 59 -100 89 -145c36 -52 56 -78 81 -104c27 -30 50 -41 72 -47zM211 317h48c51 0 84 8 109 28c39 30 55 70 55 124c0 108 -71 148 -147 148c-29 0 -46 -4 -54 -10c-7 -5 -11 -17 -11 -44v-246z" />
    <glyph glyph-name="S" unicode="S" horiz-adv-x="474" 
d="M409 504l-29 -6c-18 64 -44 133 -131 133c-77 0 -111 -56 -111 -110c0 -73 48 -107 127 -148c78 -40 173 -87 173 -199c0 -105 -89 -189 -222 -189c-41 0 -73 8 -98 15c-25 9 -40 16 -49 21c-8 21 -21 107 -27 155l29 7c16 -61 61 -162 164 -162c75 0 120 47 120 120
c0 74 -55 109 -130 149c-64 34 -165 84 -165 197c0 96 77 178 206 178c46 0 88 -11 126 -23c4 -36 9 -75 17 -138z" />
    <glyph glyph-name="T" unicode="T" horiz-adv-x="617" 
d="M592 498l-29 -3c-11 48 -20 73 -32 89c-16 24 -33 31 -108 31h-71v-492c0 -79 8 -89 103 -95v-28h-287v28c91 6 99 16 99 95v492h-62c-83 0 -103 -8 -116 -31c-12 -17 -20 -45 -32 -89h-29c5 60 10 125 12 180h20c14 -23 27 -25 55 -25h395c27 0 35 6 51 25h21
c0 -46 5 -119 10 -177z" />
    <glyph glyph-name="U" unicode="U" horiz-adv-x="736" 
d="M716 650v-28c-60 -4 -83 -18 -88 -59c-3 -27 -5 -70 -5 -162v-82c0 -118 -18 -203 -76 -264c-46 -48 -113 -69 -179 -69c-58 0 -116 14 -160 48c-60 46 -88 121 -88 238v249c0 90 -8 94 -87 101v28h259v-28c-79 -5 -87 -11 -87 -101v-227c0 -161 64 -253 188 -253
c144 0 189 120 189 285v75c0 92 -3 134 -7 165c-6 39 -27 51 -97 56v28h238z" />
    <glyph glyph-name="V" unicode="V" horiz-adv-x="703" 
d="M687 650v-28c-68 -8 -81 -17 -119 -107c-27 -65 -133 -319 -208 -526h-31c-67 183 -149 399 -207 544c-29 75 -45 83 -104 88v29h245v-28c-71 -8 -75 -15 -59 -59c26 -71 99 -265 166 -436h2c50 125 126 320 158 419c19 58 13 66 -68 76v28h225z" />
    <glyph glyph-name="W" unicode="W" horiz-adv-x="971" 
d="M956 650v-28c-69 -9 -78 -17 -108 -100c-23 -64 -83 -253 -165 -533h-31c-55 161 -124 354 -175 499h-2c-56 -176 -112 -337 -163 -499h-31c-53 181 -109 357 -164 535c-25 82 -40 90 -101 98v28h243v-28c-73 -9 -75 -17 -60 -68c39 -135 78 -270 122 -412h2
c53 170 111 335 162 498h29c56 -164 114 -326 175 -499h2c42 134 97 330 113 401c14 60 10 71 -69 80v28h221z" />
    <glyph glyph-name="X" unicode="X" horiz-adv-x="654" 
d="M655 0h-263v28c62 7 69 16 50 49c-25 41 -70 116 -133 214c-48 -74 -89 -143 -121 -202c-24 -43 -19 -53 48 -61v-28h-229v28c57 6 88 19 117 57c24 31 76 103 163 239c-52 84 -99 158 -134 214c-42 65 -56 76 -127 84v28h245v-28c-60 -7 -62 -16 -47 -42
c33 -57 71 -115 115 -182c42 64 72 113 98 162c25 44 20 54 -47 62v28h229v-28c-74 -8 -93 -18 -138 -77c-21 -29 -54 -76 -122 -179c55 -86 110 -173 158 -246c46 -70 69 -85 138 -92v-28z" />
    <glyph glyph-name="Y" unicode="Y" horiz-adv-x="634" 
d="M620 650v-28c-69 -8 -80 -18 -119 -79c-45 -73 -79 -131 -127 -219c-13 -26 -16 -37 -16 -63v-136c0 -84 8 -91 100 -97v-28h-283v28c89 6 98 12 98 97v133c0 20 -4 29 -21 59c-35 62 -71 127 -126 220c-40 68 -51 79 -111 85v28h239v-28c-71 -9 -69 -21 -50 -54
c42 -80 91 -162 134 -237c37 66 91 164 119 225c23 50 20 58 -58 66v28h221z" />
    <glyph glyph-name="Z" unicode="Z" horiz-adv-x="603" 
d="M561 176l30 -6c-8 -36 -26 -129 -37 -170h-517l-8 15c140 198 281 395 421 599h-174c-108 0 -124 -9 -141 -36c-12 -18 -23 -43 -34 -87h-30c5 64 11 139 12 184h24c12 -23 23 -25 53 -25h399l7 -14c-138 -197 -275 -391 -413 -594c33 -4 94 -6 163 -6
c125 0 163 7 191 37c20 22 36 54 54 103z" />
    <glyph glyph-name="bracketleft" unicode="[" horiz-adv-x="345" 
d="M290 -163h-170v866h170v-28c-106 -8 -109 -13 -109 -91v-628c0 -78 2 -82 109 -91v-28z" />
    <glyph glyph-name="backslash" unicode="\" horiz-adv-x="333" 
d="M299 -44h-57l-206 709h56z" />
    <glyph glyph-name="bracketright" unicode="]" horiz-adv-x="345" 
d="M226 -163h-171v28c107 9 110 14 110 93v626c0 78 -3 83 -110 92v27h171v-866z" />
    <glyph glyph-name="asciicircum" unicode="^" horiz-adv-x="566" 
d="M496 211h-59l-155 346l-157 -346h-55l192 412h43z" />
    <glyph glyph-name="underscore" unicode="_" horiz-adv-x="500" 
d="M500 -125h-500v50h500v-50z" />
    <glyph glyph-name="quoteleft" unicode="&#x2018;" horiz-adv-x="224" 
d="M172 716l10 -26c-49 -21 -78 -44 -78 -84c0 -36 29 -57 62 -63c7 -1 14 -8 14 -20c0 -26 -26 -38 -43 -38h-1c-42 0 -94 37 -94 100c0 71 67 115 130 131z" />
    <glyph glyph-name="a" unicode="a" horiz-adv-x="439" 
d="M433 39l-85 -51c-15 0 -36 9 -47 19c-13 14 -19 28 -24 45c-40 -27 -88 -64 -118 -64c-71 0 -120 59 -120 122c0 49 26 80 81 99c60 20 133 47 155 65v18c0 72 -34 113 -84 113c-20 0 -35 -8 -45 -20c-13 -13 -22 -35 -30 -65c-4 -17 -15 -24 -29 -24
c-18 0 -44 20 -44 43c0 15 13 26 32 40c28 20 93 59 150 70c30 0 60 -9 82 -27c35 -29 45 -70 45 -122v-186c0 -45 18 -60 35 -60c12 0 26 5 36 11zM275 84v156c-21 -11 -69 -32 -90 -42c-39 -18 -61 -37 -61 -73c0 -52 40 -77 71 -77c26 1 61 18 80 36z" />
    <glyph glyph-name="b" unicode="b" horiz-adv-x="508" 
d="M152 404l81 35c16 7 30 10 41 10c107 0 197 -92 197 -210c0 -147 -117 -251 -251 -251c-41 0 -92 10 -147 36v556c0 62 -2 68 -66 74v23c47 6 108 21 145 35v-308zM152 374v-258c0 -15 2 -25 6 -34c6 -20 36 -55 89 -56c83 0 136 71 136 187c0 114 -70 180 -153 180
c-28 0 -60 -8 -78 -19z" />
    <glyph glyph-name="c" unicode="c" horiz-adv-x="423" 
d="M391 111l17 -21c-44 -58 -111 -102 -170 -102c-126 0 -200 102 -200 209c0 77 33 144 100 196c52 40 112 56 150 56h1c40 0 73 -13 89 -26c13 -11 16 -20 16 -31c0 -21 -22 -43 -33 -43c-5 0 -10 3 -19 11c-30 28 -65 41 -100 41c-66 0 -124 -55 -124 -160
c0 -139 95 -185 151 -185c43 0 76 12 122 55z" />
    <glyph glyph-name="d" unicode="d" horiz-adv-x="528" 
d="M517 51v-25c-22 -4 -97 -17 -155 -38v65l-61 -36c-39 -23 -66 -29 -78 -29c-80 0 -185 73 -185 213c0 139 122 248 258 248c14 0 43 -3 66 -11v141c0 66 -5 69 -77 74v24c52 7 119 22 156 35v-597c0 -52 7 -57 44 -61zM362 85v276c-24 35 -65 51 -103 51
c-46 0 -130 -39 -130 -184c0 -119 73 -177 137 -177c36 0 72 16 96 34z" />
    <glyph glyph-name="e" unicode="e" horiz-adv-x="425" 
d="M379 106l16 -21c-63 -79 -132 -97 -163 -97c-123 0 -195 100 -195 213c0 69 25 130 66 175c41 46 95 73 146 73h1c83 0 150 -74 150 -152c0 -20 -5 -28 -23 -32c-17 -3 -142 -13 -261 -17c1 -136 79 -192 149 -192c40 0 78 16 114 50zM226 412h-1
c-45 0 -89 -42 -104 -123c56 0 111 1 169 3c18 0 24 6 24 20c1 52 -33 100 -88 100z" />
    <glyph glyph-name="f" unicode="f" horiz-adv-x="296" 
d="M54 437h47v22c0 31 4 60 11 82s23 71 77 117c35 31 71 49 110 54c34 -1 63 -15 79 -34c9 -11 10 -24 5 -35c-3 -8 -9 -16 -19 -24c-9 -7 -18 -7 -27 3c-20 18 -48 37 -81 37c-26 0 -42 -12 -53 -30c-13 -19 -24 -67 -23 -152v-40h118c6 -9 1 -33 -10 -39h-108v-288
c0 -74 7 -77 86 -85v-25h-236v26c64 6 71 11 71 77v295h-70l-4 10z" />
    <glyph glyph-name="g" unicode="g" horiz-adv-x="468" 
d="M462 438l6 -8c-9 -16 -29 -43 -45 -51l-57 3c19 -22 30 -53 30 -89c0 -108 -90 -160 -175 -160c-17 0 -35 3 -51 5c-14 -9 -30 -27 -30 -41c0 -20 18 -39 63 -39c36 0 72 1 105 1c62 0 144 -20 144 -118c0 -101 -117 -198 -250 -198c-111 0 -172 65 -173 122
c0 22 9 41 24 56c20 20 59 52 83 70c-36 11 -61 34 -74 55c-9 15 -12 32 -11 42c40 15 72 41 88 61c-45 19 -88 66 -88 134c0 114 102 166 178 166h1c34 0 67 -9 96 -25c49 2 100 8 136 14zM220 419h-1c-43 0 -82 -42 -82 -120s38 -134 94 -134c44 1 83 40 83 119
s-37 135 -94 135zM242 -11h-1c-47 0 -69 -6 -87 -22c-26 -21 -46 -49 -46 -78c0 -54 58 -95 132 -95c95 0 144 49 144 111c0 34 -17 59 -46 71c-25 10 -54 13 -96 13z" />
    <glyph glyph-name="h" unicode="h" horiz-adv-x="534" 
d="M513 0h-211v26c58 6 66 12 66 77v166c0 82 -31 123 -98 123c-38 0 -76 -19 -104 -51v-238c0 -64 5 -71 64 -77v-26h-212l1 26c60 5 68 11 68 77v477c0 63 -2 68 -68 74v23c48 7 108 23 147 35v-336c35 36 89 73 143 73c81 1 138 -51 138 -171v-175c0 -66 7 -72 66 -77
v-26z" />
    <glyph glyph-name="i" unicode="i" horiz-adv-x="268" 
d="M135 536c-26 0 -50 24 -50 51c0 30 24 52 51 52c28 0 50 -22 50 -52c0 -27 -22 -51 -51 -51zM252 0h-220v26c63 6 70 12 70 80v207c0 61 -3 66 -63 75v24c51 8 98 21 142 39v-345c0 -68 7 -74 71 -80v-26z" />
    <glyph glyph-name="j" unicode="j" horiz-adv-x="256" 
d="M135 536c-27 0 -50 24 -50 51c0 30 23 52 51 52c27 0 49 -22 49 -52c0 -27 -22 -51 -50 -51zM34 389v23c53 8 103 21 146 39v-339c0 -66 -4 -109 -23 -162c-34 -100 -98 -176 -121 -196c-9 -8 -18 -11 -25 -11c-14 0 -36 20 -36 44c0 12 6 20 21 23c32 8 59 20 72 38
c12 15 20 37 25 72c6 43 9 102 9 193v196c0 67 -6 71 -68 80z" />
    <glyph glyph-name="k" unicode="k" horiz-adv-x="496" 
d="M513 0l-137 -2c-46 51 -109 131 -164 198c-13 16 -22 22 -31 22c-5 0 -9 -1 -16 -3v-111c0 -66 9 -72 73 -78v-26h-224v26c67 6 73 14 73 78v473c0 66 -5 71 -66 76v24c48 5 105 22 144 35v-471c30 6 48 19 63 35c22 22 52 61 71 88c20 31 17 39 -30 44v26l204 9v-25
c-69 -12 -90 -22 -129 -59c-25 -25 -43 -45 -86 -95c20 -30 121 -148 155 -183c36 -38 62 -53 100 -55v-26z" />
    <glyph glyph-name="l" unicode="l" horiz-adv-x="253" 
d="M238 0h-223v26c63 6 72 12 72 78v473c0 68 -6 71 -69 76v24c52 6 114 23 148 35v-608c0 -66 8 -72 72 -78v-26z" />
    <glyph glyph-name="m" unicode="m" horiz-adv-x="819" 
d="M796 0h-213v26c59 6 70 10 70 81v167c0 71 -25 116 -88 116c-36 0 -74 -20 -112 -52c2 -12 3 -23 3 -42v-195c0 -63 9 -69 64 -75v-26h-214v26c62 6 71 11 71 77v172c0 74 -26 115 -87 115c-40 0 -79 -27 -109 -52v-235c0 -65 8 -71 57 -77v-26h-211v26c66 6 75 12 75 77
v207c0 64 -3 69 -61 78v23c44 8 95 21 139 41v-81c21 14 43 32 73 51c26 16 50 27 82 27c48 0 91 -30 111 -82c29 22 58 41 83 56c21 14 47 26 75 26c78 0 127 -55 127 -153v-193c0 -67 8 -71 65 -77v-26z" />
    <glyph glyph-name="n" unicode="n" horiz-adv-x="547" 
d="M523 0h-208v26c59 6 66 14 66 83v167c0 69 -24 114 -91 114c-40 0 -79 -25 -109 -51v-235c0 -68 6 -72 65 -78v-26h-217v26c68 7 73 12 73 78v207c0 64 -6 67 -60 77v23c48 9 95 21 139 41v-80c20 15 42 30 67 47c28 18 54 30 83 30c79 0 129 -55 129 -152v-193
c0 -68 5 -72 63 -78v-26z" />
    <glyph glyph-name="o" unicode="o" horiz-adv-x="510" 
d="M256 449h1c123 0 216 -99 216 -223c0 -161 -118 -238 -217 -238c-137 0 -219 110 -219 221c0 165 128 240 219 240zM246 416h-1c-61 0 -115 -62 -115 -175c0 -126 55 -220 137 -220c62 0 113 46 113 183c0 117 -47 212 -134 212z" />
    <glyph glyph-name="p" unicode="p" horiz-adv-x="524" 
d="M169 380l92 54c18 10 37 15 49 15c111 0 177 -90 177 -189c0 -151 -119 -248 -249 -272c-29 1 -56 11 -69 18v-131c0 -76 7 -81 85 -88v-27h-237v27c64 6 73 12 73 78v452c0 65 -4 67 -66 75v24c42 7 98 24 145 43v-79zM169 347v-271c22 -23 60 -39 94 -39
c84 0 140 72 140 185c0 107 -61 167 -134 167c-32 0 -73 -22 -100 -42z" />
    <glyph glyph-name="q" unicode="q" horiz-adv-x="511" 
d="M515 -240h-240v27c78 6 85 12 85 83v160l-106 -42c-146 0 -215 113 -215 210c0 143 130 252 267 251c36 -3 58 -8 70 -13c13 -4 18 -5 27 -5c6 0 19 4 34 11l4 -3c-1 -21 -3 -40 -3 -107v-464c0 -70 7 -74 77 -81v-27zM360 60v307c-23 26 -66 42 -98 42
c-68 0 -134 -60 -134 -178c0 -121 84 -187 158 -187c31 0 54 7 74 16z" />
    <glyph glyph-name="r" unicode="r" horiz-adv-x="371" 
d="M181 343h2c30 50 73 106 121 106c34 0 58 -26 58 -50c0 -20 -13 -40 -32 -49c-12 -5 -21 -4 -27 2c-14 15 -26 21 -42 21c-26 0 -58 -30 -80 -86v-183c0 -66 5 -72 82 -78v-26h-230v26c62 6 69 12 69 78v207c0 66 -5 70 -62 78v22c49 8 93 20 141 41v-109z" />
    <glyph glyph-name="s" unicode="s" horiz-adv-x="367" 
d="M320 325l-26 -6c-19 59 -54 99 -103 99c-38 0 -65 -30 -65 -69c0 -44 40 -68 85 -87c75 -31 126 -67 126 -136c0 -91 -85 -138 -165 -138c-51 0 -97 19 -115 34c-7 14 -16 82 -16 118l26 5c18 -66 63 -124 123 -124c37 0 71 28 71 70c0 44 -29 68 -79 91
c-60 28 -125 61 -125 138c0 70 60 129 152 129c41 1 68 -9 89 -17c8 -23 19 -82 22 -107z" />
    <glyph glyph-name="t" unicode="t" horiz-adv-x="305" 
d="M298 36l-68 -35c-17 -9 -33 -13 -42 -13c-63 0 -98 40 -98 119v291h-69l-4 10l27 29h46v73l65 66l14 -2v-137h113c9 -10 6 -32 -6 -39h-107v-257c0 -81 33 -96 58 -96s48 10 62 17z" />
    <glyph glyph-name="u" unicode="u" horiz-adv-x="531" 
d="M518 49v-25c-22 -3 -50 -9 -77 -16c-26 -7 -51 -15 -70 -20l-6 6v71c-23 -17 -46 -35 -74 -52c-29 -17 -50 -25 -77 -25c-67 0 -124 41 -124 149v196c0 53 -8 58 -33 64l-28 6v23c21 1 45 4 72 7c27 4 54 8 71 11c-3 -31 -3 -78 -3 -146v-135c0 -88 43 -112 88 -112
c36 0 74 15 108 48v233c0 54 -9 60 -42 65l-36 6v23c27 1 61 4 90 8c28 3 52 7 67 10v-334c0 -50 8 -57 46 -59z" />
    <glyph glyph-name="v" unicode="v" horiz-adv-x="463" 
d="M477 437v-25c-52 -7 -61 -16 -88 -76c-33 -75 -86 -198 -141 -347h-27c-45 120 -91 234 -138 350c-23 58 -31 65 -85 73v25h205v-25c-54 -7 -56 -15 -40 -58c26 -70 66 -175 95 -247c35 83 67 174 89 239c15 48 9 59 -48 66v25h178z" />
    <glyph glyph-name="w" unicode="w" horiz-adv-x="685" 
d="M696 437v-25c-50 -8 -59 -20 -80 -75c-30 -79 -74 -212 -120 -348h-28c-40 108 -81 206 -122 311c-38 -100 -79 -200 -118 -311h-29c-36 119 -74 237 -115 357c-18 52 -27 59 -75 66v25h207v-25c-60 -10 -65 -16 -50 -61c23 -77 48 -156 73 -233h2c37 96 74 199 116 314
h26c37 -104 78 -210 120 -317h2c22 69 50 156 68 230c13 52 7 58 -58 67v25h181z" />
    <glyph glyph-name="x" unicode="x" horiz-adv-x="472" 
d="M475 0h-215v26c43 5 51 13 34 40l-74 117c-22 -33 -45 -70 -64 -106c-19 -34 -17 -43 35 -51v-26h-187v26c62 8 73 16 113 66c28 35 55 75 84 120l-87 136c-30 49 -43 57 -98 64v25h200v-25c-43 -6 -46 -15 -28 -43l59 -92c20 29 40 60 58 93c18 32 11 37 -32 42v25h182
v-25c-61 -7 -74 -12 -110 -54c-20 -25 -45 -61 -78 -110l98 -148c37 -57 49 -66 110 -74v-26z" />
    <glyph glyph-name="y" unicode="y" horiz-adv-x="459" 
d="M478 437v-25c-53 -8 -62 -16 -89 -73c-25 -53 -56 -136 -125 -301c-67 -160 -89 -217 -103 -271c-6 -19 -18 -24 -32 -24c-28 0 -57 24 -57 48c0 16 9 25 26 36c31 20 51 44 74 89c19 35 27 56 31 69c5 15 5 28 -1 45c-40 114 -85 235 -115 306c-21 55 -31 68 -86 76v25
h203v-25c-46 -8 -51 -18 -38 -55l91 -251c28 68 71 186 92 249c12 38 5 49 -52 57v25h181z" />
    <glyph glyph-name="z" unicode="z" horiz-adv-x="420" 
d="M387 138l26 -12c-15 -39 -31 -86 -46 -126h-330l-6 15c86 127 167 255 249 389h-89c-72 0 -85 -16 -113 -72l-14 -27l-25 9c11 38 26 102 34 145h21c6 -16 18 -22 55 -22h230l6 -14c-82 -128 -162 -256 -244 -390h99c76 0 96 21 134 81z" />
    <glyph glyph-name="braceleft" unicode="{" horiz-adv-x="347" 
d="M293 -141v-28c-60 0 -145 13 -145 129c0 71 7 145 7 208c0 36 -3 81 -90 87v30c87 6 90 51 90 87c0 66 -7 141 -7 205c0 118 85 132 145 132v-28c-75 -10 -84 -49 -84 -94c0 -64 13 -133 13 -199c0 -55 -23 -102 -83 -116v-4c59 -13 83 -61 83 -116
c0 -68 -13 -133 -13 -196c0 -46 9 -86 84 -97z" />
    <glyph glyph-name="bar" unicode="|" horiz-adv-x="263" 
d="M163 -250h-64v1000h64v-1000z" />
    <glyph glyph-name="braceright" unicode="}" horiz-adv-x="347" 
d="M283 284v-29c-88 -6 -91 -53 -91 -90c0 -61 8 -133 8 -206c0 -111 -86 -128 -146 -128v28c72 11 85 49 85 94c0 63 -14 134 -14 198c0 55 23 102 84 117v4c-60 14 -84 62 -84 116c0 65 14 136 14 200c0 46 -13 83 -85 93v28c62 0 146 -13 146 -129c0 -72 -8 -144 -8 -204
c0 -38 3 -86 91 -92z" />
    <glyph glyph-name="asciitilde" unicode="~" horiz-adv-x="580" 
d="M489 308l36 -21c-21 -70 -64 -110 -127 -110c-47 0 -90 23 -127 45c-34 21 -59 33 -90 33c-42 0 -69 -27 -91 -86l-35 26c37 95 93 110 130 110c40 0 70 -13 117 -39c39 -23 70 -39 102 -39c41 0 65 26 85 81z" />
    <glyph glyph-name="exclamdown" unicode="&#xa1;" horiz-adv-x="276" 
d="M137 448h1c32 0 56 -24 56 -59c0 -33 -24 -58 -57 -58s-57 25 -57 58c0 35 24 59 57 59zM138 -228h-1c-36 0 -53 8 -53 30c0 16 3 39 7 79c13 115 21 231 30 358c5 8 31 8 35 0c10 -127 15 -243 28 -358c5 -40 8 -63 8 -79c0 -22 -18 -30 -54 -30z" />
    <glyph glyph-name="cent" unicode="&#xa2;" horiz-adv-x="480" 
d="M417 219l17 -23c-41 -54 -101 -90 -149 -98v-98h-35v96c-119 3 -199 99 -199 202c0 77 39 142 93 184c37 27 77 42 106 49v84h35v-80c7 1 11 1 17 1c43 0 80 -11 102 -26c10 -7 14 -17 14 -25c0 -20 -20 -43 -36 -43c-5 0 -10 4 -15 9c-24 24 -49 38 -82 42v-333
c53 -1 91 19 132 59zM250 164v330c-52 -1 -121 -45 -121 -155c0 -116 69 -164 121 -175z" />
    <glyph glyph-name="sterling" unicode="&#xa3;" horiz-adv-x="480" 
d="M375 295h-170c1 -9 0 -15 0 -23c0 -69 -33 -123 -86 -173c36 0 67 -11 104 -27c41 -19 84 -38 120 -38c37 0 58 18 58 46c0 12 -4 24 -7 32c-4 7 -3 14 2 22c10 15 24 26 36 26c14 0 24 -22 24 -41c0 -45 -40 -91 -78 -115c-26 -18 -55 -31 -90 -31c-40 0 -89 27 -134 53
c-30 17 -46 24 -59 24c-11 0 -27 -8 -41 -43c-3 -8 -6 -12 -12 -12c-13 0 -30 19 -12 48c9 16 30 38 47 58c34 37 42 94 42 135c0 26 -2 44 -3 59h-88v38h83c-2 25 -5 53 -5 82c0 65 21 125 83 175c30 25 76 45 104 45c45 0 86 -26 97 -41c7 -11 8 -20 3 -31
c-3 -7 -11 -17 -19 -23s-18 -6 -27 2c-25 21 -52 42 -94 42c-48 0 -71 -32 -71 -96c0 -45 10 -101 19 -155h174v-38z" />
    <glyph glyph-name="fraction" unicode="&#x2044;" horiz-adv-x="159" 
d="M297 632l-405 -659l-31 24l404 658z" />
    <glyph glyph-name="yen" unicode="&#xa5;" horiz-adv-x="480" 
d="M466 623v-26c-53 -7 -62 -18 -92 -71c-23 -40 -54 -101 -99 -195h129v-36h-136v-31v-36h136v-37h-136v-84c0 -67 6 -75 90 -80v-27h-257v27c84 5 89 13 89 80v84h-132v37h132v31c0 13 0 24 -1 36h-131v36h121c-25 61 -49 115 -87 196c-28 58 -38 64 -85 70v26h205v-26
l-26 -5c-28 -5 -33 -11 -25 -32c20 -50 60 -144 88 -208c26 53 73 155 88 195c11 28 10 38 -22 45l-28 5v26h179z" />
    <glyph glyph-name="florin" unicode="&#x192;" horiz-adv-x="480" 
d="M188 370l8 45c15 84 45 138 95 182c53 47 90 55 113 55c24 0 58 -21 58 -44c0 -16 -22 -49 -38 -41c-17 11 -44 33 -72 33c-17 0 -30 -11 -40 -30c-10 -22 -22 -56 -39 -200h112v-37h-118l-31 -205c-20 -134 -65 -190 -116 -228c-37 -28 -65 -38 -87 -38
c-27 0 -55 21 -55 37c0 17 24 49 35 49c10 0 39 -31 69 -31c22 0 34 10 42 34s18 75 32 190l26 192h-89l1 37h94z" />
    <glyph glyph-name="section" unicode="&#xa7;" horiz-adv-x="477" 
d="M426 202c-1 -86 -53 -164 -98 -214c-46 -48 -86 -76 -139 -92c-15 0 -49 7 -69 22c-13 11 -19 20 -19 30c0 12 12 26 20 32c8 5 15 6 22 4c8 -6 40 -29 78 -29c33 0 69 19 70 61c1 28 -16 56 -67 104c-29 28 -70 69 -98 98c-41 39 -72 91 -72 152c1 65 35 124 79 172
c50 54 88 84 151 99c25 0 53 -11 66 -23c9 -8 12 -14 12 -23c0 -15 -11 -28 -18 -33c-4 -3 -12 -7 -20 -1c-10 9 -39 27 -75 27c-45 0 -64 -31 -64 -53c0 -20 8 -43 37 -68c32 -29 75 -65 110 -96c50 -42 94 -96 94 -169zM104 413v-2c0 -53 25 -100 89 -160
c78 -71 110 -107 122 -127c11 -18 21 -52 19 -78l2 -1c23 34 38 72 38 114c0 43 -18 93 -80 148c-33 30 -92 83 -111 102c-24 24 -43 61 -39 99h-4c-22 -29 -35 -60 -36 -95z" />
    <glyph glyph-name="currency" unicode="&#xa4;" horiz-adv-x="480" 
d="M448 135l-41 -40l-64 75c-31 -26 -72 -39 -105 -39c-34 0 -76 12 -107 38l-63 -74l-40 40l69 66c-29 35 -43 79 -43 124s15 89 44 122l-70 68l40 39l64 -75c32 27 72 39 106 39h1c32 0 73 -12 105 -38l63 74l41 -39l-69 -68c27 -31 43 -77 43 -122s-16 -90 -44 -123z
M239 469h-1c-70 0 -123 -58 -123 -144c0 -87 54 -145 124 -145s123 58 123 145c0 86 -54 144 -123 144z" />
    <glyph glyph-name="quotesingle" unicode="'" horiz-adv-x="169" 
d="M119 710l6 -5c-2 -23 -18 -157 -26 -219l-28 -12c-10 94 -25 195 -29 209z" />
    <glyph glyph-name="quotedblleft" unicode="&#x201c;" horiz-adv-x="398" 
d="M172 716l10 -26c-49 -21 -78 -43 -78 -84c0 -36 29 -57 62 -63c6 -1 14 -8 14 -20c0 -26 -26 -38 -43 -38h-1c-43 0 -94 37 -94 101c0 71 67 114 130 130zM347 716l10 -26c-49 -21 -78 -43 -78 -84c0 -36 29 -57 63 -63c6 -1 13 -8 13 -20c0 -26 -26 -38 -43 -38h-1
c-43 0 -94 37 -94 101c0 71 67 114 130 130z" />
    <glyph glyph-name="guillemotleft" unicode="&#xab;" horiz-adv-x="444" 
d="M230 54l-22 -16c-63 80 -125 152 -159 183c34 34 96 104 159 184l22 -15l-93 -169zM396 54l-23 -16c-63 80 -125 152 -158 183c33 34 95 104 158 184l23 -15l-93 -169z" />
    <glyph glyph-name="guilsinglleft" unicode="&#x2039;" horiz-adv-x="279" 
d="M230 54l-23 -16c-63 80 -125 152 -158 183c33 34 95 104 158 184l23 -15l-94 -169z" />
    <glyph glyph-name="guilsinglright" unicode="&#x203a;" horiz-adv-x="279" 
d="M49 390l23 15c63 -79 125 -150 158 -183c-33 -33 -96 -103 -158 -183l-23 14l93 169z" />
    <glyph glyph-name="fi" unicode="&#xe103;" horiz-adv-x="535" 
d="M517 0h-212v26c56 5 63 11 63 74v245c0 45 -3 53 -51 53h-137v-298c0 -62 7 -68 70 -74v-26h-219v26c62 7 71 12 71 74v298h-72l-5 11l28 28h49v24c0 31 4 56 11 77c7 25 28 76 82 119c41 33 87 51 124 55c61 -2 95 -32 106 -48c9 -13 9 -26 5 -36c-5 -9 -13 -19 -22 -25
c-12 -7 -21 -7 -29 2c-22 26 -56 58 -104 58c-29 0 -49 -16 -62 -35c-19 -26 -33 -77 -33 -157v-34h79c80 0 136 3 188 13v-350c0 -63 6 -68 70 -74v-26z" />
    <glyph glyph-name="fl" unicode="&#xe104;" horiz-adv-x="533" 
d="M519 0h-216v26c58 5 65 12 65 74v522c-17 26 -53 45 -89 45c-31 0 -53 -15 -68 -36c-17 -22 -31 -66 -31 -141v-53h117c5 -9 1 -33 -10 -39h-107v-298c0 -62 6 -68 67 -74v-26h-216v26c64 7 70 12 70 74v298h-70l-4 11l27 28h47v18c0 40 5 67 13 89c8 26 26 71 81 116
c38 31 76 47 117 52c30 0 62 -10 82 -23c16 4 30 13 45 21l8 -5v-605c0 -62 8 -68 72 -74v-26z" />
    <glyph glyph-name="endash" unicode="&#x2013;" horiz-adv-x="520" 
d="M469 201h-419v51h419v-51z" />
    <glyph glyph-name="dagger" unicode="&#x2020;" horiz-adv-x="490" 
d="M268 -96h-46c2 36 2 66 1 111c0 122 -11 227 -29 266c25 47 32 80 33 124c-60 -3 -95 -12 -126 -32c-18 7 -42 27 -53 48c11 18 35 39 53 46c31 -21 66 -29 126 -32c-3 67 -9 93 -38 143c13 25 36 49 56 61c21 -12 43 -36 56 -61c-29 -50 -35 -76 -38 -143
c60 3 95 11 127 32c17 -7 41 -28 52 -46c-11 -21 -35 -41 -52 -48c-32 20 -67 30 -127 32c2 -44 10 -77 34 -124c-18 -39 -31 -144 -31 -266c0 -45 0 -75 2 -111z" />
    <glyph glyph-name="daggerdbl" unicode="&#x2021;" horiz-adv-x="489" 
d="M444 127c-11 -19 -34 -40 -52 -47c-32 20 -67 31 -129 32c3 -68 10 -95 39 -145c-14 -25 -36 -50 -55 -61c-21 11 -44 36 -57 61c29 50 36 77 39 145c-62 -1 -97 -12 -130 -32c-17 7 -40 27 -51 47c11 19 34 40 51 47c33 -21 68 -30 130 -32c-2 75 -8 115 -38 141
c30 28 36 68 38 137c-62 -2 -97 -12 -130 -32c-17 6 -40 27 -51 46c11 20 34 40 51 46c33 -20 68 -29 130 -31c-3 53 -11 79 -39 129c13 25 36 50 56 61c20 -11 42 -36 56 -61c-29 -50 -36 -76 -39 -129c62 2 97 11 128 31c20 -6 42 -26 53 -46c-11 -19 -34 -40 -52 -46
c-32 20 -67 30 -129 32c2 -69 9 -109 38 -137c-29 -26 -38 -64 -38 -138v-3c62 2 97 11 129 32c18 -7 41 -28 52 -47z" />
    <glyph glyph-name="periodcentered" unicode="&#xb7;" horiz-adv-x="226" 
d="M113 174h-1c-31 0 -55 23 -55 59c0 32 24 57 56 57c33 0 57 -25 57 -57c0 -36 -24 -59 -57 -59z" />
    <glyph glyph-name="paragraph" unicode="&#xb6;" horiz-adv-x="497" 
d="M466 533l-30 -27l-88 -10v-474c0 -82 -20 -136 -67 -185c-30 -31 -77 -50 -87 -50c-29 0 -54 11 -66 23c-11 10 -14 20 -10 30c3 10 13 21 20 27c6 5 12 5 19 0c21 -14 41 -22 63 -22c38 0 77 26 77 157v150l-67 -29c-4 -2 -9 -3 -17 -3c-56 0 -163 76 -163 202
c0 66 28 124 66 160c42 39 102 63 148 63h198z" />
    <glyph glyph-name="bullet" unicode="&#x2022;" horiz-adv-x="390" 
d="M196 351h2c69 0 127 -60 127 -133c0 -75 -58 -134 -129 -134c-73 0 -131 59 -131 134c0 73 58 133 131 133z" />
    <glyph glyph-name="quotesinglbase" unicode="&#x201a;" horiz-adv-x="239" 
d="M94 124h1c43 0 98 -39 98 -103c0 -73 -70 -118 -135 -134l-9 29c49 21 81 44 81 85c0 36 -32 58 -66 64c-7 1 -13 8 -13 20c0 27 26 39 43 39z" />
    <glyph glyph-name="quotedblbase" unicode="&#x201e;" horiz-adv-x="429" 
d="M279 125h1c44 0 98 -39 98 -104c0 -74 -69 -118 -134 -134l-10 29c50 21 81 44 81 85c0 36 -31 58 -66 64c-6 1 -13 8 -13 20c0 27 26 40 43 40zM94 125h1c44 0 98 -39 98 -104c0 -74 -70 -118 -135 -134l-9 29c49 21 81 44 81 85c0 36 -32 58 -66 64c-7 1 -13 8 -13 20
c0 27 26 40 43 40z" />
    <glyph glyph-name="quotedblright" unicode="&#x201d;" horiz-adv-x="401" 
d="M86 710h1c42 0 94 -38 94 -102c0 -71 -67 -115 -130 -131l-10 26c49 21 78 44 78 85c0 35 -29 57 -63 63c-6 1 -13 7 -13 20c0 26 26 39 43 39zM264 710h1c43 0 94 -38 94 -102c0 -71 -68 -115 -130 -131l-10 26c48 21 78 44 78 85c0 35 -29 57 -63 63c-6 1 -13 7 -13 20
c0 26 26 39 43 39z" />
    <glyph glyph-name="guillemotright" unicode="&#xbb;" horiz-adv-x="445" 
d="M49 390l23 15c63 -79 126 -150 158 -183c-32 -33 -95 -103 -158 -183l-23 14l94 169zM215 390l22 15c63 -79 125 -150 158 -183c-33 -33 -95 -103 -158 -183l-22 14l93 169z" />
    <glyph glyph-name="ellipsis" unicode="&#x2026;" horiz-adv-x="970" 
d="M160 -12h-1c-31 0 -54 23 -54 58c0 32 23 57 55 57c33 0 56 -25 56 -57c0 -35 -23 -58 -56 -58zM485 -12h-1c-31 0 -54 23 -54 58c0 32 23 57 55 57c33 0 56 -25 56 -57c0 -35 -23 -58 -56 -58zM807 -12h-1c-32 0 -55 23 -55 58c0 32 23 57 56 57c32 0 55 -25 55 -57
c0 -35 -23 -58 -55 -58z" />
    <glyph glyph-name="perthousand" unicode="&#x2030;" horiz-adv-x="1062" 
d="M586 629l-403 -661l-31 23l402 661zM191 635h1c99 0 142 -98 142 -177c0 -78 -43 -177 -143 -177c-99 0 -142 99 -142 176c0 80 43 178 142 178zM193 606h-1c-60 0 -70 -97 -70 -148c0 -48 12 -149 71 -149c61 0 68 102 68 148c0 50 -7 149 -68 149zM553 343h1
c98 0 141 -99 141 -178c0 -78 -43 -177 -142 -177c-100 0 -143 99 -143 177c0 79 43 178 143 178zM875 343h1c99 0 142 -99 142 -178c0 -78 -43 -177 -143 -177c-99 0 -142 99 -142 177c0 79 43 178 142 178zM554 314h-1c-61 0 -70 -98 -70 -148c0 -48 9 -149 71 -149
c60 0 68 102 68 148c0 49 -7 149 -68 149zM876 314h-1c-59 0 -70 -98 -70 -148c0 -49 10 -149 71 -149s69 102 69 148c0 49 -7 149 -69 149z" />
    <glyph glyph-name="questiondown" unicode="&#xbf;" horiz-adv-x="379" 
d="M191 448h1c29 0 53 -23 53 -57c0 -32 -24 -57 -54 -57c-32 0 -55 25 -55 57c0 34 23 57 55 57zM159 221l18 23c38 -14 111 -69 111 -130c0 -34 -21 -65 -84 -112c-37 -28 -98 -69 -98 -112c0 -35 22 -53 59 -53c63 0 102 53 114 53c14 0 41 -20 41 -44
c0 -13 -7 -23 -21 -36c-31 -27 -75 -38 -92 -38h-1c-83 0 -160 77 -160 159c0 35 14 61 48 89c32 26 112 74 112 122c0 33 -17 53 -47 79z" />
    <glyph glyph-name="grave" unicode="`" 
d="M247 504l-27 -13c-43 60 -90 124 -117 160l3 8c9 5 63 15 78 13c18 -45 43 -117 63 -168z" />
    <glyph glyph-name="acute" unicode="&#xb4;" 
d="M193 493l-26 13c19 42 60 142 67 159c10 4 69 12 81 9l3 -9z" />
    <glyph glyph-name="circumflex" unicode="&#x2c6;" 
d="M312 508l-24 -17c-32 30 -62 64 -88 97c-26 -33 -55 -66 -88 -97l-24 17c38 54 71 108 100 163h25c29 -55 61 -109 99 -163z" />
    <glyph glyph-name="tilde" unicode="&#x2dc;" 
d="M96 521l-26 16c22 68 54 90 80 90c16 0 29 -4 58 -19c22 -11 37 -19 53 -19c18 0 31 16 44 45l25 -14c-22 -73 -54 -90 -79 -90c-21 0 -41 10 -66 24c-18 10 -30 15 -46 15s-30 -16 -43 -48z" />
    <glyph glyph-name="macron" unicode="&#xaf;" 
d="M310 548h-219v55h219v-55z" />
    <glyph glyph-name="breve" unicode="&#x2d8;" 
d="M281 648h30c0 -104 -52 -137 -112 -137c-58 0 -110 33 -110 137h30c7 -52 37 -79 81 -79s74 27 81 79z" />
    <glyph glyph-name="dotaccent" unicode="&#x2d9;" 
d="M200 538c-27 0 -50 23 -50 50c0 30 23 53 51 53s49 -23 49 -53c0 -27 -21 -50 -50 -50z" />
    <glyph glyph-name="dieresis" unicode="&#xa8;" 
d="M116 538c-26 0 -48 23 -48 48c0 28 22 50 49 50c26 0 46 -22 46 -50c0 -25 -20 -48 -47 -48zM284 538c-26 0 -47 23 -47 48c0 28 21 50 48 50c26 0 47 -22 47 -50c0 -25 -21 -48 -48 -48z" />
    <glyph glyph-name="ring" unicode="&#x2da;" 
d="M200 499c-44 0 -89 33 -89 86c0 52 45 83 90 83c43 0 88 -31 88 -83c0 -53 -45 -86 -89 -86zM201 530c27 0 44 24 44 55c0 30 -17 52 -45 52c-25 0 -44 -22 -44 -52c0 -31 19 -55 45 -55z" />
    <glyph glyph-name="cedilla" unicode="&#xb8;" 
d="M246 0l-22 -27c-13 -17 -11 -25 5 -41c28 -28 39 -47 39 -69c0 -42 -44 -80 -114 -101l-12 26c42 18 60 39 60 60c0 16 -12 28 -23 39c-25 23 -30 37 -11 62l38 51h40z" />
    <glyph glyph-name="hungarumlaut" unicode="&#x2dd;" 
d="M135 494l-28 9c14 49 42 146 45 161c9 4 64 14 77 12l3 -10zM273 494l-28 9c14 50 42 146 45 161c9 4 64 14 77 12l3 -10z" />
    <glyph glyph-name="ogonek" unicode="&#x2db;" 
d="M296 -176l-51 -29c-10 -5 -23 -8 -32 -8c-57 0 -82 40 -82 74c0 48 31 96 57 141h37c-18 -40 -30 -79 -30 -110c0 -35 22 -52 51 -52c14 0 28 3 42 8z" />
    <glyph glyph-name="caron" unicode="&#x2c7;" 
d="M288 675l24 -17c-39 -54 -71 -108 -100 -163h-25c-30 56 -62 109 -100 163l25 17c33 -32 62 -64 87 -97c27 32 55 65 89 97z" />
    <glyph glyph-name="emdash" unicode="&#x2014;" horiz-adv-x="922" 
d="M872 201h-822v51h822v-51z" />
    <glyph glyph-name="AE" unicode="&#xc6;" horiz-adv-x="869" 
d="M819 165l28 -7c-6 -31 -26 -127 -35 -158h-473v28c86 6 94 17 94 106v163h-177c-43 -84 -69 -136 -95 -195c-23 -52 -20 -65 57 -75v-27h-229v27c64 9 80 17 119 85c83 147 171 318 239 449c22 42 20 50 -31 57l-41 5v27h513c0 -25 5 -93 10 -142l-30 -4
c-10 40 -18 64 -32 82c-17 21 -36 29 -105 29h-83c-30 0 -32 -3 -32 -32v-248h90c90 0 96 9 109 77h30v-195h-30c-14 72 -20 79 -109 79l-90 1v-166c0 -52 6 -72 24 -84c20 -11 55 -12 102 -12c71 0 105 7 128 34c16 19 32 49 49 96zM433 336v274c-6 0 -14 -2 -28 -20
c-39 -72 -74 -141 -131 -254h159z" />
    <glyph glyph-name="ordfeminine" unicode="&#xaa;" horiz-adv-x="305" 
d="M295 302l-63 -33c-25 2 -39 20 -45 39c-26 -17 -58 -39 -77 -39c-45 0 -77 39 -77 76c0 28 16 49 48 61s83 28 105 44v10c0 32 -19 55 -50 55c-23 0 -38 -22 -47 -53c-4 -11 -11 -15 -21 -15c-14 0 -32 13 -32 28c0 11 8 20 21 28c16 12 59 36 97 42c57 0 89 -30 89 -88
v-108c0 -27 11 -34 21 -34c7 0 15 2 24 6zM186 332v91c-13 -7 -45 -20 -62 -27c-20 -11 -29 -20 -29 -40c0 -28 22 -44 44 -44c19 0 37 11 47 20z" />
    <glyph glyph-name="Lslash" unicode="&#x141;" horiz-adv-x="550" 
d="M506 165l31 -4c-6 -29 -27 -129 -36 -161h-455v28c86 6 94 14 94 103v146l-98 -73v45l98 74v198c0 86 -8 95 -88 101v28h261v-28c-80 -6 -88 -15 -88 -101v-138l126 95v-47l-126 -95v-195c0 -58 4 -83 23 -94s54 -13 95 -13c58 0 90 5 112 31c18 20 35 54 51 100z" />
    <glyph glyph-name="Oslash" unicode="&#xd8;" horiz-adv-x="749" 
d="M633 674l-50 -75c73 -59 127 -152 127 -264c0 -214 -150 -350 -337 -350c-62 0 -123 18 -172 50l-57 -80l-26 24l53 77c-72 60 -121 152 -121 263c0 179 131 346 340 346c59 0 116 -16 162 -46l51 75zM216 123l301 443c-40 43 -92 63 -150 63c-114 0 -217 -96 -217 -285
c0 -88 26 -168 66 -221zM540 536l-300 -444c37 -47 92 -71 150 -71c151 0 220 129 220 284c0 101 -30 176 -70 231z" />
    <glyph glyph-name="OE" unicode="&#x152;" horiz-adv-x="973" 
d="M921 161l30 -4c-6 -32 -26 -124 -36 -157h-306c-39 0 -68 -1 -102 -4c-43 -4 -70 -7 -101 -7c-245 0 -361 158 -361 328c0 209 168 343 382 344c36 0 62 -4 96 -6c34 -3 62 -5 93 -5h275c1 -25 5 -93 10 -142l-30 -3c-10 43 -18 64 -31 83c-14 20 -40 27 -112 27h-78
c-29 0 -32 -2 -32 -31v-227h99c86 0 90 10 101 73h30v-190h-30c-13 68 -16 77 -101 77h-99v-184c0 -52 6 -73 24 -85c20 -13 56 -13 104 -13c76 0 103 7 126 32c19 21 34 54 49 94zM534 110v436c0 36 -4 51 -18 59c-20 12 -54 21 -100 21c-169 0 -268 -116 -269 -296
c0 -156 74 -306 270 -306c32 0 62 5 82 14c25 13 35 28 35 72z" />
    <glyph glyph-name="ordmasculine" unicode="&#xba;" horiz-adv-x="334" 
d="M167 545h1c80 0 138 -61 138 -134c-1 -92 -74 -142 -138 -142c-90 0 -142 68 -141 134c0 97 82 142 140 142zM160 518h-1c-30 0 -62 -33 -63 -99c0 -73 34 -122 76 -122c36 0 64 28 65 99c0 70 -29 122 -77 122z" />
    <glyph glyph-name="ae" unicode="&#xe6;" horiz-adv-x="671" 
d="M284 275v23c0 64 -40 107 -88 107c-22 0 -37 -9 -47 -23c-12 -13 -19 -34 -28 -64c-4 -15 -12 -24 -27 -24c-16 0 -46 21 -46 42c0 16 10 29 31 43c29 21 95 57 151 70c30 0 56 -8 74 -21s32 -31 41 -54c39 45 95 75 147 76c86 0 153 -75 154 -152c0 -23 -5 -31 -23 -35
c-15 -3 -141 -12 -265 -16c-2 -134 77 -192 155 -192c38 0 73 14 111 50l17 -20c-59 -79 -133 -97 -163 -97c-73 0 -129 35 -161 89l-35 -27c-39 -30 -92 -62 -121 -62c-73 0 -121 62 -121 120c0 51 25 81 79 100c55 19 134 45 165 67zM469 412h-1c-45 0 -95 -42 -105 -125
c58 0 117 1 175 2c15 0 21 5 21 23c1 52 -32 100 -90 100zM198 51h1c30 0 71 13 104 56c-15 32 -20 84 -20 133c-21 -10 -64 -28 -98 -42c-42 -17 -60 -35 -60 -71c0 -50 37 -76 73 -76z" />
    <glyph glyph-name="dotlessi" unicode="&#x131;" horiz-adv-x="268" 
d="M252 0h-219v26c63 6 70 13 70 82v200c0 67 -5 71 -63 80v24c50 8 98 21 142 39v-343c0 -69 6 -76 70 -82v-26z" />
    <glyph glyph-name="lslash" unicode="&#x142;" horiz-adv-x="273" 
d="M270 462l-90 -77v-277c0 -70 9 -76 74 -82v-26h-227v26c65 6 74 12 74 82v214l-74 -61v46l74 60v216c0 62 -6 66 -70 73v24c50 6 116 22 149 35v-285l90 78v-46z" />
    <glyph glyph-name="oslash" unicode="&#xf8;" horiz-adv-x="513" 
d="M432 454l-36 -53c50 -41 80 -104 80 -174c0 -158 -116 -239 -217 -239c-44 0 -82 11 -115 31l-40 -55l-25 22l38 52c-51 43 -80 108 -80 172c0 164 130 239 223 239c42 0 76 -10 109 -29l36 52zM157 100l180 272c-19 26 -52 44 -88 44c-66 0 -123 -64 -123 -183
c0 -53 11 -99 31 -133zM357 341l-179 -271c18 -28 49 -49 90 -49c62 0 119 54 119 193c0 47 -10 91 -30 127z" />
    <glyph glyph-name="oe" unicode="&#x153;" horiz-adv-x="770" 
d="M252 449h1c74 0 135 -39 168 -100c37 57 105 100 170 100c85 0 153 -73 153 -151c0 -25 -5 -30 -22 -34c-14 -3 -145 -13 -269 -17c-2 -139 79 -192 156 -192c40 0 74 17 113 51l15 -22c-57 -78 -129 -96 -161 -96c-71 0 -130 34 -162 87c-42 -58 -105 -87 -163 -87
c-134 0 -214 113 -214 220c0 166 131 241 215 241zM566 412h-1c-46 0 -96 -43 -106 -126c58 1 117 1 179 3c14 0 20 7 20 24c1 56 -37 99 -92 99zM244 416h-1c-60 0 -112 -64 -112 -175c0 -129 52 -219 135 -219c57 0 110 50 110 185c0 118 -46 209 -132 209z" />
    <glyph glyph-name="germandbls" unicode="&#xdf;" horiz-adv-x="545" 
d="M103 437v12c0 35 5 63 11 86c8 27 25 74 83 123c37 31 78 50 128 54c90 -2 155 -55 157 -150c0 -17 -3 -29 -11 -42c-71 -54 -103 -101 -103 -136c0 -38 34 -65 69 -96c36 -32 81 -74 81 -132c0 -99 -114 -169 -184 -169c-20 0 -39 3 -55 13c-17 10 -23 21 -20 33
c2 8 11 21 18 27c7 5 14 6 21 1c24 -19 51 -29 74 -29c29 0 71 21 71 82c0 44 -27 75 -68 110c-55 47 -82 84 -82 123c0 37 24 68 70 117c25 24 37 36 43 45c5 8 7 21 7 33c0 65 -49 128 -119 128c-100 0 -112 -128 -112 -270v-296c0 -62 5 -72 53 -77v-27h-204v27
c65 5 72 15 72 75v292h-71l-4 10l28 33h47z" />
    <glyph glyph-name="onesuperior" unicode="&#xe105;" horiz-adv-x="341" 
d="M273 402h-196v23c54 4 66 10 66 59v178c0 37 -3 42 -38 44l-29 2v23c44 5 86 15 132 29v-276c0 -49 11 -53 65 -59v-23z" />
    <glyph glyph-name="logicalnot" unicode="&#xac;" horiz-adv-x="580" 
d="M529 97h-58v222h-419v49h477v-271z" />
    <glyph glyph-name="mu" unicode="&#xb5;" horiz-adv-x="512" 
d="M498 54l10 -26c-16 -20 -51 -40 -85 -40c-42 0 -72 32 -78 78h-2c-38 -44 -82 -78 -133 -78c-36 0 -66 19 -82 42h-4v-16c-1 -79 22 -219 37 -259l-13 -12c-22 2 -60 23 -75 39c-5 16 -2 154 -2 259v294c0 36 -1 73 -3 96l81 19c2 -24 2 -69 2 -106v-171
c0 -96 51 -123 92 -123c42 0 81 30 99 53v329l80 18v-336c0 -55 20 -70 41 -70c12 0 26 5 35 10z" />
    <glyph glyph-name="trademark" unicode="&#x2122;" horiz-adv-x="459" 
d="M188 587h-15c-4 13 -6 23 -11 26c-4 4 -12 7 -24 7h-15v-97c0 -27 1 -29 27 -30v-16h-86v16c25 1 26 3 26 30v97h-13c-14 0 -22 -4 -25 -8c-4 -3 -8 -13 -11 -25h-15c1 24 3 44 3 56h13c1 -3 3 -5 5 -5c2 -1 4 -1 8 -1h106c7 0 9 1 13 6h12c0 -11 1 -33 2 -56zM434 477
h-79v16c22 1 22 3 22 28l1 90h-2l-58 -131h-13l-53 123h-1l-4 -57c-1 -20 -1 -31 -1 -39c1 -10 6 -13 24 -14v-16h-70v16c15 0 20 4 22 13s4 17 6 43l3 39c3 27 0 30 -25 31v18h64l49 -101l50 101h63v-18c-21 -1 -22 -3 -22 -26l1 -68c0 -29 2 -31 23 -32v-16z" />
    <glyph glyph-name="Eth" unicode="&#xd0;" horiz-adv-x="737" 
d="M54 650h275c118 0 212 -23 277 -86c50 -47 86 -121 86 -214c0 -120 -47 -209 -125 -267c-77 -58 -173 -83 -292 -83h-230v28c86 6 94 14 94 109v183h-102v41h102v152c0 96 -8 103 -85 109v28zM224 320v-188c0 -67 14 -95 97 -95c187 0 271 138 271 298
c0 108 -38 194 -115 242c-40 26 -96 40 -162 40c-44 0 -69 -5 -78 -10s-13 -15 -13 -43v-203h158v-41h-158z" />
    <glyph glyph-name="onehalf" unicode="&#xbd;" horiz-adv-x="762" 
d="M269 277h-196v23c54 4 66 10 66 59v178c0 37 -3 42 -38 44l-29 2v23c44 5 86 15 132 29v-276c0 -49 11 -53 65 -59v-23zM588 632l-405 -659l-31 24l404 658zM682 96l22 -8c-10 -32 -17 -61 -23 -88h-243v22c56 45 171 132 171 213c0 50 -30 73 -67 73s-65 -28 -85 -55
l-17 18l32 43c23 29 59 45 97 45c56 0 110 -38 110 -107c0 -48 -31 -86 -106 -152l-52 -46v-2h91c39 0 50 4 70 44z" />
    <glyph glyph-name="plusminus" unicode="&#xb1;" horiz-adv-x="580" 
d="M529 311h-209v-204h-58v204h-210v49h210v191h58v-191h209v-49zM529 0h-477v50h477v-50z" />
    <glyph glyph-name="Thorn" unicode="&#xde;" horiz-adv-x="549" 
d="M288 650v-28c-73 -6 -80 -10 -80 -116c30 1 59 2 88 2c131 0 214 -51 214 -171c0 -124 -111 -185 -231 -185l-71 17v-42c0 -86 9 -93 94 -99v-28h-265v28c79 6 87 13 87 104v386c0 92 -6 98 -82 104v28h246zM208 433v-229c12 -5 34 -12 68 -12c77 0 139 48 139 142
s-54 140 -142 140c-27 0 -46 -4 -54 -9c-7 -4 -11 -9 -11 -32z" />
    <glyph glyph-name="onequarter" unicode="&#xbc;" horiz-adv-x="762" 
d="M276 277h-196v23c54 4 66 10 66 59v178c0 37 -3 42 -38 44l-29 2v23c44 5 86 15 132 29v-276c0 -49 11 -53 65 -59v-23zM602 632l-405 -659l-31 24l404 658zM687 98h-59v-28c0 -40 11 -44 55 -47v-23h-180v23c54 4 64 7 64 47v28h-162v24c59 79 123 162 185 237h38v-223
h59v-38zM567 136v148h-2c-38 -47 -70 -91 -109 -148h111z" />
    <glyph glyph-name="divide" unicode="&#xf7;" horiz-adv-x="580" 
d="M292 354h-1c-24 0 -48 22 -48 50c0 26 24 49 49 49c27 0 50 -23 50 -49c0 -28 -23 -50 -50 -50zM529 230h-477v49h477v-49zM291 154h1c23 0 48 -21 48 -49c0 -26 -25 -49 -49 -49c-28 0 -50 23 -50 49c0 28 22 49 50 49z" />
    <glyph glyph-name="brokenbar" unicode="&#xa6;" horiz-adv-x="263" 
d="M163 325h-64v350h64v-350zM163 -175h-64v350h64v-350z" />
    <glyph glyph-name="degree" unicode="&#xb0;" horiz-adv-x="343" 
d="M172 664h1c72 0 139 -55 139 -138c0 -86 -67 -137 -140 -137c-74 0 -140 51 -140 137c0 83 66 138 140 138zM172 620h-1c-46 0 -79 -37 -79 -93s33 -94 80 -94c48 0 80 38 80 93c0 56 -32 94 -80 94z" />
    <glyph glyph-name="thorn" unicode="&#xfe;" horiz-adv-x="514" 
d="M156 712v-328c38 21 74 40 110 57c11 5 23 8 36 8c111 0 174 -98 174 -189c1 -150 -115 -248 -250 -272c-32 2 -57 12 -70 20v-139c0 -70 9 -77 89 -83v-26h-240v26c62 6 72 12 72 81v711c0 68 -3 71 -70 77v24c51 5 108 19 149 33zM156 351v-271c20 -22 61 -41 98 -41
c68 0 139 51 139 179c0 116 -62 172 -138 172c-33 0 -69 -18 -99 -39z" />
    <glyph glyph-name="threequarters" unicode="&#xbe;" horiz-adv-x="762" 
d="M606 632l-405 -659l-31 24l404 658zM681 98h-59v-28c0 -40 11 -44 55 -47v-23h-180v23c54 4 64 7 64 47v28h-162v24c59 79 123 162 185 237h38v-223h59v-38zM561 136v148h-2c-38 -47 -70 -91 -109 -148h111zM233 489v-2c53 -9 87 -40 87 -83c0 -92 -126 -135 -168 -135
c-30 0 -56 12 -68 21c-11 9 -14 19 -11 29c3 9 10 17 18 23c6 5 13 5 20 -1c18 -13 46 -33 76 -33c36 0 65 22 65 75c0 47 -39 67 -77 67c-16 0 -29 -3 -41 -7l-7 25c60 19 100 41 100 78c0 25 -19 46 -53 46c-31 0 -60 -28 -75 -50l-16 16l29 41c17 18 52 36 86 36h1
c58 0 95 -34 95 -76c0 -17 -7 -32 -19 -41c-10 -9 -24 -19 -42 -29z" />
    <glyph glyph-name="twosuperior" unicode="&#xe107;" horiz-adv-x="341" 
d="M284 498l22 -8c-10 -32 -17 -61 -23 -88h-243v22c56 45 171 132 171 213c0 50 -30 73 -67 73s-65 -28 -85 -55l-17 18l32 43c23 29 59 45 97 45c56 0 110 -38 110 -107c0 -48 -31 -86 -106 -152l-52 -46v-2h91c39 0 50 4 70 44z" />
    <glyph glyph-name="registered" unicode="&#xae;" horiz-adv-x="321" 
d="M161 659h1c73 0 129 -59 129 -129c0 -68 -56 -129 -130 -129s-129 56 -129 129c0 70 56 129 129 129zM161 636h-1c-58 0 -99 -47 -99 -106c0 -60 43 -105 100 -105c58 0 101 45 101 105c0 59 -43 106 -101 106zM235 473l-4 -12c-22 0 -36 5 -48 21c-9 12 -14 25 -18 32
c-4 6 -9 7 -14 7h-4v-24c0 -18 2 -18 19 -19v-16h-67v16c17 1 19 1 19 19v68c0 18 -2 18 -18 19v15h68c22 0 48 -6 48 -35c0 -17 -11 -28 -27 -34c10 -19 18 -30 33 -47c5 -5 9 -8 13 -10zM147 536h9c5 0 13 1 17 4c8 4 11 11 11 21c0 19 -16 23 -24 23c-9 0 -13 -2 -13 -12
v-36z" />
    <glyph glyph-name="minus" unicode="&#x2212;" horiz-adv-x="580" 
d="M529 229h-477v50h477v-50z" />
    <glyph glyph-name="eth" unicode="&#xf0;" horiz-adv-x="505" 
d="M450 661l-114 -60c88 -93 131 -199 131 -334c0 -193 -108 -279 -220 -279c-129 0 -209 115 -209 221c0 162 127 240 220 240h1c35 0 65 -7 96 -24c-12 56 -40 108 -72 145l-145 -78l-16 31l135 73c-56 51 -119 78 -173 86c-6 8 -2 25 6 30c68 -4 152 -33 218 -87l126 67z
M254 416h-1c-72 0 -122 -71 -122 -179c0 -126 52 -215 134 -215c57 0 112 47 114 213c1 92 -9 120 -30 142c-25 24 -56 39 -95 39z" />
    <glyph glyph-name="multiply" unicode="&#xd7;" horiz-adv-x="580" 
d="M522 47l-37 -38l-195 200l-195 -200l-35 38l193 200l-193 198l35 38l195 -199l195 200l37 -37l-195 -200z" />
    <glyph glyph-name="threesuperior" unicode="&#xe108;" horiz-adv-x="341" 
d="M206 614v-2c53 -9 87 -40 87 -83c0 -92 -126 -135 -168 -135c-30 0 -56 12 -68 21c-11 9 -14 19 -11 29c3 9 10 17 18 23c6 5 13 5 20 -1c18 -13 46 -33 76 -33c36 0 65 22 65 75c0 47 -39 67 -77 67c-16 0 -29 -3 -41 -7l-7 25c60 19 100 41 100 78c0 25 -19 46 -53 46
c-31 0 -60 -28 -75 -50l-16 16l29 41c17 18 52 36 86 36h1c58 0 95 -34 95 -76c0 -17 -7 -32 -19 -41c-10 -9 -24 -19 -42 -29z" />
    <glyph glyph-name="copyright" unicode="&#xa9;" horiz-adv-x="702" 
d="M351 626h1c170 0 298 -135 298 -304c0 -168 -127 -303 -299 -303s-300 135 -300 303c0 169 128 304 300 304zM351 591h-1c-145 0 -252 -115 -252 -268s107 -269 253 -269c147 0 253 117 253 269c0 153 -106 268 -253 268zM481 263l22 -5c-7 -28 -18 -72 -26 -90
c-20 -7 -61 -19 -104 -19c-129 0 -190 87 -190 170c0 112 91 177 194 177c50 0 86 -10 104 -17c4 -27 7 -49 11 -91l-22 -4c-16 56 -48 84 -100 84c-72 0 -114 -60 -114 -142c0 -88 51 -148 117 -148c55 0 86 32 108 85z" />
    <glyph glyph-name="Aacute" unicode="&#xc1;" horiz-adv-x="691" 
d="M673 0h-245v28c63 8 72 16 59 55s-33 93 -55 154h-213c-16 -45 -31 -87 -44 -129c-22 -63 -13 -73 62 -80v-28h-217v28c63 9 77 15 112 103l207 525l31 9c62 -172 129 -362 193 -536c32 -86 45 -95 110 -101v-28zM418 280l-88 255h-2c-32 -86 -64 -173 -94 -255h184z
M504 756l-2 -8l-186 -64l-12 25c53 34 111 72 157 102c12 -2 40 -41 43 -55z" />
    <glyph glyph-name="Acircumflex" unicode="&#xc2;" horiz-adv-x="691" 
d="M673 0h-245v28c63 8 72 16 59 55s-33 93 -55 154h-213c-16 -45 -31 -87 -44 -129c-22 -63 -13 -73 62 -80v-28h-217v28c63 9 77 15 112 103l207 525l31 9c62 -172 129 -362 193 -536c32 -86 45 -95 110 -101v-28zM418 280l-88 255h-2c-32 -86 -64 -173 -94 -255h184z
M493 709l-16 -25c-39 17 -81 39 -121 62c-39 -22 -80 -45 -119 -62l-17 25c43 33 88 67 126 107h22c39 -41 82 -74 125 -107z" />
    <glyph glyph-name="Adieresis" unicode="&#xc4;" horiz-adv-x="691" 
d="M673 0h-245v28c63 8 72 16 59 55s-33 93 -55 154h-213c-16 -45 -31 -87 -44 -129c-22 -63 -13 -73 62 -80v-28h-217v28c63 9 77 15 112 103l207 525l31 9c62 -172 129 -362 193 -536c32 -86 45 -95 110 -101v-28zM418 280l-88 255h-2c-32 -86 -64 -173 -94 -255h184z
M448 793h1c26 0 47 -21 47 -49c0 -26 -21 -48 -48 -48c-25 0 -47 22 -47 48c0 28 22 49 47 49zM258 793h1c26 0 46 -21 46 -50c0 -25 -20 -48 -47 -48c-26 0 -48 23 -48 48c0 29 22 50 48 50z" />
    <glyph glyph-name="Agrave" unicode="&#xc0;" horiz-adv-x="691" 
d="M673 0h-245v28c63 8 72 16 59 55s-33 93 -55 154h-213c-16 -45 -31 -87 -44 -129c-22 -63 -13 -73 62 -80v-28h-217v28c63 9 77 15 112 103l207 525l31 9c62 -172 129 -362 193 -536c32 -86 45 -95 110 -101v-28zM418 280l-88 255h-2c-32 -86 -64 -173 -94 -255h184z
M407 709l-13 -25l-187 64l-1 7c3 14 31 53 43 57c53 -34 107 -69 158 -103z" />
    <glyph glyph-name="Aring" unicode="&#xc5;" horiz-adv-x="691" 
d="M673 0h-245v28c63 8 72 16 59 55s-33 93 -55 154h-213c-16 -45 -31 -87 -44 -129c-22 -63 -13 -73 62 -80v-28h-217v28c63 9 77 15 112 103l207 525l31 9c62 -172 129 -362 193 -536c32 -86 45 -95 110 -101v-28zM418 280l-88 255h-2c-32 -86 -64 -173 -94 -255h184z
M354 855h1c43 0 87 -32 87 -84s-44 -85 -88 -85s-88 33 -88 85s44 84 88 84zM354 823h-1c-25 0 -43 -22 -43 -52c0 -31 18 -54 44 -54c27 0 44 23 44 54c0 30 -17 52 -44 52z" />
    <glyph glyph-name="Atilde" unicode="&#xc3;" horiz-adv-x="691" 
d="M673 0h-245v28c63 8 72 16 59 55s-33 93 -55 154h-213c-16 -45 -31 -87 -44 -129c-22 -63 -13 -73 62 -80v-28h-217v28c63 9 77 15 112 103l207 525l31 9c62 -172 129 -362 193 -536c32 -86 45 -95 110 -101v-28zM418 280l-88 255h-2c-32 -86 -64 -173 -94 -255h184z
M304 788h1c17 0 31 -5 60 -19c22 -10 38 -16 55 -16c19 0 33 15 46 43l25 -14c-22 -67 -55 -85 -82 -85c-22 0 -43 9 -70 22c-16 8 -27 14 -44 14c-19 0 -33 -16 -48 -44l-24 17c25 63 56 82 81 82z" />
    <glyph glyph-name="Ccedilla" unicode="&#xc7;" horiz-adv-x="661" 
d="M613 178l29 -11c-14 -50 -38 -122 -54 -156c-27 -5 -102 -23 -166 -24l-11 -14c-13 -17 -10 -25 6 -42c26 -27 38 -45 38 -68c0 -40 -45 -80 -114 -102l-13 28c41 18 60 39 61 60c0 16 -12 27 -23 38c-24 24 -29 38 -11 62l27 37c-235 7 -336 176 -336 328
c0 208 158 351 379 351c85 0 150 -20 178 -26c8 -57 14 -99 20 -155l-30 -5c-31 108 -84 149 -196 149c-152 0 -248 -127 -248 -292c0 -180 99 -313 256 -313c105 0 156 53 208 155z" />
    <glyph glyph-name="Eacute" unicode="&#xc9;" horiz-adv-x="568" 
d="M516 162l30 -4c-6 -33 -26 -127 -35 -158h-482v28c91 7 99 15 99 96v398c0 90 -8 93 -86 100v28h446c0 -25 5 -93 8 -144l-29 -5c-9 42 -19 64 -32 86c-14 21 -41 28 -113 28h-76c-31 0 -33 -2 -33 -32v-227h94c90 0 95 8 108 75h29v-192h-29c-13 72 -20 78 -107 78h-95
v-189c0 -47 6 -68 24 -81c19 -12 54 -13 104 -13c76 0 104 8 126 34c17 20 36 54 49 94zM431 756l-2 -8l-186 -64l-12 25c53 34 111 72 157 102c12 -2 40 -41 43 -55z" />
    <glyph glyph-name="Ecircumflex" unicode="&#xca;" horiz-adv-x="568" 
d="M516 162l30 -4c-6 -33 -26 -127 -35 -158h-482v28c91 7 99 15 99 96v398c0 90 -8 93 -86 100v28h446c0 -25 5 -93 8 -144l-29 -5c-9 42 -19 64 -32 86c-14 21 -41 28 -113 28h-76c-31 0 -33 -2 -33 -32v-227h94c90 0 95 8 108 75h29v-192h-29c-13 72 -20 78 -107 78h-95
v-189c0 -47 6 -68 24 -81c19 -12 54 -13 104 -13c76 0 104 8 126 34c17 20 36 54 49 94zM424 709l-16 -25c-39 17 -81 39 -121 62c-39 -22 -80 -45 -119 -62l-17 25c43 33 88 67 126 107h22c39 -41 82 -74 125 -107z" />
    <glyph glyph-name="Edieresis" unicode="&#xcb;" horiz-adv-x="568" 
d="M516 162l30 -4c-6 -33 -26 -127 -35 -158h-482v28c91 7 99 15 99 96v398c0 90 -8 93 -86 100v28h446c0 -25 5 -93 8 -144l-29 -5c-9 42 -19 64 -32 86c-14 21 -41 28 -113 28h-76c-31 0 -33 -2 -33 -32v-227h94c90 0 95 8 108 75h29v-192h-29c-13 72 -20 78 -107 78h-95
v-189c0 -47 6 -68 24 -81c19 -12 54 -13 104 -13c76 0 104 8 126 34c17 20 36 54 49 94zM385 797h1c26 0 47 -21 47 -49c0 -26 -21 -48 -48 -48c-25 0 -47 22 -47 48c0 28 22 49 47 49zM195 797h1c26 0 46 -21 46 -50c0 -25 -20 -48 -47 -48c-26 0 -48 23 -48 48
c0 29 22 50 48 50z" />
    <glyph glyph-name="Egrave" unicode="&#xc8;" horiz-adv-x="568" 
d="M516 162l30 -4c-6 -33 -26 -127 -35 -158h-482v28c91 7 99 15 99 96v398c0 90 -8 93 -86 100v28h446c0 -25 5 -93 8 -144l-29 -5c-9 42 -19 64 -32 86c-14 21 -41 28 -113 28h-76c-31 0 -33 -2 -33 -32v-227h94c90 0 95 8 108 75h29v-192h-29c-13 72 -20 78 -107 78h-95
v-189c0 -47 6 -68 24 -81c19 -12 54 -13 104 -13c76 0 104 8 126 34c17 20 36 54 49 94zM349 709l-13 -25l-187 64l-1 7c3 14 31 53 43 57c53 -34 107 -69 158 -103z" />
    <glyph glyph-name="Iacute" unicode="&#xcd;" horiz-adv-x="341" 
d="M303 0h-265v28c82 6 90 12 90 97v400c0 85 -8 91 -90 97v28h265v-28c-82 -6 -90 -12 -90 -97v-400c0 -86 8 -91 90 -97v-28zM313 756l-2 -8l-186 -64l-12 25c53 34 111 72 157 102c12 -2 40 -41 43 -55z" />
    <glyph glyph-name="Icircumflex" unicode="&#xce;" horiz-adv-x="341" 
d="M303 0h-265v28c82 6 90 12 90 97v400c0 85 -8 91 -90 97v28h265v-28c-82 -6 -90 -12 -90 -97v-400c0 -86 8 -91 90 -97v-28zM307 709l-16 -25c-39 17 -81 39 -121 62c-39 -22 -80 -45 -119 -62l-17 25c43 33 88 67 126 107h22c39 -41 82 -74 125 -107z" />
    <glyph glyph-name="Idieresis" unicode="&#xcf;" horiz-adv-x="341" 
d="M303 0h-265v28c82 6 90 12 90 97v400c0 85 -8 91 -90 97v28h265v-28c-82 -6 -90 -12 -90 -97v-400c0 -86 8 -91 90 -97v-28zM266 794h1c26 0 47 -21 47 -49c0 -26 -21 -48 -48 -48c-25 0 -47 22 -47 48c0 28 22 49 47 49zM76 794h1c26 0 46 -21 46 -50
c0 -25 -20 -48 -47 -48c-26 0 -48 23 -48 48c0 29 22 50 48 50z" />
    <glyph glyph-name="Igrave" unicode="&#xcc;" horiz-adv-x="341" 
d="M303 0h-265v28c82 6 90 12 90 97v400c0 85 -8 91 -90 97v28h265v-28c-82 -6 -90 -12 -90 -97v-400c0 -86 8 -91 90 -97v-28zM236 709l-13 -25l-187 64l-1 7c3 14 31 53 43 57c53 -34 107 -69 158 -103z" />
    <glyph glyph-name="Ntilde" unicode="&#xd1;" horiz-adv-x="743" 
d="M719 650v-28c-56 -3 -80 -16 -84 -60c-4 -30 -6 -75 -6 -168v-403h-31l-426 524h-2v-251c0 -92 3 -140 6 -169c5 -51 28 -63 96 -67v-28h-237v28c58 3 83 16 88 65c3 31 6 79 6 171v220c0 73 -2 77 -20 101c-20 25 -42 33 -89 37v28h148l417 -502h3v246
c0 92 -4 138 -7 166c-5 45 -29 58 -98 62v28h236zM324 788h1c17 0 31 -5 60 -19c22 -10 38 -16 55 -16c19 0 33 15 46 43l25 -14c-22 -67 -55 -85 -82 -85c-22 0 -43 9 -70 22c-16 8 -27 14 -44 14c-19 0 -33 -16 -48 -44l-24 17c25 63 56 82 81 82z" />
    <glyph glyph-name="Oacute" unicode="&#xd3;" horiz-adv-x="747" 
d="M380 665h1c169 0 322 -132 322 -332c0 -216 -151 -348 -334 -348c-181 0 -325 141 -325 333c0 180 126 347 336 347zM360 629h-1c-111 0 -213 -96 -213 -283c0 -188 103 -325 244 -325c111 0 211 93 211 285c0 211 -110 323 -241 323zM503 763l-2 -8l-186 -64l-12 25
c53 34 111 72 157 102c12 -2 40 -41 43 -55z" />
    <glyph glyph-name="Ocircumflex" unicode="&#xd4;" horiz-adv-x="747" 
d="M380 665h1c169 0 322 -132 322 -332c0 -216 -151 -348 -334 -348c-181 0 -325 141 -325 333c0 180 126 347 336 347zM360 629h-1c-111 0 -213 -96 -213 -283c0 -188 103 -325 244 -325c111 0 211 93 211 285c0 211 -110 323 -241 323zM509 716l-16 -25
c-39 17 -81 39 -121 62c-39 -22 -80 -45 -119 -62l-17 25c43 33 88 67 126 107h22c39 -41 82 -74 125 -107z" />
    <glyph glyph-name="Odieresis" unicode="&#xd6;" horiz-adv-x="747" 
d="M380 665h1c169 0 322 -132 322 -332c0 -216 -151 -348 -334 -348c-181 0 -325 141 -325 333c0 180 126 347 336 347zM360 629h-1c-111 0 -213 -96 -213 -283c0 -188 103 -325 244 -325c111 0 211 93 211 285c0 211 -110 323 -241 323zM468 798h1c26 0 47 -21 47 -49
c0 -26 -21 -48 -48 -48c-25 0 -47 22 -47 48c0 28 22 49 47 49zM278 798h1c26 0 46 -21 46 -50c0 -25 -20 -48 -47 -48c-26 0 -48 23 -48 48c0 29 22 50 48 50z" />
    <glyph glyph-name="Ograve" unicode="&#xd2;" horiz-adv-x="747" 
d="M380 665h1c169 0 322 -132 322 -332c0 -216 -151 -348 -334 -348c-181 0 -325 141 -325 333c0 180 126 347 336 347zM360 629h-1c-111 0 -213 -96 -213 -283c0 -188 103 -325 244 -325c111 0 211 93 211 285c0 211 -110 323 -241 323zM445 718l-13 -25l-187 64l-1 7
c3 14 31 53 43 57c53 -34 107 -69 158 -103z" />
    <glyph glyph-name="Otilde" unicode="&#xd5;" horiz-adv-x="747" 
d="M380 665h1c169 0 322 -132 322 -332c0 -216 -151 -348 -334 -348c-181 0 -325 141 -325 333c0 180 126 347 336 347zM360 629h-1c-111 0 -213 -96 -213 -283c0 -188 103 -325 244 -325c111 0 211 93 211 285c0 211 -110 323 -241 323zM322 797h1c17 0 31 -5 60 -19
c22 -10 38 -16 55 -16c19 0 33 15 46 43l25 -14c-22 -67 -55 -85 -82 -85c-22 0 -43 9 -70 22c-16 8 -27 14 -44 14c-19 0 -33 -16 -48 -44l-24 17c25 63 56 82 81 82z" />
    <glyph glyph-name="Scaron" unicode="&#x160;" horiz-adv-x="474" 
d="M409 504l-29 -6c-18 64 -44 133 -131 133c-77 0 -111 -56 -111 -110c0 -73 48 -107 127 -148c78 -40 173 -87 173 -199c0 -105 -89 -189 -222 -189c-41 0 -73 8 -98 15c-25 9 -40 16 -49 21c-8 21 -21 107 -27 155l29 7c16 -61 61 -162 164 -162c75 0 120 47 120 120
c0 74 -55 109 -130 149c-64 34 -165 84 -165 197c0 96 77 178 206 178c46 0 88 -11 126 -23c4 -36 9 -75 17 -138zM370 830l15 -26c-43 -32 -86 -66 -125 -107h-22c-40 41 -83 74 -126 107l15 26c41 -18 82 -38 122 -62c39 23 81 44 121 62z" />
    <glyph glyph-name="Uacute" unicode="&#xda;" horiz-adv-x="736" 
d="M716 650v-28c-60 -4 -83 -18 -88 -59c-3 -27 -5 -70 -5 -162v-82c0 -118 -18 -203 -76 -264c-46 -48 -113 -69 -179 -69c-58 0 -116 14 -160 48c-60 46 -88 121 -88 238v249c0 90 -8 94 -87 101v28h259v-28c-79 -5 -87 -11 -87 -101v-227c0 -161 64 -253 188 -253
c144 0 189 120 189 285v75c0 92 -3 134 -7 165c-6 39 -27 51 -97 56v28h238zM519 756l-2 -8l-186 -64l-12 25c53 34 111 72 157 102c12 -2 40 -41 43 -55z" />
    <glyph glyph-name="Ucircumflex" unicode="&#xdb;" horiz-adv-x="736" 
d="M716 650v-28c-60 -4 -83 -18 -88 -59c-3 -27 -5 -70 -5 -162v-82c0 -118 -18 -203 -76 -264c-46 -48 -113 -69 -179 -69c-58 0 -116 14 -160 48c-60 46 -88 121 -88 238v249c0 90 -8 94 -87 101v28h259v-28c-79 -5 -87 -11 -87 -101v-227c0 -161 64 -253 188 -253
c144 0 189 120 189 285v75c0 92 -3 134 -7 165c-6 39 -27 51 -97 56v28h238zM517 709l-16 -25c-39 17 -81 39 -121 62c-39 -22 -80 -45 -119 -62l-17 25c43 33 88 67 126 107h22c39 -41 82 -74 125 -107z" />
    <glyph glyph-name="Udieresis" unicode="&#xdc;" horiz-adv-x="736" 
d="M716 650v-28c-60 -4 -83 -18 -88 -59c-3 -27 -5 -70 -5 -162v-82c0 -118 -18 -203 -76 -264c-46 -48 -113 -69 -179 -69c-58 0 -116 14 -160 48c-60 46 -88 121 -88 238v249c0 90 -8 94 -87 101v28h259v-28c-79 -5 -87 -11 -87 -101v-227c0 -161 64 -253 188 -253
c144 0 189 120 189 285v75c0 92 -3 134 -7 165c-6 39 -27 51 -97 56v28h238zM472 794h1c26 0 47 -21 47 -49c0 -26 -21 -48 -48 -48c-25 0 -47 22 -47 48c0 28 22 49 47 49zM282 794h1c26 0 46 -21 46 -50c0 -25 -20 -48 -47 -48c-26 0 -48 23 -48 48c0 29 22 50 48 50z" />
    <glyph glyph-name="Ugrave" unicode="&#xd9;" horiz-adv-x="736" 
d="M716 650v-28c-60 -4 -83 -18 -88 -59c-3 -27 -5 -70 -5 -162v-82c0 -118 -18 -203 -76 -264c-46 -48 -113 -69 -179 -69c-58 0 -116 14 -160 48c-60 46 -88 121 -88 238v249c0 90 -8 94 -87 101v28h259v-28c-79 -5 -87 -11 -87 -101v-227c0 -161 64 -253 188 -253
c144 0 189 120 189 285v75c0 92 -3 134 -7 165c-6 39 -27 51 -97 56v28h238zM439 709l-13 -25l-187 64l-1 7c3 14 31 53 43 57c53 -34 107 -69 158 -103z" />
    <glyph glyph-name="Yacute" unicode="&#xdd;" horiz-adv-x="634" 
d="M620 650v-28c-69 -8 -80 -18 -119 -79c-45 -73 -79 -131 -127 -219c-13 -26 -16 -37 -16 -63v-136c0 -84 8 -91 100 -97v-28h-283v28c89 6 98 12 98 97v133c0 20 -4 29 -21 59c-35 62 -71 127 -126 220c-40 68 -51 79 -111 85v28h239v-28c-71 -9 -69 -21 -50 -54
c42 -80 91 -162 134 -237c37 66 91 164 119 225c23 50 20 58 -58 66v28h221zM471 756l-2 -8l-186 -64l-12 25c53 34 111 72 157 102c12 -2 40 -41 43 -55z" />
    <glyph glyph-name="Ydieresis" unicode="&#x178;" horiz-adv-x="634" 
d="M620 650v-28c-69 -8 -80 -18 -119 -79c-45 -73 -79 -131 -127 -219c-13 -26 -16 -37 -16 -63v-136c0 -84 8 -91 100 -97v-28h-283v28c89 6 98 12 98 97v133c0 20 -4 29 -21 59c-35 62 -71 127 -126 220c-40 68 -51 79 -111 85v28h239v-28c-71 -9 -69 -21 -50 -54
c42 -80 91 -162 134 -237c37 66 91 164 119 225c23 50 20 58 -58 66v28h221zM421 794h1c26 0 47 -21 47 -49c0 -26 -21 -48 -48 -48c-25 0 -47 22 -47 48c0 28 22 49 47 49zM231 794h1c26 0 46 -21 46 -50c0 -25 -20 -48 -47 -48c-26 0 -48 23 -48 48c0 29 22 50 48 50z" />
    <glyph glyph-name="Zcaron" unicode="&#x17d;" horiz-adv-x="603" 
d="M561 176l30 -6c-8 -36 -26 -129 -37 -170h-517l-8 15c140 198 281 395 421 599h-174c-108 0 -124 -9 -141 -36c-12 -18 -23 -43 -34 -87h-30c5 64 11 139 12 184h24c12 -23 23 -25 53 -25h399l7 -14c-138 -197 -275 -391 -413 -594c33 -4 94 -6 163 -6
c125 0 163 7 191 37c20 22 36 54 54 103zM439 821l15 -26c-43 -32 -86 -66 -125 -107h-22c-40 41 -83 74 -126 107l15 26c41 -18 82 -38 122 -62c39 23 81 44 121 62z" />
    <glyph glyph-name="aacute" unicode="&#xe1;" horiz-adv-x="439" 
d="M433 39l-85 -51c-15 0 -36 9 -47 19c-13 14 -19 28 -24 45c-40 -27 -88 -64 -118 -64c-71 0 -120 59 -120 122c0 49 26 80 81 99c60 20 133 47 155 65v18c0 72 -34 113 -84 113c-20 0 -35 -8 -45 -20c-13 -13 -22 -35 -30 -65c-4 -17 -15 -24 -29 -24
c-18 0 -44 20 -44 43c0 15 13 26 32 40c28 20 93 59 150 70c30 0 60 -9 82 -27c35 -29 45 -70 45 -122v-186c0 -45 18 -60 35 -60c12 0 26 5 36 11zM275 84v156c-21 -11 -69 -32 -90 -42c-39 -18 -61 -37 -61 -73c0 -52 40 -77 71 -77c26 1 61 18 80 36zM203 493l-26 13
c19 42 60 142 67 159c10 4 69 12 81 9l3 -9z" />
    <glyph glyph-name="acircumflex" unicode="&#xe2;" horiz-adv-x="439" 
d="M433 39l-85 -51c-15 0 -36 9 -47 19c-13 14 -19 28 -24 45c-40 -27 -88 -64 -118 -64c-71 0 -120 59 -120 122c0 49 26 80 81 99c60 20 133 47 155 65v18c0 72 -34 113 -84 113c-20 0 -35 -8 -45 -20c-13 -13 -22 -35 -30 -65c-4 -17 -15 -24 -29 -24
c-18 0 -44 20 -44 43c0 15 13 26 32 40c28 20 93 59 150 70c30 0 60 -9 82 -27c35 -29 45 -70 45 -122v-186c0 -45 18 -60 35 -60c12 0 26 5 36 11zM275 84v156c-21 -11 -69 -32 -90 -42c-39 -18 -61 -37 -61 -73c0 -52 40 -77 71 -77c26 1 61 18 80 36zM320 508l-24 -17
c-32 30 -62 64 -88 97c-26 -33 -55 -66 -88 -97l-24 17c38 54 71 108 100 163h25c29 -55 61 -109 99 -163z" />
    <glyph glyph-name="adieresis" unicode="&#xe4;" horiz-adv-x="439" 
d="M433 39l-85 -51c-15 0 -36 9 -47 19c-13 14 -19 28 -24 45c-40 -27 -88 -64 -118 -64c-71 0 -120 59 -120 122c0 49 26 80 81 99c60 20 133 47 155 65v18c0 72 -34 113 -84 113c-20 0 -35 -8 -45 -20c-13 -13 -22 -35 -30 -65c-4 -17 -15 -24 -29 -24
c-18 0 -44 20 -44 43c0 15 13 26 32 40c28 20 93 59 150 70c30 0 60 -9 82 -27c35 -29 45 -70 45 -122v-186c0 -45 18 -60 35 -60c12 0 26 5 36 11zM275 84v156c-21 -11 -69 -32 -90 -42c-39 -18 -61 -37 -61 -73c0 -52 40 -77 71 -77c26 1 61 18 80 36zM125 538
c-26 0 -48 23 -48 48c0 28 22 50 49 50c26 0 46 -22 46 -50c0 -25 -20 -48 -47 -48zM293 538c-26 0 -47 23 -47 48c0 28 21 50 48 50c26 0 47 -22 47 -50c0 -25 -21 -48 -48 -48z" />
    <glyph glyph-name="agrave" unicode="&#xe0;" horiz-adv-x="439" 
d="M433 39l-85 -51c-15 0 -36 9 -47 19c-13 14 -19 28 -24 45c-40 -27 -88 -64 -118 -64c-71 0 -120 59 -120 122c0 49 26 80 81 99c60 20 133 47 155 65v18c0 72 -34 113 -84 113c-20 0 -35 -8 -45 -20c-13 -13 -22 -35 -30 -65c-4 -17 -15 -24 -29 -24
c-18 0 -44 20 -44 43c0 15 13 26 32 40c28 20 93 59 150 70c30 0 60 -9 82 -27c35 -29 45 -70 45 -122v-186c0 -45 18 -60 35 -60c12 0 26 5 36 11zM275 84v156c-21 -11 -69 -32 -90 -42c-39 -18 -61 -37 -61 -73c0 -52 40 -77 71 -77c26 1 61 18 80 36zM251 504l-27 -13
c-43 60 -90 124 -117 160l3 8c9 5 63 15 78 13c18 -45 43 -117 63 -168z" />
    <glyph glyph-name="aring" unicode="&#xe5;" horiz-adv-x="439" 
d="M433 39l-85 -51c-15 0 -36 9 -47 19c-13 14 -19 28 -24 45c-40 -27 -88 -64 -118 -64c-71 0 -120 59 -120 122c0 49 26 80 81 99c60 20 133 47 155 65v18c0 72 -34 113 -84 113c-20 0 -35 -8 -45 -20c-13 -13 -22 -35 -30 -65c-4 -17 -15 -24 -29 -24
c-18 0 -44 20 -44 43c0 15 13 26 32 40c28 20 93 59 150 70c30 0 60 -9 82 -27c35 -29 45 -70 45 -122v-186c0 -45 18 -60 35 -60c12 0 26 5 36 11zM275 84v156c-21 -11 -69 -32 -90 -42c-39 -18 -61 -37 -61 -73c0 -52 40 -77 71 -77c26 1 61 18 80 36zM210 499
c-44 0 -89 33 -89 86c0 52 45 83 90 83c43 0 88 -31 88 -83c0 -53 -45 -86 -89 -86zM211 530c27 0 44 24 44 55c0 30 -17 52 -45 52c-25 0 -44 -22 -44 -52c0 -31 19 -55 45 -55z" />
    <glyph glyph-name="atilde" unicode="&#xe3;" horiz-adv-x="439" 
d="M433 39l-85 -51c-15 0 -36 9 -47 19c-13 14 -19 28 -24 45c-40 -27 -88 -64 -118 -64c-71 0 -120 59 -120 122c0 49 26 80 81 99c60 20 133 47 155 65v18c0 72 -34 113 -84 113c-20 0 -35 -8 -45 -20c-13 -13 -22 -35 -30 -65c-4 -17 -15 -24 -29 -24
c-18 0 -44 20 -44 43c0 15 13 26 32 40c28 20 93 59 150 70c30 0 60 -9 82 -27c35 -29 45 -70 45 -122v-186c0 -45 18 -60 35 -60c12 0 26 5 36 11zM275 84v156c-21 -11 -69 -32 -90 -42c-39 -18 -61 -37 -61 -73c0 -52 40 -77 71 -77c26 1 61 18 80 36zM108 521l-26 16
c22 68 54 90 80 90c16 0 29 -4 58 -19c22 -11 37 -19 53 -19c18 0 31 16 44 45l25 -14c-22 -73 -54 -90 -79 -90c-21 0 -41 10 -66 24c-18 10 -30 15 -46 15s-30 -16 -43 -48z" />
    <glyph glyph-name="ccedilla" unicode="&#xe7;" horiz-adv-x="421" 
d="M391 112l18 -22c-41 -50 -88 -86 -137 -98l-14 -18c-12 -17 -9 -24 7 -41c27 -26 37 -45 37 -67c0 -40 -44 -78 -112 -101l-11 26c40 18 59 41 59 61c0 16 -12 27 -22 38c-24 23 -30 36 -12 60l30 38c-116 4 -197 93 -197 207c0 78 37 148 101 197c59 45 116 57 153 57
c28 0 70 -10 89 -27c12 -10 16 -19 15 -30c0 -19 -22 -43 -36 -43c-5 0 -10 3 -18 11c-32 29 -64 41 -102 41c-54 0 -120 -45 -120 -159c-1 -145 96 -186 150 -186c44 0 76 11 122 56z" />
    <glyph glyph-name="eacute" unicode="&#xe9;" horiz-adv-x="425" 
d="M379 106l16 -21c-63 -79 -132 -97 -163 -97c-123 0 -195 100 -195 213c0 69 25 130 66 175c41 46 95 73 146 73h1c83 0 150 -74 150 -152c0 -20 -5 -28 -23 -32c-17 -3 -142 -13 -261 -17c1 -136 79 -192 149 -192c40 0 78 16 114 50zM226 412h-1
c-45 0 -89 -42 -104 -123c56 0 111 1 169 3c18 0 24 6 24 20c1 52 -33 100 -88 100zM218 493l-26 13c19 42 60 142 67 159c10 4 69 12 81 9l3 -9z" />
    <glyph glyph-name="ecircumflex" unicode="&#xea;" horiz-adv-x="425" 
d="M379 106l16 -21c-63 -79 -132 -97 -163 -97c-123 0 -195 100 -195 213c0 69 25 130 66 175c41 46 95 73 146 73h1c83 0 150 -74 150 -152c0 -20 -5 -28 -23 -32c-17 -3 -142 -13 -261 -17c1 -136 79 -192 149 -192c40 0 78 16 114 50zM226 412h-1
c-45 0 -89 -42 -104 -123c56 0 111 1 169 3c18 0 24 6 24 20c1 52 -33 100 -88 100zM340 508l-24 -17c-32 30 -62 64 -88 97c-26 -33 -55 -66 -88 -97l-24 17c38 54 71 108 100 163h25c29 -55 61 -109 99 -163z" />
    <glyph glyph-name="edieresis" unicode="&#xeb;" horiz-adv-x="425" 
d="M379 106l16 -21c-63 -79 -132 -97 -163 -97c-123 0 -195 100 -195 213c0 69 25 130 66 175c41 46 95 73 146 73h1c83 0 150 -74 150 -152c0 -20 -5 -28 -23 -32c-17 -3 -142 -13 -261 -17c1 -136 79 -192 149 -192c40 0 78 16 114 50zM226 412h-1
c-45 0 -89 -42 -104 -123c56 0 111 1 169 3c18 0 24 6 24 20c1 52 -33 100 -88 100zM140 538c-26 0 -48 23 -48 48c0 28 22 50 49 50c26 0 46 -22 46 -50c0 -25 -20 -48 -47 -48zM308 538c-26 0 -47 23 -47 48c0 28 21 50 48 50c26 0 47 -22 47 -50c0 -25 -21 -48 -48 -48z
" />
    <glyph glyph-name="egrave" unicode="&#xe8;" horiz-adv-x="425" 
d="M379 106l16 -21c-63 -79 -132 -97 -163 -97c-123 0 -195 100 -195 213c0 69 25 130 66 175c41 46 95 73 146 73h1c83 0 150 -74 150 -152c0 -20 -5 -28 -23 -32c-17 -3 -142 -13 -261 -17c1 -136 79 -192 149 -192c40 0 78 16 114 50zM226 412h-1
c-45 0 -89 -42 -104 -123c56 0 111 1 169 3c18 0 24 6 24 20c1 52 -33 100 -88 100zM265 504l-27 -13c-43 60 -90 124 -117 160l3 8c9 5 63 15 78 13c18 -45 43 -117 63 -168z" />
    <glyph glyph-name="iacute" unicode="&#xed;" horiz-adv-x="268" 
d="M252 0h-219v26c63 6 70 13 70 82v200c0 67 -5 71 -63 80v24c50 8 98 21 142 39v-343c0 -69 6 -76 70 -82v-26zM124 493l-26 13c19 42 60 142 67 159c10 4 69 12 81 9l3 -9z" />
    <glyph glyph-name="icircumflex" unicode="&#xee;" horiz-adv-x="268" 
d="M252 0h-219v26c63 6 70 13 70 82v200c0 67 -5 71 -63 80v24c50 8 98 21 142 39v-343c0 -69 6 -76 70 -82v-26zM244 508l-24 -17c-32 30 -62 64 -88 97c-26 -33 -55 -66 -88 -97l-24 17c38 54 71 108 100 163h25c29 -55 61 -109 99 -163z" />
    <glyph glyph-name="idieresis" unicode="&#xef;" horiz-adv-x="268" 
d="M252 0h-219v26c63 6 70 13 70 82v200c0 67 -5 71 -63 80v24c50 8 98 21 142 39v-343c0 -69 6 -76 70 -82v-26zM48 538c-26 0 -48 23 -48 48c0 28 22 50 49 50c26 0 46 -22 46 -50c0 -25 -20 -48 -47 -48zM216 538c-26 0 -47 23 -47 48c0 28 21 50 48 50
c26 0 47 -22 47 -50c0 -25 -21 -48 -48 -48z" />
    <glyph glyph-name="igrave" unicode="&#xec;" horiz-adv-x="268" 
d="M252 0h-219v26c63 6 70 13 70 82v200c0 67 -5 71 -63 80v24c50 8 98 21 142 39v-343c0 -69 6 -76 70 -82v-26zM169 504l-27 -13c-43 60 -90 124 -117 160l3 8c9 5 63 15 78 13c18 -45 43 -117 63 -168z" />
    <glyph glyph-name="ntilde" unicode="&#xf1;" horiz-adv-x="547" 
d="M523 0h-208v26c59 6 66 14 66 83v167c0 69 -24 114 -91 114c-40 0 -79 -25 -109 -51v-235c0 -68 6 -72 65 -78v-26h-217v26c68 7 73 12 73 78v207c0 64 -6 67 -60 77v23c48 9 95 21 139 41v-80c20 15 42 30 67 47c28 18 54 30 83 30c79 0 129 -55 129 -152v-193
c0 -68 5 -72 63 -78v-26zM167 521l-26 16c22 68 54 90 80 90c16 0 29 -4 58 -19c22 -11 37 -19 53 -19c18 0 31 16 44 45l25 -14c-22 -73 -54 -90 -79 -90c-21 0 -41 10 -66 24c-18 10 -30 15 -46 15s-30 -16 -43 -48z" />
    <glyph glyph-name="oacute" unicode="&#xf3;" horiz-adv-x="510" 
d="M256 449h1c123 0 216 -99 216 -223c0 -161 -118 -238 -217 -238c-137 0 -219 110 -219 221c0 165 128 240 219 240zM246 416h-1c-61 0 -115 -62 -115 -175c0 -126 55 -220 137 -220c62 0 113 46 113 183c0 117 -47 212 -134 212zM245 493l-26 13c19 42 60 142 67 159
c10 4 69 12 81 9l3 -9z" />
    <glyph glyph-name="ocircumflex" unicode="&#xf4;" horiz-adv-x="510" 
d="M256 449h1c123 0 216 -99 216 -223c0 -161 -118 -238 -217 -238c-137 0 -219 110 -219 221c0 165 128 240 219 240zM246 416h-1c-61 0 -115 -62 -115 -175c0 -126 55 -220 137 -220c62 0 113 46 113 183c0 117 -47 212 -134 212zM367 508l-24 -17c-32 30 -62 64 -88 97
c-26 -33 -55 -66 -88 -97l-24 17c38 54 71 108 100 163h25c29 -55 61 -109 99 -163z" />
    <glyph glyph-name="odieresis" unicode="&#xf6;" horiz-adv-x="510" 
d="M256 449h1c123 0 216 -99 216 -223c0 -161 -118 -238 -217 -238c-137 0 -219 110 -219 221c0 165 128 240 219 240zM246 416h-1c-61 0 -115 -62 -115 -175c0 -126 55 -220 137 -220c62 0 113 46 113 183c0 117 -47 212 -134 212zM171 538c-26 0 -48 23 -48 48
c0 28 22 50 49 50c26 0 46 -22 46 -50c0 -25 -20 -48 -47 -48zM339 538c-26 0 -47 23 -47 48c0 28 21 50 48 50c26 0 47 -22 47 -50c0 -25 -21 -48 -48 -48z" />
    <glyph glyph-name="ograve" unicode="&#xf2;" horiz-adv-x="510" 
d="M256 449h1c123 0 216 -99 216 -223c0 -161 -118 -238 -217 -238c-137 0 -219 110 -219 221c0 165 128 240 219 240zM246 416h-1c-61 0 -115 -62 -115 -175c0 -126 55 -220 137 -220c62 0 113 46 113 183c0 117 -47 212 -134 212zM294 504l-27 -13
c-43 60 -90 124 -117 160l3 8c9 5 63 15 78 13c18 -45 43 -117 63 -168z" />
    <glyph glyph-name="otilde" unicode="&#xf5;" horiz-adv-x="510" 
d="M256 449h1c123 0 216 -99 216 -223c0 -161 -118 -238 -217 -238c-137 0 -219 110 -219 221c0 165 128 240 219 240zM246 416h-1c-61 0 -115 -62 -115 -175c0 -126 55 -220 137 -220c62 0 113 46 113 183c0 117 -47 212 -134 212zM151 521l-26 16c22 68 54 90 80 90
c16 0 29 -4 58 -19c22 -11 37 -19 53 -19c18 0 31 16 44 45l25 -14c-22 -73 -54 -90 -79 -90c-21 0 -41 10 -66 24c-18 10 -30 15 -46 15s-30 -16 -43 -48z" />
    <glyph glyph-name="scaron" unicode="&#x161;" horiz-adv-x="367" 
d="M320 325l-26 -6c-19 59 -54 99 -103 99c-38 0 -65 -30 -65 -69c0 -44 40 -68 85 -87c75 -31 126 -67 126 -136c0 -91 -85 -138 -165 -138c-51 0 -97 19 -115 34c-7 14 -16 82 -16 118l26 5c18 -66 63 -124 123 -124c37 0 71 28 71 70c0 44 -29 68 -79 91
c-60 28 -125 61 -125 138c0 70 60 129 152 129c41 1 68 -9 89 -17c8 -23 19 -82 22 -107zM279 675l24 -17c-39 -54 -71 -108 -100 -163h-25c-30 56 -62 109 -100 163l25 17c33 -32 62 -64 87 -97c27 32 55 65 89 97z" />
    <glyph glyph-name="uacute" unicode="&#xfa;" horiz-adv-x="531" 
d="M518 49v-25c-22 -3 -50 -9 -77 -16c-26 -7 -51 -15 -70 -20l-6 6v71c-23 -17 -46 -35 -74 -52c-29 -17 -50 -25 -77 -25c-67 0 -124 41 -124 149v196c0 53 -8 58 -33 64l-28 6v23c21 1 45 4 72 7c27 4 54 8 71 11c-3 -31 -3 -78 -3 -146v-135c0 -88 43 -112 88 -112
c36 0 74 15 108 48v233c0 54 -9 60 -42 65l-36 6v23c27 1 61 4 90 8c28 3 52 7 67 10v-334c0 -50 8 -57 46 -59zM252 493l-26 13c19 42 60 142 67 159c10 4 69 12 81 9l3 -9z" />
    <glyph glyph-name="ucircumflex" unicode="&#xfb;" horiz-adv-x="531" 
d="M518 49v-25c-22 -3 -50 -9 -77 -16c-26 -7 -51 -15 -70 -20l-6 6v71c-23 -17 -46 -35 -74 -52c-29 -17 -50 -25 -77 -25c-67 0 -124 41 -124 149v196c0 53 -8 58 -33 64l-28 6v23c21 1 45 4 72 7c27 4 54 8 71 11c-3 -31 -3 -78 -3 -146v-135c0 -88 43 -112 88 -112
c36 0 74 15 108 48v233c0 54 -9 60 -42 65l-36 6v23c27 1 61 4 90 8c28 3 52 7 67 10v-334c0 -50 8 -57 46 -59zM373 508l-24 -17c-32 30 -62 64 -88 97c-26 -33 -55 -66 -88 -97l-24 17c38 54 71 108 100 163h25c29 -55 61 -109 99 -163z" />
    <glyph glyph-name="udieresis" unicode="&#xfc;" horiz-adv-x="531" 
d="M518 49v-25c-22 -3 -50 -9 -77 -16c-26 -7 -51 -15 -70 -20l-6 6v71c-23 -17 -46 -35 -74 -52c-29 -17 -50 -25 -77 -25c-67 0 -124 41 -124 149v196c0 53 -8 58 -33 64l-28 6v23c21 1 45 4 72 7c27 4 54 8 71 11c-3 -31 -3 -78 -3 -146v-135c0 -88 43 -112 88 -112
c36 0 74 15 108 48v233c0 54 -9 60 -42 65l-36 6v23c27 1 61 4 90 8c28 3 52 7 67 10v-334c0 -50 8 -57 46 -59zM174 538c-26 0 -48 23 -48 48c0 28 22 50 49 50c26 0 46 -22 46 -50c0 -25 -20 -48 -47 -48zM342 538c-26 0 -47 23 -47 48c0 28 21 50 48 50
c26 0 47 -22 47 -50c0 -25 -21 -48 -48 -48z" />
    <glyph glyph-name="ugrave" unicode="&#xf9;" horiz-adv-x="531" 
d="M518 49v-25c-22 -3 -50 -9 -77 -16c-26 -7 -51 -15 -70 -20l-6 6v71c-23 -17 -46 -35 -74 -52c-29 -17 -50 -25 -77 -25c-67 0 -124 41 -124 149v196c0 53 -8 58 -33 64l-28 6v23c21 1 45 4 72 7c27 4 54 8 71 11c-3 -31 -3 -78 -3 -146v-135c0 -88 43 -112 88 -112
c36 0 74 15 108 48v233c0 54 -9 60 -42 65l-36 6v23c27 1 61 4 90 8c28 3 52 7 67 10v-334c0 -50 8 -57 46 -59zM292 504l-27 -13c-43 60 -90 124 -117 160l3 8c9 5 63 15 78 13c18 -45 43 -117 63 -168z" />
    <glyph glyph-name="yacute" unicode="&#xfd;" horiz-adv-x="459" 
d="M478 437v-25c-53 -8 -62 -16 -89 -73c-25 -53 -56 -136 -125 -301c-67 -160 -89 -217 -103 -271c-6 -19 -18 -24 -32 -24c-28 0 -57 24 -57 48c0 16 9 25 26 36c31 20 51 44 74 89c19 35 27 56 31 69c5 15 5 28 -1 45c-40 114 -85 235 -115 306c-21 55 -31 68 -86 76v25
h203v-25c-46 -8 -51 -18 -38 -55l91 -251c28 68 71 186 92 249c12 38 5 49 -52 57v25h181zM245 493l-26 13c19 42 60 142 67 159c10 4 69 12 81 9l3 -9z" />
    <glyph glyph-name="ydieresis" unicode="&#xff;" horiz-adv-x="459" 
d="M478 437v-25c-53 -8 -62 -16 -89 -73c-25 -53 -56 -136 -125 -301c-67 -160 -89 -217 -103 -271c-6 -19 -18 -24 -32 -24c-28 0 -57 24 -57 48c0 16 9 25 26 36c31 20 51 44 74 89c19 35 27 56 31 69c5 15 5 28 -1 45c-40 114 -85 235 -115 306c-21 55 -31 68 -86 76v25
h203v-25c-46 -8 -51 -18 -38 -55l91 -251c28 68 71 186 92 249c12 38 5 49 -52 57v25h181zM157 538c-26 0 -48 23 -48 48c0 28 22 50 49 50c26 0 46 -22 46 -50c0 -25 -20 -48 -47 -48zM325 538c-26 0 -47 23 -47 48c0 28 21 50 48 50c26 0 47 -22 47 -50
c0 -25 -21 -48 -48 -48z" />
    <glyph glyph-name="zcaron" unicode="&#x17e;" horiz-adv-x="420" 
d="M387 138l26 -12c-15 -39 -31 -86 -46 -126h-330l-6 15c86 127 167 255 249 389h-89c-72 0 -85 -16 -113 -72l-14 -27l-25 9c11 38 26 102 34 145h21c6 -16 18 -22 55 -22h230l6 -14c-82 -128 -162 -256 -244 -390h99c76 0 96 21 134 81zM304 675l24 -17
c-39 -54 -71 -108 -100 -163h-25c-30 56 -62 109 -100 163l25 17c33 -32 62 -64 87 -97c27 32 55 65 89 97z" />
    <glyph glyph-name="twodotenleader" unicode="&#x2025;" horiz-adv-x="503" 
d="M125 -12h-1c-32 0 -57 24 -57 60c0 34 25 60 58 60c34 0 58 -26 58 -60c0 -36 -24 -60 -58 -60zM377 -12h-1c-32 0 -56 24 -56 60c0 34 24 60 57 60c34 0 59 -26 59 -60c0 -36 -25 -60 -59 -60z" />
    <glyph glyph-name="onedotenleader" unicode="&#x2024;" horiz-adv-x="500" 
d="M250 -12h-1c-32 0 -57 24 -57 60c0 34 25 60 58 60c34 0 58 -26 58 -60c0 -36 -24 -60 -58 -60z" />
    <glyph glyph-name="colonmonetary" unicode="&#x20a1;" horiz-adv-x="480" 
d="M454 479l-26 -6c-12 46 -28 83 -54 99l-78 -541c70 4 101 49 134 122l24 -8c-9 -41 -26 -92 -38 -122c-18 -7 -77 -23 -125 -23l-10 -66h-31l10 68c-19 1 -30 5 -47 10l-11 -78h-33l14 88c-99 43 -150 156 -150 282c0 198 118 309 237 319l10 66h31l-9 -65h6
c15 0 25 -2 42 -4l10 69h30l-10 -74c22 -6 41 -12 58 -15c6 -45 12 -85 16 -121zM265 34l79 552c-15 5 -28 7 -47 7l-78 -542c15 -9 26 -15 46 -17zM190 74l75 517c-77 -14 -140 -120 -140 -279c0 -100 29 -200 65 -238z" />
    <glyph glyph-name="figuredash" unicode="&#x2012;" horiz-adv-x="418" 
d="M374 291h-329v54h329v-54z" />
    <glyph glyph-name="oneeighth" unicode="&#x215b;" horiz-adv-x="762" 
d="M271 277h-196v23c54 4 66 10 66 59v178c0 37 -3 42 -38 44l-29 2v23c44 5 86 15 132 29v-276c0 -49 11 -53 65 -59v-23zM589 632l-405 -659l-31 24l404 658zM570 359h1c60 0 107 -39 107 -86c0 -17 -7 -35 -19 -48c-6 -6 -19 -17 -42 -32c36 -19 77 -43 77 -96
c0 -70 -73 -105 -132 -105c-69 0 -125 37 -125 97c0 29 15 45 28 57c9 9 31 23 47 32c-30 15 -62 42 -62 83c0 52 47 98 120 98zM563 332h-1c-34 0 -54 -24 -54 -51c0 -37 35 -58 85 -77c16 11 30 35 30 63c0 43 -31 65 -60 65zM567 20h1c35 0 64 21 65 60
c-1 40 -33 58 -97 86c-26 -15 -41 -43 -41 -72c0 -44 36 -74 72 -74z" />
    <glyph glyph-name="threeeighths" unicode="&#x215c;" horiz-adv-x="762" 
d="M228 489v-2c53 -9 87 -40 87 -83c0 -92 -126 -135 -168 -135c-30 0 -56 12 -68 21c-11 9 -14 19 -11 29c3 9 10 17 18 23c6 5 13 5 20 -1c18 -13 46 -33 76 -33c36 0 65 22 65 75c0 47 -39 67 -77 67c-16 0 -29 -3 -41 -7l-7 25c60 19 100 41 100 78c0 25 -19 46 -53 46
c-31 0 -60 -28 -75 -50l-16 16l29 41c17 18 52 36 86 36h1c58 0 95 -34 95 -76c0 -17 -7 -32 -19 -41c-10 -9 -24 -19 -42 -29zM590 632l-405 -659l-31 24l404 658zM571 359h1c60 0 107 -39 107 -86c0 -17 -7 -35 -19 -48c-6 -6 -19 -17 -42 -32c36 -19 77 -43 77 -96
c0 -70 -73 -105 -132 -105c-69 0 -125 37 -125 97c0 29 15 45 28 57c9 9 31 23 47 32c-30 15 -62 42 -62 83c0 52 47 98 120 98zM564 332h-1c-34 0 -54 -24 -54 -51c0 -37 35 -58 85 -77c16 11 30 35 30 63c0 43 -31 65 -60 65zM568 20h1c35 0 64 21 65 60
c-1 40 -33 58 -97 86c-26 -15 -41 -43 -41 -72c0 -44 36 -74 72 -74z" />
    <glyph glyph-name="fiveeighths" unicode="&#x215d;" horiz-adv-x="762" 
d="M139 576l-17 -91c25 9 56 17 72 17c80 0 120 -46 120 -95c0 -36 -20 -70 -56 -97c-35 -25 -79 -41 -110 -41c-29 0 -57 12 -69 22c-10 9 -11 17 -9 27c3 9 10 18 18 24c8 5 14 4 22 -2c14 -11 44 -31 74 -31c37 0 65 25 65 73c0 42 -34 77 -94 77c-31 0 -53 -6 -69 -11
l27 180h184l-11 -52h-147zM591 632l-405 -659l-31 24l404 658zM572 359h1c60 0 107 -39 107 -86c0 -17 -7 -35 -19 -48c-6 -6 -19 -17 -42 -32c36 -19 77 -43 77 -96c0 -70 -73 -105 -132 -105c-69 0 -125 37 -125 97c0 29 15 45 28 57c9 9 31 23 47 32
c-30 15 -62 42 -62 83c0 52 47 98 120 98zM565 332h-1c-34 0 -54 -24 -54 -51c0 -37 35 -58 85 -77c16 11 30 35 30 63c0 43 -31 65 -60 65zM569 20h1c35 0 64 21 65 60c-1 40 -33 58 -97 86c-26 -15 -41 -43 -41 -72c0 -44 36 -74 72 -74z" />
    <glyph glyph-name="seveneighths" unicode="&#x215e;" horiz-adv-x="762" 
d="M341 628l4 -7c-56 -115 -113 -231 -168 -347l-54 -4l-6 9c64 97 120 198 173 298h-131c-32 0 -36 -8 -49 -42h-25c6 41 10 68 14 93h242zM564 632l-405 -659l-31 24l404 658zM557 359h1c60 0 107 -39 107 -86c0 -17 -7 -35 -19 -48c-6 -6 -19 -17 -42 -32
c36 -19 77 -43 77 -96c0 -70 -73 -105 -132 -105c-69 0 -125 37 -125 97c0 29 15 45 28 57c9 9 31 23 47 32c-30 15 -62 42 -62 83c0 52 47 98 120 98zM550 332h-1c-34 0 -54 -24 -54 -51c0 -37 35 -58 85 -77c16 11 30 35 30 63c0 43 -31 65 -60 65zM554 20h1
c35 0 64 21 65 60c-1 40 -33 58 -97 86c-26 -15 -41 -43 -41 -72c0 -44 36 -74 72 -74z" />
    <glyph glyph-name="onethird" unicode="&#x2153;" horiz-adv-x="762" 
d="M273 277h-196v23c54 4 66 10 66 59v178c0 37 -3 42 -38 44l-29 2v23c44 5 86 15 132 29v-276c0 -49 11 -53 65 -59v-23zM592 632l-405 -659l-31 24l404 658zM606 212v-2c53 -9 87 -40 87 -83c0 -92 -126 -135 -168 -135c-30 0 -56 12 -68 21c-11 9 -14 19 -11 29
c3 9 10 17 18 23c6 5 13 5 20 -1c18 -13 46 -33 76 -33c36 0 65 22 65 75c0 47 -39 67 -77 67c-16 0 -29 -3 -41 -7l-7 25c60 19 100 41 100 78c0 25 -19 46 -53 46c-31 0 -60 -28 -75 -50l-16 16l29 41c17 18 52 36 86 36h1c58 0 95 -34 95 -76c0 -17 -7 -32 -19 -41
c-10 -9 -24 -19 -42 -29z" />
    <glyph glyph-name="twothirds" unicode="&#x2154;" horiz-adv-x="762" 
d="M297 373l22 -8c-10 -32 -17 -61 -23 -88h-243v22c56 45 171 132 171 213c0 50 -30 73 -67 73s-65 -28 -85 -55l-17 18l32 43c23 29 59 45 97 45c56 0 110 -38 110 -107c0 -48 -31 -86 -106 -152l-52 -46v-2h91c39 0 50 4 70 44zM618 632l-405 -659l-31 24l404 658z
M621 212v-2c53 -9 87 -40 87 -83c0 -92 -126 -135 -168 -135c-30 0 -56 12 -68 21c-11 9 -14 19 -11 29c3 9 10 17 18 23c6 5 13 5 20 -1c18 -13 46 -33 76 -33c36 0 65 22 65 75c0 47 -39 67 -77 67c-16 0 -29 -3 -41 -7l-7 25c60 19 100 41 100 78c0 25 -19 46 -53 46
c-31 0 -60 -28 -75 -50l-16 16l29 41c17 18 52 36 86 36h1c58 0 95 -34 95 -76c0 -17 -7 -32 -19 -41c-10 -9 -24 -19 -42 -29z" />
    <glyph glyph-name="uni2014.alt" unicode="&#xe0fb;" horiz-adv-x="776" 
d="M725 201h-675v52h675v-52z" />
    <glyph glyph-name="R_p" unicode="&#xf6dd;" horiz-adv-x="926" 
d="M617 373l92 50c8 4 20 6 29 6c95 0 147 -95 147 -179c0 -147 -99 -239 -217 -262c-23 1 -39 8 -51 16v-132c0 -55 1 -65 73 -71v-27h-210v27c56 6 59 16 59 70v121l-18 2c-82 6 -118 33 -152 87c-28 45 -58 111 -81 156c-15 28 -27 37 -53 37h-35v-145
c0 -82 7 -96 76 -103v-26h-232v26c71 7 77 19 77 103v364c0 85 -6 99 -73 105v26h216c58 0 105 -9 138 -32c35 -24 57 -68 57 -123c1 -79 -44 -135 -114 -168c14 -28 48 -93 73 -137c29 -51 51 -78 68 -100c20 -22 35 -34 53 -39v282c0 56 0 60 -54 65v24c40 8 89 25 132 42
v-65zM200 306h43c33 0 61 5 83 25c36 32 45 70 45 121c0 103 -58 140 -122 140c-44 0 -49 -3 -49 -30v-256zM617 339v-268c17 -22 44 -35 80 -35c50 0 108 46 108 164c0 116 -49 170 -113 170c-26 0 -51 -11 -75 -31z" />
    <glyph glyph-name="K.alt" unicode="&#xe03a;" horiz-adv-x="666" 
d="M677 -32l-9 -25c-9 0 -25 2 -42 5c-60 9 -99 29 -158 97c-61 70 -127 154 -194 243c-20 27 -38 31 -62 24v-184c0 -88 9 -94 91 -100v-28h-259v28c75 6 84 12 84 100v393c0 89 -8 95 -87 101v28h257v-28c-77 -6 -86 -11 -86 -101v-180c23 5 45 16 72 42
c57 56 122 130 169 190c22 29 18 40 -30 46l-22 3v28h247v-28c-76 -7 -97 -18 -155 -72c-41 -39 -113 -113 -173 -180c72 -99 149 -196 224 -280c64 -71 103 -106 133 -122z" />
    <glyph glyph-name="R.alt" unicode="&#xe057;" horiz-adv-x="627" 
d="M657 -32l-8 -25c-9 0 -23 1 -37 3c-68 9 -106 36 -170 123c-37 53 -87 129 -119 177c-17 27 -40 37 -85 37h-26v-158c0 -86 9 -91 90 -97v-28h-265v28c83 6 92 13 92 97v402c0 84 -9 88 -88 95v28h249c72 0 121 -10 158 -34c40 -25 67 -71 67 -130
c0 -87 -57 -144 -132 -177c56 -87 116 -178 183 -256c32 -39 66 -74 91 -85zM212 316h46c51 0 85 8 111 29c35 28 52 68 52 124c0 108 -70 148 -146 148c-27 0 -45 -4 -53 -12c-6 -8 -10 -20 -10 -47v-242z" />
    <glyph glyph-name="Dcroat" unicode="&#x110;" horiz-adv-x="737" 
d="M54 650h275c118 0 212 -23 277 -86c50 -47 86 -121 86 -214c0 -120 -47 -209 -125 -267c-77 -58 -173 -83 -292 -83h-230v28c86 6 94 14 94 109v183h-102v41h102v152c0 96 -8 103 -85 109v28zM224 320v-188c0 -67 14 -95 97 -95c187 0 271 138 271 298
c0 108 -38 194 -115 242c-40 26 -96 40 -162 40c-44 0 -69 -5 -78 -10s-13 -15 -13 -43v-203h158v-41h-158z" />
    <glyph glyph-name="Eng" unicode="&#x14a;" horiz-adv-x="736" 
d="M712 650v-28c-56 -3 -79 -16 -84 -59c-3 -31 -6 -81 -6 -174l1 -287c0 -116 -6 -195 -37 -249c-24 -44 -56 -65 -92 -65c-23 0 -45 25 -45 52c0 10 2 20 14 20c9 0 19 -5 39 -5c34 0 75 30 77 154l-406 503h-2v-244c0 -91 3 -144 6 -173c6 -51 28 -63 96 -67v-28h-238v28
c58 3 82 16 87 65c4 31 7 84 7 175v211c0 73 -2 82 -20 106c-20 25 -42 33 -89 37v28h148l410 -499h3v238c0 93 -4 143 -7 171c-6 46 -29 58 -99 62v28h237z" />
    <glyph glyph-name="Hbar" unicode="&#x126;" horiz-adv-x="766" 
d="M727 472h-88v-343c0 -87 8 -95 89 -101v-28h-268v28c85 6 94 14 94 101v181h-341v-181c0 -87 8 -95 90 -101v-28h-263v28c80 6 88 13 88 101v343h-88v36h88v18c0 85 -8 90 -90 96v28h259v-28c-76 -6 -84 -11 -84 -96v-18h341v18c0 85 -8 89 -86 96v28h261v-28
c-82 -7 -90 -12 -90 -96v-18h88v-36zM554 352v120h-341v-120h341z" />
    <glyph glyph-name="Tbar" unicode="&#x166;" horiz-adv-x="613" 
d="M588 499l-30 -3c-10 47 -18 71 -29 88c-17 24 -39 31 -115 31h-64v-265h149v-39h-149v-185c0 -82 8 -93 102 -99v-27h-286v27c91 6 99 17 99 99v185h-147v39h147v265h-50c-95 0 -114 -9 -127 -31c-11 -18 -19 -45 -30 -88h-30c5 60 10 124 12 179h20
c15 -23 24 -25 52 -25h397c27 0 32 6 47 25h22c0 -46 4 -119 10 -176z" />
    <glyph glyph-name="uni021C" unicode="&#x21c;" horiz-adv-x="518" 
d="M139 269l-9 31c131 51 204 100 204 205c0 78 -52 124 -114 124c-80 0 -118 -55 -145 -146l-30 7c10 54 18 97 23 139c62 14 101 36 175 36c113 0 185 -59 185 -145c0 -69 -55 -116 -114 -156v-3c96 -18 166 -82 166 -179c0 -162 -177 -277 -375 -305l-62 43l6 21
c22 -4 52 -9 83 -9c146 0 251 89 251 219c0 104 -72 146 -132 146c-29 0 -68 -12 -112 -28z" />
    <glyph glyph-name="a.end" unicode="&#xe084;" horiz-adv-x="637" 
d="M276 273v19c0 73 -31 114 -83 114c-19 0 -34 -10 -44 -22c-13 -13 -21 -34 -30 -64c-5 -17 -16 -24 -30 -24c-18 0 -43 20 -43 43c0 15 11 27 31 41c29 20 93 57 150 69c29 0 60 -9 82 -26c35 -30 44 -69 44 -121v-179c0 -61 17 -89 111 -89c79 0 110 24 110 56
c0 13 -5 26 -8 34c-2 6 -1 11 2 14c7 12 28 27 40 27c10 0 23 -12 23 -38c0 -24 -12 -53 -40 -81c-42 -41 -111 -58 -185 -58c-76 0 -118 17 -129 66c-39 -27 -88 -66 -117 -66c-72 0 -121 59 -121 122c0 49 26 80 81 99c60 20 134 46 156 64zM276 86v155
c-21 -11 -69 -33 -90 -43c-39 -17 -61 -37 -61 -73c0 -52 40 -76 71 -76c26 0 61 18 80 37z" />
    <glyph glyph-name="e.end" unicode="&#xe08f;" horiz-adv-x="606" 
d="M378 107l16 -22c-59 -78 -134 -97 -164 -97c-122 0 -194 99 -194 213c0 62 23 129 66 175c41 45 94 73 144 73h1c85 0 143 -74 142 -158c22 -1 44 -1 69 -1c99 0 122 30 122 59c0 16 -8 32 -12 42c1 12 25 38 43 38c13 0 25 -23 25 -45c0 -23 -8 -48 -26 -69
c-33 -40 -93 -66 -178 -66c-86 0 -225 1 -318 1c2 -142 79 -195 149 -194c39 0 75 14 115 51zM222 413h-1c-40 0 -88 -42 -100 -123c56 0 112 1 166 1c16 0 21 5 21 18c1 50 -30 104 -86 104z" />
    <glyph glyph-name="k.alt" unicode="&#xe0a5;" horiz-adv-x="499" 
d="M527 -55l-8 -22c-22 1 -45 4 -70 12c-29 10 -57 26 -86 62c-45 54 -107 145 -147 199c-13 18 -25 22 -33 22c-6 0 -13 -1 -19 -3v-109c0 -67 9 -74 72 -80v-26h-223v26c64 6 73 14 73 80v470c0 68 -6 72 -70 77v24c48 6 109 22 148 35v-471c30 6 50 19 66 35
c19 20 50 59 69 87c20 31 17 40 -30 44v27l205 9v-26c-69 -11 -89 -19 -126 -57c-26 -25 -43 -46 -85 -95c31 -50 131 -183 172 -230c46 -55 71 -76 92 -90z" />
    <glyph glyph-name="m.end" unicode="&#xe0b1;" horiz-adv-x="1029" 
d="M731 296v-191c0 -46 5 -58 36 -61c18 -2 48 -3 75 -3c101 0 123 28 123 67c0 18 -8 33 -12 41c-2 7 2 15 8 21c9 11 27 22 38 22c13 0 27 -21 27 -46c0 -24 -10 -57 -41 -89c-33 -35 -82 -59 -157 -59c-88 0 -161 1 -236 2v26c51 6 60 14 60 80v168c0 71 -25 116 -88 116
c-37 0 -73 -20 -111 -51c1 -12 2 -25 2 -44v-192c0 -65 10 -71 65 -77v-26h-213v26c62 6 70 12 70 78v171c0 74 -26 116 -88 116c-39 0 -79 -28 -109 -52v-235c0 -66 8 -72 57 -78v-26h-211v26c67 6 75 12 75 79v204c0 65 -6 70 -59 79v23c44 8 93 21 138 41v-80
c20 14 42 31 73 50c26 16 49 27 81 27c48 0 91 -29 111 -80c30 22 59 39 83 55c22 14 46 25 75 25c77 0 127 -55 128 -153z" />
    <glyph glyph-name="n.end" unicode="&#xe0b2;" horiz-adv-x="763" 
d="M459 298v-193c0 -46 5 -57 35 -61c19 -2 49 -3 76 -3c101 0 123 29 123 67c0 18 -8 33 -12 41c-3 7 2 15 8 21c9 11 27 22 38 22c13 0 27 -20 27 -46c0 -24 -10 -57 -42 -89c-33 -36 -82 -59 -156 -59c-88 0 -161 1 -236 2v26c51 5 60 16 60 80v170c0 69 -24 114 -90 114
c-40 0 -80 -24 -110 -51v-234c0 -67 8 -73 65 -79v-26h-217v26c61 6 73 12 73 79v204c0 66 -6 70 -60 79v23c47 9 95 21 139 41v-79c20 14 42 30 67 46c28 19 54 30 83 30c80 0 129 -55 129 -151z" />
    <glyph glyph-name="r.end" unicode="&#xe0da;" horiz-adv-x="493" 
d="M489 449l21 -18c-23 -43 -59 -90 -102 -89c-19 0 -40 10 -61 21c-22 12 -37 18 -55 18c-25 0 -66 -26 -112 -109v-166c0 -68 6 -74 81 -80v-26h-229v26c62 6 69 11 69 79v206c0 65 -4 69 -62 77v23c49 8 93 21 141 41v-124l2 -2c41 62 100 123 145 123
c25 0 44 -11 68 -26c38 -24 58 -19 94 26z" />
    <glyph glyph-name="longs" unicode="&#x17f;" horiz-adv-x="267" 
d="M55 437h47v22c0 33 4 60 10 81c7 25 24 73 77 118c36 32 72 49 111 54c35 -1 64 -16 79 -33c10 -12 11 -23 7 -34c-3 -9 -13 -19 -23 -27c-10 -6 -17 -4 -26 4c-21 21 -46 40 -81 40c-25 0 -42 -15 -54 -36c-13 -23 -22 -77 -22 -197v-317c0 -75 6 -79 70 -86v-26h-214
v26c58 6 66 12 66 78v294h-71l-3 10z" />
    <glyph glyph-name="dcroat" unicode="&#x111;" horiz-adv-x="526" 
d="M517 51v-25c-22 -4 -98 -17 -155 -38v66l-63 -37c-39 -23 -64 -29 -76 -29c-80 0 -185 74 -186 214c0 135 120 247 257 247c14 0 44 -3 68 -12v96h-133v37h132v21c-1 55 -6 58 -73 64v23c52 7 115 23 152 35v-143h76v-37h-76v-417c0 -53 7 -59 45 -62zM362 85v276
c-25 35 -68 52 -102 52c-41 0 -132 -36 -132 -185c0 -121 74 -178 138 -178c36 0 71 18 96 35z" />
    <glyph glyph-name="eng" unicode="&#x14b;" horiz-adv-x="541" 
d="M180 452v-80c20 15 43 31 68 47c28 19 53 30 82 30c79 0 129 -55 129 -151v-178c0 -52 -4 -101 -16 -145c-12 -41 -29 -74 -54 -105c-31 -41 -65 -61 -90 -61c-19 0 -40 25 -40 48c0 10 3 20 13 20c12 0 31 -10 50 -10c15 0 28 4 38 19c14 24 20 59 20 146v242
c0 68 -24 115 -90 115c-40 0 -80 -25 -110 -52v-232c0 -66 5 -73 68 -79v-26h-220v26c67 6 73 12 73 79v204c0 65 -3 69 -61 80v22c48 9 97 22 140 41z" />
    <glyph glyph-name="hbar" unicode="&#x127;" horiz-adv-x="533" 
d="M513 0h-210v26c58 5 65 13 65 78v166c0 81 -30 122 -97 122c-39 0 -78 -18 -105 -52v-235c0 -66 7 -74 64 -79v-26h-210v26c58 5 67 13 67 80v430h-69v36h69v52c0 32 -5 36 -45 41v24c40 5 87 17 124 28v-145h155v-36h-155v-160c36 39 89 72 144 73
c82 3 137 -52 137 -165v-180c0 -66 8 -73 66 -78v-26z" />
    <glyph glyph-name="kgreenlandic" unicode="&#x138;" horiz-adv-x="525" 
d="M520 0h-136c-19 21 -111 134 -154 190c-18 23 -29 22 -45 15v-98c0 -69 7 -76 70 -81v-26h-218v26c62 5 70 11 70 81v215c0 66 -7 74 -68 80v25c55 4 100 13 146 25v-218c16 3 34 11 50 25c46 41 84 82 103 107c17 22 16 38 -12 42l-17 3v26h197v-26
c-48 -5 -73 -12 -116 -49c-27 -22 -64 -57 -113 -106c55 -75 117 -145 151 -179c37 -37 52 -46 92 -51v-26z" />
    <glyph glyph-name="napostrophe" unicode="&#x149;" horiz-adv-x="547" 
d="M54 712h1c40 0 88 -34 88 -94c0 -65 -65 -102 -122 -116l-8 23c42 17 69 38 69 76c0 32 -29 51 -57 56c-6 1 -12 7 -12 18c0 25 25 37 41 37zM523 0h-208v26c59 6 66 14 66 83v167c0 69 -24 114 -91 114c-40 0 -79 -25 -109 -51v-235c0 -68 6 -72 65 -78v-26h-217v26
c68 7 73 12 73 78v207c0 64 -6 67 -60 77v23c48 9 95 21 139 41v-80c20 15 42 30 67 47c28 18 54 30 83 30c79 0 129 -55 129 -152v-193c0 -68 5 -72 63 -78v-26z" />
    <glyph glyph-name="tbar" unicode="&#x167;" horiz-adv-x="303" 
d="M299 37l-71 -37c-17 -9 -30 -12 -40 -12c-63 0 -98 40 -98 119v118h-67v36h67v136h-69l-4 11l28 29h45v73l65 66l14 -2v-137h113c10 -10 7 -32 -6 -40h-107v-136h101v-36h-101v-84c0 -80 33 -96 59 -96c25 0 48 10 61 17z" />
    <glyph glyph-name="uni021D" unicode="&#x21d;" horiz-adv-x="385" 
d="M81 108l-11 29c108 48 156 90 156 163c0 57 -35 90 -82 90c-40 0 -75 -23 -114 -61l-19 22c53 63 101 98 164 98c78 0 136 -48 136 -124c0 -39 -18 -70 -44 -95c-12 -12 -29 -25 -43 -35v-2c77 -17 131 -77 131 -160c0 -143 -147 -241 -301 -268l-51 37l5 20
c19 -3 38 -6 59 -6c117 0 200 76 200 190c0 83 -55 125 -103 125c-24 0 -44 -6 -83 -23z" />
    <glyph glyph-name="IJ" unicode="&#x132;" horiz-adv-x="669" 
d="M303 0h-265v28c82 6 90 12 90 97v400c0 85 -8 91 -90 97v28h265v-28c-82 -6 -90 -12 -90 -97v-400c0 -86 8 -91 90 -97v-28zM644 650v-28c-77 -6 -85 -13 -85 -97v-374c0 -128 -20 -197 -86 -258c-34 -31 -68 -50 -93 -58l-13 28c56 28 86 74 96 131c9 48 11 106 11 190
v341c0 84 -8 91 -89 97v28h259z" />
    <glyph glyph-name="c_h" unicode="&#xe085;" horiz-adv-x="914" 
d="M391 111l17 -21c-44 -58 -111 -102 -170 -102c-126 0 -200 102 -200 209c0 77 33 144 100 196c52 40 112 56 150 56h1c40 0 73 -13 89 -26c13 -11 16 -20 16 -31c0 -21 -22 -43 -33 -43c-5 0 -10 3 -19 11c-30 28 -65 41 -100 41c-66 0 -124 -55 -124 -160
c0 -139 95 -185 151 -185c43 0 76 12 122 55zM895 0h-211v26c58 6 66 12 66 77v166c0 82 -31 123 -98 123c-38 0 -76 -19 -104 -51v-238c0 -64 5 -71 64 -77v-26h-212l1 26c60 5 68 11 68 77v477c0 63 -2 68 -68 74v23c48 7 108 23 147 35v-336c35 36 89 73 143 73
c81 1 138 -51 138 -171v-175c0 -66 7 -72 66 -77v-26z" />
    <glyph glyph-name="c_k" unicode="&#xe086;" horiz-adv-x="876" 
d="M391 111l17 -21c-44 -58 -111 -102 -170 -102c-126 0 -200 102 -200 209c0 77 33 144 100 196c52 40 112 56 150 56h1c40 0 73 -13 89 -26c13 -11 16 -20 16 -31c0 -21 -22 -43 -33 -43c-5 0 -10 3 -19 11c-30 28 -65 41 -100 41c-66 0 -124 -55 -124 -160
c0 -139 95 -185 151 -185c43 0 76 12 122 55zM893 0l-137 -2c-46 51 -109 131 -164 198c-13 16 -22 22 -31 22c-5 0 -9 -1 -16 -3v-111c0 -66 9 -72 73 -78v-26h-224v26c67 6 73 14 73 78v473c0 66 -5 71 -66 76v24c48 5 105 22 144 35v-471c30 6 48 19 63 35
c22 22 52 61 71 88c20 31 17 39 -30 44v26l204 9v-25c-69 -12 -90 -22 -129 -59c-25 -25 -43 -45 -86 -95c20 -30 121 -148 155 -183c36 -38 62 -53 100 -55v-26z" />
    <glyph glyph-name="c_t" unicode="&#xe087;" horiz-adv-x="722" 
d="M716 34l-70 -35c-18 -8 -31 -11 -40 -11c-64 0 -99 40 -99 119v291h-64l-5 11l29 28h40v53c0 79 -21 129 -89 128c-52 0 -95 -39 -94 -112c0 -29 8 -51 19 -68c17 -7 33 -20 33 -37c-1 -22 -23 -43 -35 -43c-6 0 -11 3 -18 9c-26 23 -58 35 -85 35
c-57 0 -119 -49 -119 -161c0 -141 93 -187 150 -187c41 0 80 13 127 56l16 -23c-44 -54 -113 -99 -175 -99c-126 0 -201 102 -201 209c0 80 33 146 107 200c54 40 110 52 140 52c6 0 11 0 17 -1c-14 24 -17 40 -17 67c0 86 68 148 157 148c86 0 146 -39 146 -168v-58h113
c8 -7 7 -31 -6 -39h-107v-256c0 -81 32 -97 59 -97c26 0 48 9 61 16z" />
    <glyph glyph-name="ij" unicode="&#x133;" horiz-adv-x="522" 
d="M135 536c-26 0 -50 24 -50 51c0 30 24 52 51 52c28 0 50 -22 50 -52c0 -27 -22 -51 -51 -51zM252 0h-220v26c63 6 70 12 70 80v207c0 61 -3 66 -63 75v24c51 8 98 21 142 39v-345c0 -68 7 -74 71 -80v-26zM391 536c-27 0 -50 24 -50 51c0 30 23 52 51 52
c27 0 49 -22 49 -52c0 -27 -22 -51 -50 -51zM290 389v23c53 8 103 21 146 39v-339c0 -66 -4 -109 -23 -162c-34 -100 -98 -176 -121 -196c-9 -8 -18 -11 -25 -11c-14 0 -36 20 -36 44c0 12 6 20 21 23c32 8 59 20 72 38c12 15 20 37 25 72c6 43 9 102 9 193v196
c0 67 -6 71 -68 80z" />
    <glyph glyph-name="s_p" unicode="&#xe0db;" horiz-adv-x="856" 
d="M501 383l95 52c19 10 34 14 45 14c115 0 179 -94 179 -189c0 -146 -117 -247 -251 -272c-30 2 -56 10 -68 18v-134c0 -77 11 -83 89 -90v-27h-245v27c66 6 77 13 77 80v744h-38c-79 -2 -124 -42 -122 -113c1 -19 4 -36 12 -53c7 -2 12 -5 17 -8c8 -23 17 -61 19 -86
l-26 -8c-19 44 -45 79 -91 79c-35 0 -65 -26 -65 -67c0 -44 34 -67 81 -87c76 -32 128 -68 128 -137c0 -92 -85 -138 -167 -138c-51 0 -101 20 -118 36c-6 17 -15 82 -16 119l26 4c19 -65 64 -127 127 -127c38 0 72 27 72 72c0 44 -30 69 -82 93c-60 25 -121 62 -121 134
c0 70 61 130 158 130c8 0 14 0 21 -1c-12 22 -17 42 -17 64c0 83 73 139 181 139c13 0 20 2 21 7v13c23 11 46 23 69 34l10 -3v-319zM501 349v-272c21 -22 57 -38 96 -38c66 0 138 46 138 185c0 103 -58 166 -134 166c-31 0 -70 -19 -100 -41z" />
    <glyph glyph-name="s_t" unicode="&#xfb06;" horiz-adv-x="664" 
d="M658 34l-70 -35c-17 -8 -31 -11 -40 -11c-63 0 -98 40 -98 119v291h-64l-5 11l28 28h41v56c0 78 -24 125 -92 124c-55 0 -94 -41 -94 -114c0 -26 3 -42 13 -63c6 -2 11 -5 16 -8c8 -21 16 -61 20 -85l-28 -8c-18 44 -45 78 -89 78c-40 0 -66 -30 -66 -67
c0 -43 36 -67 82 -87c75 -32 127 -68 127 -137c0 -92 -86 -138 -167 -138c-53 0 -101 20 -118 36c-6 17 -14 82 -15 119l26 4c19 -67 66 -126 126 -126c37 0 72 23 72 70c0 44 -30 70 -82 94c-59 26 -121 62 -121 134c0 70 61 130 154 130c10 0 18 0 24 -1
c-10 19 -16 39 -16 64c0 88 68 150 156 150c85 0 150 -38 150 -166v-59h113c8 -8 5 -32 -7 -39h-106v-256c0 -81 33 -97 59 -97s48 10 62 17z" />
    <glyph glyph-name="zero.slash" unicode="&#xf638;" horiz-adv-x="480" 
d="M411 648l-37 -79c49 -62 69 -163 69 -257c0 -146 -53 -324 -203 -324c-46 0 -83 15 -112 41l-35 -72l-29 19l39 80c-48 62 -68 160 -68 255c0 146 55 324 206 324c44 0 80 -15 108 -39l32 67zM141 132l179 410c-15 36 -43 59 -81 59c-90 0 -120 -136 -120 -289
c0 -65 7 -126 22 -180zM338 497l-181 -411c17 -39 45 -65 83 -65c89 0 120 138 120 291c0 61 -5 122 -22 185z" />
    <glyph glyph-name="Euro" unicode="&#x20ac;" horiz-adv-x="480" 
d="M430 137l29 -9c-9 -38 -28 -91 -41 -116c-19 -8 -75 -24 -119 -24c-150 0 -219 118 -232 264h-60l11 36h46c-1 18 0 42 3 65h-40l10 35h35c25 154 123 248 250 248c55 0 95 -18 116 -24c5 -39 10 -77 14 -119l-29 -7c-19 76 -44 116 -112 116c-77 0 -134 -79 -151 -214
h270l-11 -35h-263c-2 -24 -2 -45 -1 -65h248l-11 -36h-233c15 -146 62 -230 147 -230c58 0 88 41 124 115z" />
    <glyph glyph-name="franc" unicode="&#x20a3;" horiz-adv-x="480" 
d="M442 481l-29 -3c-9 41 -16 64 -30 82c-16 20 -30 29 -87 29h-60c-28 0 -31 -2 -31 -29v-215c84 0 141 3 203 10v-58c-64 7 -120 8 -203 9v-115h136v-35h-136v-36c0 -79 6 -88 94 -94v-26h-254v26c69 5 79 17 79 94v36h-87v35h87v310c0 78 -6 90 -79 95v27h387
c1 -33 6 -95 10 -142z" />
    <glyph glyph-name="lira" unicode="&#x20a4;" horiz-adv-x="480" 
d="M360 241h-158c-9 -55 -38 -99 -84 -142c34 0 68 -10 105 -27c43 -20 84 -38 120 -38c37 0 57 20 57 44c0 11 -2 23 -6 32c-3 7 -3 15 2 22c11 15 25 28 38 28s22 -22 22 -41c0 -45 -39 -91 -77 -115c-27 -18 -61 -31 -95 -31c-40 0 -83 27 -130 53c-31 17 -48 22 -60 22
s-27 -6 -41 -41c-2 -9 -6 -12 -12 -12c-13 0 -31 18 -13 47c9 16 31 39 49 59c35 38 41 91 41 140h-91v36h89c-2 21 -5 37 -7 62h-82v35h79c-1 12 -1 28 -1 41c0 66 21 126 83 175c31 26 75 45 103 45c46 0 86 -26 97 -41c8 -11 8 -20 4 -31c-4 -7 -11 -16 -19 -22
s-18 -6 -27 3c-24 21 -52 40 -93 40c-49 0 -71 -32 -71 -96c0 -35 4 -77 10 -114h168v-35h-162c4 -24 6 -41 7 -62h155v-36z" />
    <glyph glyph-name="peseta" unicode="&#x20a7;" horiz-adv-x="480" 
d="M470 423h-38c-6 -104 -83 -164 -168 -175c-13 -1 -20 -2 -30 0l-51 18v-144c0 -81 4 -89 85 -95v-27h-242v27c72 5 77 15 77 96v300h-64v36h64v45c0 83 -5 87 -71 93v26h206c63 0 101 -10 136 -38c32 -24 56 -72 58 -126h38v-36zM183 459h166c-5 90 -54 133 -121 133
c-20 0 -30 -5 -35 -10c-7 -7 -10 -19 -10 -46v-77zM349 423h-166v-124c11 -4 31 -11 49 -11c58 0 111 44 117 135z" />
    <glyph glyph-name="peseta.alt" unicode="&#xe0d9;" horiz-adv-x="828" 
d="M779 242l-25 -6c-13 40 -36 77 -75 77c-31 0 -50 -22 -50 -46c0 -36 32 -51 69 -68c59 -26 97 -52 97 -105c0 -69 -63 -106 -130 -106c-40 0 -81 15 -97 29c0 3 -1 6 -2 9l-51 -28c-14 -7 -26 -10 -37 -10c-50 0 -84 34 -84 96v233c-26 -12 -55 -21 -85 -24
c-13 -1 -27 -1 -41 1l-69 17v-188c0 -83 10 -90 96 -96v-27h-262v27c77 5 83 15 83 97v376c0 81 -4 91 -77 97v26h240c65 0 121 -9 160 -35c38 -25 63 -63 63 -120c0 -40 -14 -76 -37 -99v-36h92c8 -12 6 -31 -5 -37h-87v-184c0 -62 28 -73 48 -73c17 0 36 8 49 14
c-3 22 -6 39 -7 59l25 4c14 -52 46 -97 95 -97c28 0 55 18 55 47c0 32 -21 50 -65 70c-55 25 -97 52 -97 106c0 59 52 101 121 101c33 0 56 -8 73 -15c7 -19 15 -66 17 -86zM199 538v-193c13 -5 40 -12 72 -12c69 0 140 30 140 133c0 90 -59 126 -149 126
c-26 0 -45 -5 -52 -10c-8 -6 -11 -18 -11 -44z" />
    <glyph glyph-name="afii61352" unicode="&#x2116;" horiz-adv-x="872" 
d="M455 181v178c0 176 25 221 46 246c16 21 37 30 57 30c19 0 33 -14 33 -31c0 -16 -13 -26 -32 -34c-39 -15 -67 -57 -67 -225v-352h-33l-268 493h-2v-164c0 -230 -26 -278 -52 -306c-18 -20 -41 -28 -62 -28c-25 0 -45 17 -45 40c0 20 15 36 33 36c11 0 21 -4 31 -4
c34 0 58 17 58 287l-1 154c0 27 0 47 -11 64c-13 22 -47 29 -90 32v26h156l247 -442h2zM697 219h-1c-92 0 -141 76 -141 148c0 110 76 159 138 159c78 0 136 -67 136 -153c0 -101 -65 -154 -132 -154zM697 247h1c34 0 62 26 62 116c0 79 -28 135 -74 135
c-36 0 -62 -47 -62 -115c0 -82 30 -136 73 -136zM812 129h-233v39h233v-39z" />
    <glyph glyph-name="estimated" unicode="&#x212e;" horiz-adv-x="790" 
d="M757 302h-583c-3 0 -5 -1 -5 -4v-176c0 -8 3 -15 8 -20c56 -59 134 -96 221 -96c93 0 175 42 232 107h52c-65 -76 -169 -126 -285 -126c-199 0 -360 145 -360 324s161 324 360 324s360 -145 360 -324v-9zM625 325v178c0 8 -3 15 -9 21c-56 56 -133 92 -218 92
c-86 0 -164 -37 -220 -95c-6 -6 -9 -13 -9 -22v-174c0 -2 2 -5 5 -5h447c3 0 4 3 4 5z" />
    <glyph glyph-name="a.sc" unicode="&#xf761;" horiz-adv-x="565" 
d="M539 0h-209v27l18 2c30 4 36 12 23 48l-29 75h-163c-8 -20 -16 -44 -24 -71c-12 -39 -2 -47 27 -51l24 -3v-27h-181v27c46 5 65 12 95 85l147 359l31 7l154 -383c23 -59 42 -65 87 -68v-27zM327 191l-66 175h-2l-66 -175h134z" />
    <glyph glyph-name="b.sc" unicode="&#xf762;" horiz-adv-x="511" 
d="M334 256v-2c72 -9 126 -42 126 -114c0 -108 -118 -140 -228 -140h-192v27c66 6 72 10 72 83v240c0 78 -6 82 -68 87v27h231c93 0 154 -29 154 -106c0 -66 -60 -93 -95 -102zM191 264h46c60 0 105 22 105 83c0 64 -49 86 -99 86c-45 0 -52 -10 -52 -41v-128zM191 232v-124
c0 -66 25 -77 66 -77c60 0 110 35 110 104c0 72 -54 97 -129 97h-47z" />
    <glyph glyph-name="c.sc" unicode="&#xf763;" horiz-adv-x="531" 
d="M468 140l28 -6c-8 -35 -27 -100 -41 -126c-20 -6 -94 -21 -144 -21c-182 0 -268 116 -268 240c0 150 124 250 284 250c63 0 115 -14 142 -20c5 -40 8 -77 13 -124l-28 -5c-20 86 -71 117 -144 117c-101 0 -173 -86 -173 -206c0 -130 81 -219 177 -219
c72 0 117 40 154 120z" />
    <glyph glyph-name="d.sc" unicode="&#xf764;" horiz-adv-x="584" 
d="M45 464h224c86 0 160 -17 210 -63c36 -33 62 -87 62 -153c0 -171 -138 -248 -301 -248h-201v27c66 5 73 11 73 82v245c0 74 -6 78 -67 83v27zM193 373v-261c0 -64 17 -79 73 -79c119 0 181 79 181 201c0 146 -80 198 -190 198c-29 0 -48 -5 -55 -12c-5 -7 -9 -20 -9 -47z
" />
    <glyph glyph-name="e.sc" unicode="&#xf765;" horiz-adv-x="482" 
d="M420 128l28 -5c-5 -29 -20 -103 -26 -123h-386v27c71 6 76 12 76 84v243c0 73 -5 78 -69 82v28h360c1 -20 4 -69 8 -115l-27 -2c-9 31 -17 48 -27 60c-13 17 -29 24 -82 24h-53c-27 0 -29 -1 -29 -28v-144h73c60 0 65 7 74 55h28v-151h-28c-9 51 -13 59 -74 59h-73v-116
c0 -38 5 -56 17 -64c13 -8 36 -10 78 -10c50 0 76 6 94 25c12 14 25 35 38 71z" />
    <glyph glyph-name="f.sc" unicode="&#xf766;" horiz-adv-x="456" 
d="M409 347l-28 -2c-9 32 -16 49 -27 63c-10 13 -29 23 -84 23h-49c-26 0 -28 -1 -28 -27v-156h77c65 0 70 5 80 55h28v-151h-28c-10 54 -14 59 -80 59h-77v-104c0 -69 7 -75 81 -80v-27h-231v27c64 5 69 12 69 80v250c0 70 -5 75 -69 80v27h358c1 -20 3 -69 8 -117z" />
    <glyph glyph-name="g.sc" unicode="&#xf767;" horiz-adv-x="565" 
d="M533 229v-27c-44 -8 -47 -11 -47 -60v-61c0 -25 2 -49 6 -64c-48 -12 -114 -30 -169 -30c-167 0 -281 95 -281 240c0 167 141 250 289 250c63 0 120 -15 145 -21c3 -24 6 -66 13 -127l-28 -3c-18 88 -73 119 -149 119c-96 0 -175 -75 -175 -205c0 -109 60 -221 191 -221
c34 0 77 9 77 48v73c0 48 -5 54 -85 62v27h213z" />
    <glyph glyph-name="h.sc" unicode="&#xf768;" horiz-adv-x="621" 
d="M579 0h-221v27c64 6 70 11 70 83v116h-235v-116c0 -73 6 -78 67 -83v-27h-219v27c65 5 71 10 71 83v243c0 74 -6 78 -73 84v27h222v-27c-61 -6 -68 -9 -68 -84v-88h235v88c0 74 -6 78 -68 84v27h219v-26c-64 -7 -70 -11 -70 -85v-243c0 -72 6 -77 70 -83v-27z" />
    <glyph glyph-name="i.sc" unicode="&#xf769;" horiz-adv-x="306" 
d="M265 0h-223v27c64 5 70 10 70 82v246c0 73 -6 76 -70 81v28h223v-27c-65 -6 -72 -9 -72 -83v-245c0 -72 6 -77 72 -82v-27z" />
    <glyph glyph-name="j.sc" unicode="&#xf76a;" horiz-adv-x="297" 
d="M268 464v-27c-63 -5 -70 -10 -70 -84v-223c0 -94 -11 -164 -79 -217c-26 -20 -51 -32 -72 -39l-13 28c41 20 62 50 72 93c9 43 11 98 11 164v194c0 74 -6 79 -75 84v27h226z" />
    <glyph glyph-name="k.sc" unicode="&#xf76b;" horiz-adv-x="558" 
d="M537 0h-136c-29 31 -123 147 -166 202c-17 23 -28 22 -44 16v-111c0 -70 7 -75 72 -80v-27h-218v27c61 5 67 10 67 80v250c0 70 -6 75 -70 80v27h217v-27c-61 -6 -68 -9 -68 -80v-110c16 3 34 11 50 25c46 42 99 100 119 124c18 22 19 33 -9 37l-24 4v27h197v-27
c-49 -6 -73 -12 -116 -49c-28 -23 -78 -72 -124 -118c57 -78 123 -154 159 -192c37 -37 58 -47 94 -51v-27z" />
    <glyph glyph-name="l.sc" unicode="&#xf76c;" horiz-adv-x="460" 
d="M410 133l28 -3c-5 -30 -20 -108 -27 -130h-374v27c70 5 75 10 75 82v248c0 72 -6 75 -71 80v27h227v-27c-68 -5 -75 -8 -75 -80v-258c0 -35 5 -53 19 -60c14 -6 39 -8 73 -8c45 1 72 7 88 26c14 16 24 38 37 76z" />
    <glyph glyph-name="m.sc" unicode="&#xf76d;" horiz-adv-x="708" 
d="M671 464v-28c-74 -5 -79 -9 -77 -79l5 -251c1 -69 5 -73 75 -79v-27h-225v27c65 6 70 9 71 79l1 289h-3l-177 -387h-21l-153 380h-3l-10 -185c-5 -70 -5 -106 -4 -131c2 -32 17 -41 70 -45l-1 -27h-186v27c45 4 62 14 67 44c5 31 10 70 16 135l12 140c6 81 0 85 -71 90
v28h155l145 -325l158 325h156z" />
    <glyph glyph-name="n.sc" unicode="&#xf76e;" horiz-adv-x="580" 
d="M559 464v-27c-48 -4 -66 -12 -69 -44c-3 -26 -6 -59 -6 -128v-270h-33l-301 363l-1 -1v-157c0 -69 2 -106 6 -129c3 -31 22 -40 77 -44v-27h-195v27c46 4 64 13 68 43c3 24 6 61 6 130v134c0 83 -16 98 -85 103v27h136l283 -327h2v128c0 69 -2 102 -5 127
c-4 33 -20 41 -77 45v27h194z" />
    <glyph glyph-name="o.sc" unicode="&#xf76f;" horiz-adv-x="584" 
d="M292 477h1c146 0 248 -104 248 -240c0 -165 -127 -250 -248 -250c-160 0 -251 118 -251 236c0 177 141 254 250 254zM284 445h-1c-76 0 -147 -67 -147 -199c0 -133 69 -228 167 -228c75 0 144 55 144 200c0 113 -60 227 -163 227z" />
    <glyph glyph-name="p.sc" unicode="&#xf770;" horiz-adv-x="484" 
d="M46 464h217c108 0 179 -40 179 -137c0 -90 -70 -138 -155 -149c-13 -2 -25 -2 -36 -2l-59 16v-88c0 -67 6 -71 79 -77v-27h-229v27c64 6 70 10 70 76v252c0 73 -6 76 -66 81v28zM192 391v-168c12 -4 33 -10 58 -10c35 0 101 16 101 113c0 77 -51 108 -110 108
c-48 0 -49 -8 -49 -43z" />
    <glyph glyph-name="q.sc" unicode="&#xf771;" horiz-adv-x="585" 
d="M559 -107l-10 -19c-47 -4 -84 4 -107 11c-38 13 -97 47 -174 105c-138 13 -225 116 -225 231c0 186 149 256 250 256c147 0 249 -107 249 -241c0 -129 -81 -206 -165 -234c54 -37 126 -80 182 -109zM271 22l55 21c8 -6 14 -11 22 -17c49 17 100 71 100 188
c0 126 -64 231 -164 231c-78 0 -147 -68 -147 -201c0 -118 57 -203 134 -222z" />
    <glyph glyph-name="r.sc" unicode="&#xf772;" horiz-adv-x="528" 
d="M513 17l-3 -23h-23c-80 0 -112 22 -142 65c-23 32 -50 79 -64 104c-18 30 -29 37 -67 37h-23v-93c0 -69 6 -75 72 -80v-27h-223v27c66 5 72 10 72 80v249c0 73 -6 76 -69 81v27h221c50 0 87 -6 117 -25c29 -17 51 -50 51 -95c0 -65 -47 -102 -95 -120
c11 -20 43 -72 66 -104c25 -36 38 -52 55 -70s37 -27 55 -33zM191 231h41c28 0 52 4 73 16c26 16 39 49 39 84c0 73 -49 102 -107 102c-42 0 -46 -9 -46 -39v-163z" />
    <glyph glyph-name="s.sc" unicode="&#xf773;" horiz-adv-x="408" 
d="M345 341l-29 -4c-19 61 -48 108 -107 108c-48 0 -75 -35 -75 -74c0 -52 39 -71 88 -92l18 -7c66 -27 127 -61 127 -142c1 -83 -73 -143 -172 -143c-64 0 -112 24 -130 35c-6 16 -16 75 -24 125l29 5c18 -56 62 -133 138 -133c49 0 82 34 82 80c0 55 -42 77 -81 94l-22 10
c-55 23 -126 59 -126 135c0 81 63 139 165 139c46 0 83 -14 101 -19c6 -30 11 -67 18 -117z" />
    <glyph glyph-name="t.sc" unicode="&#xf774;" horiz-adv-x="510" 
d="M474 338l-29 -2c-8 39 -17 61 -26 73c-13 17 -34 23 -79 23h-44v-321c0 -74 6 -78 79 -83v-28h-236v28c69 5 75 10 75 82v322h-31c-62 0 -77 -8 -90 -26c-10 -14 -17 -33 -25 -70h-28c3 58 8 109 9 145h21c11 -15 20 -17 39 -17h298c20 0 26 4 37 17h21
c0 -30 5 -99 9 -143z" />
    <glyph glyph-name="u.sc" unicode="&#xf775;" horiz-adv-x="582" 
d="M559 464v-27c-47 -4 -65 -13 -68 -47c-3 -23 -5 -56 -5 -123v-55c0 -67 -14 -131 -55 -172c-34 -34 -83 -53 -136 -53c-47 0 -91 9 -126 36c-42 32 -65 84 -65 168v165c0 70 -5 74 -70 81v27h220v-27c-63 -7 -68 -11 -68 -81v-143c0 -115 45 -177 130 -177
c89 0 131 68 131 185v46c0 69 -2 99 -5 123c-4 35 -20 43 -78 47v27h195z" />
    <glyph glyph-name="v.sc" unicode="&#xf776;" horiz-adv-x="567" 
d="M544 464v-27c-55 -9 -66 -16 -97 -81c-29 -58 -94 -217 -153 -366h-30c-52 130 -120 296 -157 383c-22 53 -37 58 -82 64v27h212v-27l-28 -6c-26 -5 -30 -11 -19 -43c17 -44 70 -173 115 -285c36 87 91 227 108 280c12 36 7 44 -29 50l-22 4v27h182z" />
    <glyph glyph-name="w.sc" unicode="&#xf777;" horiz-adv-x="761" 
d="M739 464v-28c-55 -7 -61 -14 -81 -65c-20 -52 -67 -190 -128 -381h-28l-127 327h-2l-123 -327h-27l-121 374c-19 60 -30 67 -78 73v27h202v-28l-22 -4c-32 -6 -36 -9 -25 -45l83 -268h2l119 334h25l128 -330h3c26 75 63 195 79 260c9 36 4 44 -32 50l-24 3v28h177z" />
    <glyph glyph-name="x.sc" unicode="&#xf778;" horiz-adv-x="551" 
d="M528 0h-229v27l29 5c25 4 27 15 13 36l-83 127c-36 -49 -60 -90 -80 -125c-13 -24 -11 -34 12 -38l33 -6v-26h-194v27c57 7 74 14 106 56c35 44 68 91 102 142l-111 166c-23 35 -41 39 -86 46v27h206v-28l-28 -6c-16 -3 -17 -11 -6 -28l75 -113c27 39 52 75 69 105
c16 27 12 34 -12 38l-24 5v27h183v-27c-52 -8 -71 -13 -99 -46c-31 -37 -64 -81 -98 -130l122 -177c29 -42 44 -50 100 -57v-27z" />
    <glyph glyph-name="y.sc" unicode="&#xf779;" horiz-adv-x="511" 
d="M487 464v-27c-54 -6 -65 -17 -92 -56c-24 -34 -51 -79 -88 -148c-11 -21 -13 -29 -13 -44v-83c0 -67 7 -73 80 -79v-27h-239v27c73 6 78 12 78 79v73c0 20 -3 26 -15 49c-23 40 -48 83 -92 155c-26 43 -37 48 -82 54v27h205v-27l-31 -6c-22 -4 -23 -12 -13 -31
c24 -44 65 -116 91 -157c31 55 65 118 80 152c12 26 7 34 -23 38l-24 4v27h178z" />
    <glyph glyph-name="z.sc" unicode="&#xf77a;" horiz-adv-x="493" 
d="M441 141l27 -6c-6 -38 -21 -111 -29 -135h-397l-5 12l299 419h-109c-74 0 -92 -8 -103 -27c-11 -17 -19 -38 -28 -74h-27c3 60 8 113 10 151h22c8 -15 18 -17 40 -17h300l6 -13l-295 -415c22 -3 53 -4 104 -4c78 0 120 5 141 26c17 17 28 39 44 83z" />
    <glyph glyph-name="dcroat.sc" unicode="&#xf676;" horiz-adv-x="611" 
d="M69 464h225c86 0 160 -17 211 -63c36 -33 62 -85 62 -150c0 -174 -139 -251 -301 -251h-203v27c67 7 73 13 73 89v106h-76v38h76v88c0 77 -5 80 -67 88v28zM218 222v-109c0 -64 14 -81 75 -81c118 0 178 81 178 201c0 145 -79 200 -190 200c-29 0 -49 -5 -55 -12
s-8 -21 -8 -48v-113h122v-38h-122z" />
    <glyph glyph-name="hbar.sc" unicode="&#xf681;" horiz-adv-x="621" 
d="M580 0h-221v27c64 6 69 11 69 81v107h-235v-107c0 -72 6 -76 67 -81v-27h-219v27c65 5 71 10 71 81v221h-71v36h71v7c-1 58 -11 59 -73 65v27h222v-27c-56 -6 -66 -6 -68 -65v-7h235v7c-1 58 -11 60 -68 65v27h220v-26c-60 -7 -69 -8 -70 -66v-7h68v-36h-68v-221
c0 -71 6 -75 70 -81v-27zM428 253v76h-235v-76h235z" />
    <glyph glyph-name="dotlessi.sc" unicode="&#xe08e;" horiz-adv-x="306" 
d="M265 0h-223v27c64 5 70 10 70 82v246c0 73 -6 76 -70 81v28h223v-27c-65 -6 -72 -9 -72 -83v-245c0 -72 6 -77 72 -82v-27z" />
    <glyph glyph-name="oslash.sc" unicode="&#xf7f8;" horiz-adv-x="582" 
d="M481 485l-37 -57c60 -43 95 -113 95 -191c0 -162 -125 -250 -247 -250c-46 0 -89 11 -122 30l-42 -60l-26 22l38 55c-64 46 -97 119 -97 188c0 175 138 254 248 254c46 0 87 -10 123 -29l39 57zM177 92l205 305c-27 31 -58 47 -100 47c-78 0 -147 -70 -147 -203
c0 -61 16 -113 42 -149zM404 368l-203 -305c24 -29 59 -43 98 -43c74 0 147 50 147 202c0 51 -13 106 -42 146z" />
    <glyph glyph-name="tbar.sc" unicode="&#xf69c;" horiz-adv-x="510" 
d="M474 338l-28 -2c-9 41 -16 60 -27 73c-13 17 -34 23 -78 23h-45v-180h112v-37h-112v-104c0 -73 6 -78 79 -84v-27h-236v27c69 6 75 12 75 84v104h-110v37h110v180h-32c-61 0 -76 -8 -89 -26c-10 -15 -18 -33 -26 -70h-27c3 58 8 109 9 145h21c11 -15 20 -17 39 -17h298
c20 0 26 4 37 17h21c0 -30 5 -99 9 -143z" />
    <glyph glyph-name="eng.sc" unicode="&#xf67b;" horiz-adv-x="579" 
d="M558 464v-27c-48 -4 -66 -13 -69 -44c-3 -26 -5 -59 -5 -128v-196c0 -99 -6 -158 -29 -204c-21 -40 -48 -60 -82 -60c-20 0 -42 23 -42 51c0 9 4 19 14 19c8 0 18 -5 35 -5c35 0 60 37 63 134l-293 353l-1 -1v-157c0 -69 3 -105 6 -128c4 -31 22 -40 77 -44v-27h-195v27
c46 4 64 13 68 43c3 24 6 60 6 129v134c0 84 -15 98 -85 104v27h136l282 -326h2v127c0 69 -2 102 -5 127c-3 32 -20 41 -78 45v27h195z" />
    <glyph glyph-name="eth.sc" unicode="&#xf7f0;" horiz-adv-x="611" 
d="M69 464h225c86 0 160 -17 211 -63c36 -33 62 -85 62 -150c0 -174 -139 -251 -301 -251h-203v27c67 7 73 13 73 89v106h-76v38h76v88c0 77 -5 80 -67 88v28zM218 222v-109c0 -64 14 -81 75 -81c118 0 178 81 178 201c0 145 -79 200 -190 200c-29 0 -49 -5 -55 -12
s-8 -21 -8 -48v-113h122v-38h-122z" />
    <glyph glyph-name="thorn.sc" unicode="&#xf7fe;" horiz-adv-x="481" 
d="M267 464v-27c-66 -6 -71 -7 -71 -68c25 1 50 1 74 1c101 0 171 -38 171 -128c0 -92 -77 -135 -161 -138c-13 -1 -24 1 -34 3l-51 12v-21c0 -63 6 -65 75 -71v-27h-225v27c66 6 71 8 71 76v257c0 71 -5 71 -71 77v27h222zM195 296v-145c14 -6 38 -11 61 -11
c40 0 96 21 96 100c0 73 -48 99 -112 99c-42 0 -45 -6 -45 -43z" />
    <glyph glyph-name="uni021D.sc" unicode="&#xe203;" horiz-adv-x="431" 
d="M120 162l-10 28c98 41 151 81 151 160c0 60 -36 94 -83 94c-52 0 -83 -39 -107 -109l-27 6c8 47 14 74 18 107c50 12 77 29 136 29c89 0 147 -46 147 -116c0 -34 -18 -62 -41 -84c-11 -11 -29 -25 -42 -34v-2c74 -18 124 -65 124 -141c0 -129 -141 -218 -292 -244l-49 35
l5 17c18 -3 36 -5 58 -5c112 0 192 69 192 171c0 76 -54 112 -97 112c-16 0 -36 -6 -83 -24z" />
    <glyph glyph-name="germandbls.sc" unicode="&#xe0a4;" horiz-adv-x="815" 
d="M345 341l-29 -4c-19 61 -48 108 -107 108c-48 0 -75 -35 -75 -74c0 -52 39 -71 88 -92l18 -7c66 -27 127 -61 127 -142c1 -83 -73 -143 -172 -143c-64 0 -112 24 -130 35c-6 16 -16 75 -24 125l29 5c18 -56 62 -133 138 -133c49 0 82 34 82 80c0 55 -42 77 -81 94l-22 10
c-55 23 -126 59 -126 135c0 81 63 139 165 139c46 0 83 -14 101 -19c6 -30 11 -67 18 -117zM753 341l-29 -4c-19 61 -48 108 -107 108c-48 0 -75 -35 -75 -74c0 -52 39 -71 88 -92l18 -7c66 -27 127 -61 127 -142c1 -83 -73 -143 -172 -143c-64 0 -112 24 -130 35
c-6 16 -16 75 -24 125l29 5c18 -56 62 -133 138 -133c49 0 82 34 82 80c0 55 -42 77 -81 94l-22 10c-55 23 -126 59 -126 135c0 81 63 139 165 139c46 0 83 -14 101 -19c6 -30 11 -67 18 -117z" />
    <glyph glyph-name="ae.sc" unicode="&#xf7e6;" horiz-adv-x="723" 
d="M657 129l28 -4c-5 -31 -21 -105 -27 -125h-387v27c71 6 76 13 76 86v89h-135c-21 -38 -45 -82 -63 -125c-13 -31 -10 -41 23 -46l26 -4v-27h-183v27c34 4 59 13 84 54c22 35 57 94 104 182l75 139c10 21 6 25 -24 29l-48 6v27h434c1 -20 4 -69 8 -114l-28 -4
c-9 31 -16 50 -27 63c-12 16 -31 23 -84 23h-55c-28 0 -29 -1 -29 -28v-165h74c65 0 68 6 78 57h27v-153h-27c-10 52 -14 59 -78 59h-74v-90c0 -40 5 -62 18 -70c12 -9 37 -11 80 -11c51 0 79 6 96 25c13 13 25 37 38 73zM347 239v193c-8 0 -15 -3 -30 -28
c-22 -40 -64 -118 -87 -165h117z" />
    <glyph glyph-name="oe.sc" unicode="&#xf6fa;" horiz-adv-x="776" 
d="M710 128l29 -3c-5 -32 -21 -105 -27 -125h-256c-32 0 -62 -1 -90 -3c-25 -2 -47 -3 -63 -3c-173 0 -260 108 -260 228c0 169 136 248 279 248c59 0 92 -6 128 -6h244c1 -20 4 -69 8 -115l-27 -2c-9 31 -17 49 -27 62c-12 16 -30 23 -85 23h-54c-29 0 -30 -1 -30 -28v-147
h74c65 0 69 7 78 56h27v-150h-27c-10 53 -15 58 -78 58h-74v-115c0 -37 5 -58 17 -66c13 -8 39 -9 82 -9c50 0 77 5 95 24c12 14 24 37 37 73zM398 104v279c0 23 -2 37 -10 41c-14 7 -40 15 -78 15c-103 0 -172 -71 -172 -204c0 -127 66 -210 177 -210c33 0 53 5 66 12
c15 9 17 34 17 67z" />
    <glyph glyph-name="f_i.sc" unicode="&#xe099;" horiz-adv-x="762" 
d="M409 347l-28 -2c-9 32 -16 49 -27 63c-10 13 -29 23 -84 23h-49c-26 0 -28 -1 -28 -27v-156h77c65 0 70 5 80 55h28v-151h-28c-10 54 -14 59 -80 59h-77v-104c0 -69 7 -75 81 -80v-27h-231v27c64 5 69 12 69 80v250c0 70 -5 75 -69 80v27h358c1 -20 3 -69 8 -117zM721 0
h-223v27c64 5 70 10 70 82v246c0 73 -6 76 -70 81v28h223v-27c-65 -6 -72 -9 -72 -83v-245c0 -72 6 -77 72 -82v-27z" />
    <glyph glyph-name="f_l.sc" unicode="&#xe09c;" horiz-adv-x="916" 
d="M409 347l-28 -2c-9 32 -16 49 -27 63c-10 13 -29 23 -84 23h-49c-26 0 -28 -1 -28 -27v-156h77c65 0 70 5 80 55h28v-151h-28c-10 54 -14 59 -80 59h-77v-104c0 -69 7 -75 81 -80v-27h-231v27c64 5 69 12 69 80v250c0 70 -5 75 -69 80v27h358c1 -20 3 -69 8 -117z
M866 133l28 -3c-5 -30 -20 -108 -27 -130h-374v27c70 5 75 10 75 82v248c0 72 -6 75 -71 80v27h227v-27c-68 -5 -75 -8 -75 -80v-258c0 -35 5 -53 19 -60c14 -6 39 -8 73 -8c45 1 72 7 88 26c14 16 24 38 37 76z" />
    <glyph glyph-name="ij.sc" unicode="&#xf684;" horiz-adv-x="603" 
d="M265 0h-223v27c64 5 70 10 70 82v246c0 73 -6 76 -70 81v28h223v-27c-65 -6 -72 -9 -72 -83v-245c0 -72 6 -77 72 -82v-27zM574 464v-27c-63 -5 -70 -10 -70 -84v-223c0 -94 -11 -164 -79 -217c-26 -20 -51 -32 -72 -39l-13 28c41 20 62 50 72 93c9 43 11 98 11 164v194
c0 74 -6 79 -75 84v27h226z" />
    <glyph glyph-name="ampersand.sc" unicode="&#xf726;" horiz-adv-x="622" 
d="M595 303l-24 -4c-31 -5 -48 -17 -77 -56c-23 -29 -40 -57 -73 -103c41 -36 107 -111 133 -150l-9 -11c-45 3 -102 24 -122 43c-8 9 -31 31 -52 54c-45 -55 -98 -89 -160 -89c-100 0 -158 72 -158 142c0 68 58 104 108 139c-28 25 -54 61 -54 105c0 76 68 130 139 130
c70 0 127 -47 127 -118c0 -30 -17 -52 -37 -68c-16 -13 -30 -24 -61 -46c29 -24 72 -63 123 -109c26 38 37 60 50 87c16 31 16 44 -19 50l-24 4v28h190v-28zM238 472h-1c-34 0 -62 -34 -62 -75c0 -40 27 -69 77 -108c35 29 51 61 51 97c0 47 -26 86 -65 86zM243 48h1
c42 0 81 20 104 50c-51 51 -98 94 -165 152c-31 -27 -50 -57 -50 -94c0 -72 62 -108 110 -108z" />
    <glyph glyph-name="exclam.sc" unicode="&#xf721;" horiz-adv-x="242" 
d="M123 492h1c51 0 59 -19 53 -59l-39 -269h-31l-37 269c-7 40 3 59 53 59zM124 -12h-1c-30 0 -54 23 -54 56c0 32 24 57 55 57c32 0 56 -25 56 -57c0 -33 -24 -56 -56 -56z" />
    <glyph glyph-name="exclamdown.sc" unicode="&#xf7a1;" horiz-adv-x="235" 
d="M116 476h1c29 0 54 -23 54 -57c0 -32 -25 -57 -55 -57c-33 0 -57 25 -57 57c0 34 24 57 57 57zM102 299h30l38 -268c6 -41 -3 -60 -53 -60h-1c-51 0 -60 19 -53 60z" />
    <glyph glyph-name="question.sc" unicode="&#xf73f;" horiz-adv-x="345" 
d="M196 164l-19 -18c-31 15 -81 50 -81 97c0 29 20 50 66 78c45 27 81 49 81 81c0 26 -17 42 -43 42c-53 0 -85 -58 -103 -58c-20 0 -41 22 -41 40c0 11 4 21 20 33c26 21 62 33 89 33h1c65 0 132 -56 132 -124c0 -34 -12 -60 -70 -93c-40 -23 -57 -38 -57 -59
c0 -19 9 -33 25 -52zM166 -12h-1c-30 0 -53 22 -53 55c0 31 23 56 54 56s54 -25 54 -56c0 -33 -23 -55 -54 -55z" />
    <glyph glyph-name="questiondown.sc" unicode="&#xf7bf;" horiz-adv-x="346" 
d="M175 476h1c30 0 53 -23 53 -55s-23 -57 -54 -57s-54 25 -54 57s23 55 54 55zM148 300l20 17c31 -14 80 -49 80 -97c0 -29 -19 -50 -65 -78c-46 -27 -81 -48 -82 -80c0 -26 17 -40 43 -40c52 0 84 57 103 57s42 -23 41 -40c0 -12 -4 -22 -19 -34c-27 -22 -62 -34 -89 -34
h-1c-64 0 -132 56 -132 124c0 35 12 61 69 94c41 23 57 38 57 59c0 19 -10 33 -25 52z" />
    <glyph glyph-name="zero.oldstyle" unicode="&#xf730;" horiz-adv-x="530" 
d="M265 453h1c107 0 214 -80 214 -232s-109 -233 -215 -233c-110 0 -215 79 -215 230c0 153 107 235 215 235zM265 408h-1c-79 0 -137 -76 -137 -188c0 -110 56 -187 139 -187s137 75 137 187s-56 188 -138 188z" />
    <glyph glyph-name="one.oldstyle" unicode="&#xf731;" horiz-adv-x="340" 
d="M311 0h-261v27l54 7c32 4 37 13 37 62v224c0 52 -5 61 -40 63l-61 3v25c64 11 121 24 180 42v-357c0 -49 5 -58 37 -62l54 -7v-27z" />
    <glyph glyph-name="two.oldstyle" unicode="&#xf732;" horiz-adv-x="446" 
d="M424 118l-27 -118h-356v23c90 66 232 167 232 271c0 50 -27 95 -91 95c-54 0 -93 -53 -113 -80l-22 20l50 72c36 35 75 52 117 52c91 0 146 -63 146 -140c0 -57 -34 -98 -70 -131c-31 -31 -74 -65 -131 -112v-2h160c45 0 56 10 78 53z" />
    <glyph glyph-name="three.oldstyle" unicode="&#xf733;" horiz-adv-x="406" 
d="M230 214v-3c81 -16 130 -75 130 -144c0 -160 -187 -229 -243 -229c-36 0 -67 16 -83 30c-14 13 -17 23 -12 38c3 8 10 18 20 26c8 6 18 6 26 -1c23 -20 57 -39 101 -39c59 0 108 50 108 140c0 85 -59 121 -113 121c-21 0 -41 -3 -59 -9l-7 28c90 36 142 77 142 139
c0 55 -35 82 -79 82c-41 0 -71 -29 -98 -63l-20 20l40 55c25 27 64 48 107 48h1c78 0 129 -49 129 -123c0 -26 -12 -49 -30 -68c-14 -14 -33 -29 -60 -48z" />
    <glyph glyph-name="four.oldstyle" unicode="&#xf734;" horiz-adv-x="486" 
d="M468 93l-10 -56h-85v-193h-78v193h-259v36c98 128 197 259 295 380h42v-360h95zM295 93v257h-2c-69 -92 -127 -169 -191 -257h193z" />
    <glyph glyph-name="five.oldstyle" unicode="&#xf735;" horiz-adv-x="403" 
d="M125 362l-20 -107c113 -4 243 -44 243 -186c0 -58 -31 -116 -87 -158c-64 -48 -160 -73 -219 -73l-4 31c46 8 228 44 228 185c0 105 -112 131 -210 131l38 247l253 21l-14 -73z" />
    <glyph glyph-name="six.oldstyle" unicode="&#xf736;" horiz-adv-x="499" 
d="M432 606l7 -31c-45 -10 -90 -31 -126 -59c-87 -48 -135 -122 -154 -179l58 24c29 12 52 18 63 18c94 0 170 -68 170 -179c0 -121 -87 -212 -202 -212c-97 0 -195 73 -195 236c0 166 115 290 252 347c44 18 88 29 127 35zM229 324h-1c-23 0 -50 -9 -77 -22
c-7 -28 -8 -49 -8 -72c0 -131 56 -206 125 -206c49 0 98 35 98 131c0 75 -28 169 -137 169z" />
    <glyph glyph-name="seven.oldstyle" unicode="&#xf737;" horiz-adv-x="437" 
d="M414 442l8 -12c-45 -84 -178 -330 -310 -578l-76 -14l-8 12c117 165 232 362 317 518h-307v74h376z" />
    <glyph glyph-name="eight.oldstyle" unicode="&#xf738;" horiz-adv-x="466" 
d="M240 606h1c90 0 153 -62 153 -144c0 -27 -10 -54 -28 -74c-12 -14 -33 -33 -70 -61c62 -39 123 -79 123 -165c0 -115 -105 -174 -189 -174c-102 0 -181 58 -181 160c0 45 21 73 42 92c14 15 50 41 83 62c-56 32 -101 74 -101 147c0 81 68 157 167 157zM234 573h-1
c-56 0 -86 -51 -86 -96c0 -72 57 -102 121 -135c24 21 53 54 53 119c0 77 -49 112 -87 112zM241 21h1c52 0 97 38 97 115c-1 73 -66 112 -137 149c-49 -35 -75 -82 -75 -130c0 -86 58 -134 114 -134z" />
    <glyph glyph-name="nine.oldstyle" unicode="&#xf739;" horiz-adv-x="486" 
d="M243 453h1c131 0 190 -116 190 -232c0 -192 -120 -300 -250 -351c-36 -14 -102 -31 -149 -32l-6 30c111 20 249 85 303 241l-37 -17c-37 -17 -64 -20 -81 -20c-81 0 -164 65 -164 173c0 131 101 208 193 208zM227 418h-1c-53 0 -93 -59 -93 -136c0 -107 67 -156 135 -156
c31 0 54 8 70 17c5 20 8 37 8 73c0 67 -19 202 -119 202z" />
    <glyph glyph-name="dollar.oldstyle" unicode="&#xf724;" horiz-adv-x="473" 
d="M256 265l20 -6c79 -25 140 -55 140 -134c0 -73 -66 -127 -160 -135v-73h-34v72c-73 1 -122 25 -140 35c-6 16 -17 60 -27 119l28 5c19 -46 60 -119 139 -126v171l-27 9c-70 22 -122 53 -122 119c0 68 55 124 149 132v65h34v-63c31 0 65 -5 115 -20c5 -27 14 -55 21 -107
l-28 -8c-18 45 -44 95 -108 103v-158zM222 274v149c-54 -4 -81 -35 -81 -73c0 -40 32 -63 81 -76zM256 184v-162c53 4 86 29 86 76c0 37 -16 63 -86 86z" />
    <glyph glyph-name="cent.oldstyle" unicode="&#xf7a2;" horiz-adv-x="468" 
d="M410 139l18 -22c-36 -50 -92 -84 -141 -93v-93h-34v91c-125 5 -197 96 -197 193c0 74 36 140 95 181c35 25 71 38 102 44v80h34v-75h12c45 -1 76 -11 98 -25c10 -7 14 -17 14 -26c0 -20 -17 -39 -32 -39c-5 0 -10 3 -14 8c-24 26 -51 41 -78 43v-322c41 -1 83 15 123 55z
M253 87v319c-44 -2 -119 -41 -119 -152c0 -106 64 -156 119 -167z" />
    <glyph glyph-name="Euro.oldstyle" unicode="&#xe023;" horiz-adv-x="529" 
d="M467 128l25 -11c-10 -36 -28 -85 -40 -106c-20 -7 -80 -23 -127 -23c-158 0 -232 101 -249 217h-66l13 36h50c0 20 0 40 3 61h-48l13 36h41c28 124 130 203 261 203c55 0 102 -17 122 -22c6 -39 9 -71 14 -114l-26 -6c-21 65 -48 109 -125 109c-84 0 -141 -70 -158 -170
h285l-14 -36h-275c-2 -22 -2 -39 0 -61h256l-13 -36h-240c18 -112 76 -183 160 -183c70 0 102 42 138 106z" />
    <glyph glyph-name="florin.oldstyle" unicode="&#xe09f;" horiz-adv-x="486" 
d="M193 305l8 40c14 73 42 128 92 171c46 41 81 48 104 48s54 -17 54 -41c0 -17 -24 -50 -39 -41s-40 31 -61 31c-17 0 -27 -8 -36 -23c-12 -21 -23 -85 -36 -185h105v-38h-111l-20 -127c-18 -121 -53 -197 -121 -252c-35 -28 -62 -35 -83 -35c-26 0 -54 19 -54 41
s22 44 34 44c9 0 36 -29 65 -29c18 0 27 10 34 23c12 21 26 88 38 175l21 160h-80v38h86z" />
    <glyph glyph-name="sterling.oldstyle" unicode="&#xe0dd;" horiz-adv-x="481" 
d="M349 248h-152v-11c-1 -58 -33 -110 -78 -149c39 3 77 -1 124 -23c34 -17 70 -31 99 -31c28 0 45 20 45 41c0 9 -3 20 -5 27c-4 7 -3 14 1 20c11 16 28 26 39 26c12 0 21 -18 21 -35c0 -35 -31 -83 -73 -110c-26 -17 -59 -29 -88 -29c-37 0 -78 24 -123 49
c-26 13 -42 21 -60 21c-15 0 -28 -12 -38 -39c-4 -8 -8 -11 -15 -11c-12 0 -29 17 -13 43c7 14 25 35 40 51c31 35 39 82 39 116c0 19 -2 33 -3 44h-77v37h73c-2 15 -4 38 -4 59c0 52 27 112 83 154c32 26 74 42 102 42c41 0 77 -20 89 -37c8 -11 7 -22 3 -31
c-3 -6 -10 -15 -18 -22c-8 -6 -17 -5 -26 2c-24 22 -53 40 -86 40c-54 0 -68 -47 -68 -88c0 -34 9 -76 14 -119h155v-37z" />
    <glyph glyph-name="yen.oldstyle" unicode="&#xe101;" horiz-adv-x="489" 
d="M463 532v-27c-48 -5 -59 -18 -85 -59c-21 -33 -48 -77 -93 -161h120v-34h-127v-26v-48h127v-35h-127v-47c0 -52 6 -64 83 -68v-27h-244v27c78 4 82 17 82 69v46h-130v35h130v43v31h-130v34h118c-22 42 -52 96 -91 164c-26 44 -40 51 -81 56v27h198v-27l-28 -5
c-23 -3 -28 -10 -19 -27c17 -33 64 -119 93 -170c23 44 64 123 80 159c10 23 7 33 -22 38l-28 5v27h174z" />
    <glyph glyph-name="colonmonetary.oldstyle" unicode="&#xe08b;" horiz-adv-x="528" 
d="M468 136l25 -8c-10 -37 -28 -89 -41 -115c-21 -7 -87 -23 -134 -23l-10 -58h-32l10 60c-20 1 -38 4 -54 8l-12 -68h-33l13 77c-113 42 -161 147 -161 250c0 158 109 266 255 280l11 58h32l-10 -58h7c15 0 31 -1 48 -3l11 61h32l-12 -66c21 -5 40 -10 55 -13
c7 -40 11 -75 15 -113l-24 -6c-16 45 -30 74 -53 89l-81 -466c72 5 101 39 143 114zM292 24l84 476c-18 6 -35 8 -56 9l-82 -470c16 -8 32 -13 54 -15zM209 55l79 452c-105 -13 -156 -115 -156 -242c0 -96 29 -171 77 -210z" />
    <glyph glyph-name="franc.oldstyle" unicode="&#xe0a1;" horiz-adv-x="483" 
d="M439 405l-28 -5c-9 35 -17 56 -27 70c-13 18 -31 24 -92 24h-57c-24 0 -27 -2 -27 -24v-171c74 0 145 3 201 9v-54c-57 6 -127 6 -201 8v-93h122v-35h-122v-30c0 -68 7 -72 88 -77v-27h-244v27c68 4 76 9 76 77v30h-80v35h80v253c0 66 -8 75 -75 80v27h378
c0 -28 4 -79 8 -124z" />
    <glyph glyph-name="lira.oldstyle" unicode="&#xe0a7;" horiz-adv-x="481" 
d="M352 195h-159c-9 -37 -33 -76 -74 -107c38 3 77 -1 125 -23c34 -16 71 -31 100 -31c28 0 43 20 43 42c0 9 -2 20 -5 26c-3 7 -2 15 2 21c10 16 27 26 38 26s22 -18 22 -35c0 -35 -32 -84 -73 -111c-27 -17 -58 -29 -87 -29c-36 0 -80 24 -124 48c-26 14 -42 23 -61 23
c-15 0 -27 -13 -37 -40c-4 -8 -10 -11 -16 -11c-12 0 -29 17 -12 43c7 14 24 35 39 52c28 31 38 71 39 106h-82v36h81c0 13 -2 32 -5 53h-77v36h74c0 8 -1 16 -1 29c0 47 26 107 82 150c32 26 75 42 104 42c40 0 76 -20 87 -36c9 -13 7 -23 4 -32c-3 -6 -10 -16 -18 -22
s-18 -6 -27 1c-23 23 -54 40 -86 40c-55 0 -68 -46 -68 -88c0 -29 7 -68 10 -84h163v-36h-159c3 -22 4 -39 4 -53h154v-36z" />
    <glyph glyph-name="numbersign.oldstyle" unicode="&#xe0b4;" horiz-adv-x="519" 
d="M476 364l-9 -60h-97l-29 -134h92l-10 -61h-95l-38 -173h-38l37 173h-108l-38 -173h-38l38 173h-104l10 61h108l29 134h-102l9 60h106l33 152h39l-34 -152h108l33 152h38l-32 -152h92zM332 304h-108l-28 -134h107z" />
    <glyph glyph-name="percent.oldstyle" unicode="&#xf642;" horiz-adv-x="710" 
d="M540 532l-342 -562l-31 23l341 562zM187 540h1c91 0 131 -88 131 -157s-40 -156 -132 -156c-93 0 -133 88 -133 156c0 69 41 157 133 157zM188 511h-1c-50 0 -60 -85 -60 -128c0 -41 9 -128 61 -128c51 0 59 88 59 128c0 42 -7 128 -59 128zM527 302h1
c91 0 131 -87 131 -156s-40 -157 -132 -157c-93 0 -133 88 -133 156c0 69 40 157 133 157zM528 274h-1c-50 0 -60 -86 -60 -128s10 -128 61 -128s59 87 59 127c0 43 -8 129 -59 129z" />
    <glyph glyph-name="perthousand.oldstyle" unicode="&#xf628;" horiz-adv-x="1009" 
d="M540 532l-342 -562l-31 23l341 562zM187 540h1c91 0 131 -88 131 -157s-40 -156 -132 -156c-93 0 -133 88 -133 156c0 69 41 157 133 157zM188 511h-1c-50 0 -60 -85 -60 -128c0 -41 9 -129 61 -129c51 0 59 89 59 129c0 42 -7 128 -59 128zM527 302h1
c91 0 131 -87 131 -156s-40 -157 -132 -157c-93 0 -133 88 -133 156c0 69 40 157 133 157zM528 273h-1c-50 0 -60 -85 -60 -127s10 -128 61 -128s59 87 59 127c0 43 -8 128 -59 128zM826 302h1c91 0 131 -86 131 -156c0 -69 -40 -157 -132 -157c-93 0 -133 88 -133 156
c0 69 40 157 133 157zM827 273h-1c-50 0 -60 -85 -60 -127s10 -128 61 -128s59 87 59 127c0 43 -8 128 -59 128z" />
    <glyph glyph-name="estimated.oldstyle" unicode="&#xe091;" horiz-adv-x="711" 
d="M664 257h-497c-2 0 -4 -1 -4 -3v-150c0 -7 3 -13 7 -18c47 -50 114 -81 188 -81c80 0 149 36 197 91h45c-56 -65 -144 -107 -243 -107c-169 0 -306 123 -306 276s137 275 306 275s307 -122 307 -275v-8zM551 277v151c0 7 -3 13 -8 18c-47 48 -112 78 -185 78
s-140 -32 -187 -80c-5 -5 -8 -12 -8 -19v-148c0 -2 2 -4 4 -4h381c2 0 3 2 3 4z" />
    <glyph glyph-name="zero.fitted" unicode="&#xf639;" horiz-adv-x="493" 
d="M247 635h1c149 0 202 -169 202 -323c0 -146 -53 -324 -203 -324c-151 0 -204 165 -204 323c0 146 54 324 204 324zM247 603h-1c-90 0 -114 -151 -114 -290c0 -141 27 -293 116 -293c90 0 113 152 113 292s-24 291 -114 291z" />
    <glyph glyph-name="one.fitted" unicode="&#xf6dc;" horiz-adv-x="338" 
d="M311 0h-271v25c91 8 95 17 95 88v387c0 46 -4 52 -47 56l-49 3v24c64 12 123 30 177 52v-522c0 -71 5 -80 95 -88v-25z" />
    <glyph glyph-name="two.fitted" unicode="&#xf63a;" horiz-adv-x="465" 
d="M411 139l27 -8c-13 -42 -23 -86 -35 -131h-374v21c55 55 112 113 161 171c60 72 125 154 125 244c0 83 -42 132 -117 132c-69 0 -109 -53 -135 -92l-23 19l57 81c31 34 79 59 136 59c88 0 167 -61 167 -166c0 -90 -49 -152 -134 -245l-137 -151h184c55 0 68 4 98 66z" />
    <glyph glyph-name="three.fitted" unicode="&#xf63b;" horiz-adv-x="452" 
d="M269 381v-2c87 -17 141 -81 141 -154c0 -168 -195 -237 -262 -237c-46 0 -87 22 -100 34c-14 13 -18 24 -17 37c1 12 14 25 23 32c7 6 16 7 24 0c25 -23 65 -52 122 -52c65 0 124 44 124 154c-1 92 -70 132 -127 132c-24 0 -49 -6 -64 -11l-7 25c92 30 160 69 160 143
c0 63 -41 95 -93 95c-58 0 -98 -44 -121 -80l-20 19l43 63c28 31 75 56 127 56h1c90 0 147 -56 147 -131c0 -28 -11 -49 -30 -68c-15 -15 -42 -36 -71 -55z" />
    <glyph glyph-name="four.fitted" unicode="&#xf63c;" horiz-adv-x="497" 
d="M465 179h-96v-72c0 -70 5 -74 85 -81v-26h-256v26c86 7 91 12 91 81v72h-260v27c95 141 198 291 301 426h39v-407h96v-46zM289 225v295h-2c-65 -90 -131 -185 -195 -295h197z" />
    <glyph glyph-name="five.fitted" unicode="&#xf63d;" horiz-adv-x="454" 
d="M130 550l-26 -184c42 16 89 33 115 33c128 0 193 -92 193 -174c0 -61 -28 -116 -89 -166c-54 -45 -120 -70 -173 -71c-46 0 -90 22 -104 36c-13 13 -17 24 -16 34c0 9 9 23 21 33c9 7 18 8 27 0c22 -19 63 -51 124 -51c81 -1 126 67 126 148c0 88 -53 153 -163 153
c-42 0 -82 -11 -102 -19l38 301h286l6 -8l-26 -65h-237z" />
    <glyph glyph-name="six.fitted" unicode="&#xf63e;" horiz-adv-x="495" 
d="M144 344l67 32c22 10 42 17 62 17c107 0 180 -82 180 -185c0 -120 -85 -220 -207 -220c-111 0 -203 93 -203 249c0 220 152 333 258 371c42 15 88 26 128 33l6 -30c-33 -6 -72 -18 -108 -35c-62 -29 -154 -93 -183 -232zM235 338h-1c-37 0 -70 -11 -96 -26
c-5 -20 -6 -45 -6 -72c0 -127 52 -219 132 -219c83 0 103 81 103 151c0 83 -41 166 -132 166z" />
    <glyph glyph-name="seven.fitted" unicode="&#xf63f;" horiz-adv-x="464" 
d="M430 623l8 -12c-95 -203 -189 -410 -282 -613l-76 -10l-6 11c113 179 212 367 295 551h-217c-68 0 -72 -6 -96 -72h-26c9 56 13 102 18 145h382z" />
    <glyph glyph-name="eight.fitted" unicode="&#xf640;" horiz-adv-x="475" 
d="M245 635h1c94 0 162 -66 162 -148c0 -29 -9 -58 -28 -79c-7 -10 -33 -33 -81 -65c72 -40 133 -87 133 -175c0 -116 -113 -180 -198 -180c-106 0 -192 62 -192 169c0 45 23 74 45 95c16 16 57 43 91 63c-62 33 -111 86 -111 156c0 83 71 164 178 164zM236 603h-1
c-62 0 -93 -51 -93 -100c0 -76 59 -110 130 -145c34 24 61 62 61 125c0 84 -50 120 -97 120zM244 21h1c64 0 108 45 108 123c-1 75 -74 119 -149 156c-49 -31 -82 -81 -82 -137c0 -93 57 -142 122 -142z" />
    <glyph glyph-name="nine.fitted" unicode="&#xf641;" horiz-adv-x="488" 
d="M246 635h1c124 0 197 -114 197 -249c0 -183 -101 -314 -237 -369c-52 -22 -114 -32 -140 -32l-4 28c144 24 251 126 285 278l-70 -36c-22 -11 -39 -16 -58 -16c-106 0 -179 78 -179 183c0 96 76 213 205 213zM232 602h-1c-76 0 -103 -86 -103 -145
c0 -88 49 -163 133 -163c37 0 72 16 90 31c3 24 4 46 4 65c0 86 -24 212 -123 212z" />
    <glyph glyph-name="zero.slashfitted" unicode="&#xe201;" horiz-adv-x="493" 
d="M419 648l-38 -79c50 -62 69 -163 69 -257c0 -146 -53 -324 -203 -324c-46 0 -83 15 -112 41l-35 -72l-29 19l39 80c-47 62 -67 160 -67 255c0 146 54 324 205 324c44 0 80 -15 108 -39l32 67zM148 132l180 410c-16 36 -43 59 -82 59c-89 0 -119 -136 -119 -289
c0 -65 7 -126 21 -180zM345 497l-180 -411c17 -39 44 -65 83 -65c88 0 119 138 119 291c0 61 -5 122 -22 185z" />
    <glyph glyph-name="dollar.fitted" unicode="&#xe08d;" horiz-adv-x="480" 
d="M263 363l29 -11c75 -27 142 -77 142 -167c-1 -95 -65 -161 -171 -174v-87h-35v85c-58 0 -115 15 -156 41c-6 21 -18 80 -27 131l29 9c18 -59 58 -137 154 -149v243l-36 16c-70 29 -125 76 -125 153c0 79 55 149 161 161v79h35v-76c33 0 65 -6 89 -13c15 -4 24 -6 34 -8
c6 -34 13 -71 21 -125l-28 -7c-16 58 -36 109 -116 120v-221zM228 376v209c-64 -7 -92 -55 -92 -101c0 -53 35 -86 92 -108zM263 272v-230c62 8 96 54 96 108c-1 46 -15 86 -84 117z" />
    <glyph glyph-name="cent.fitted" unicode="&#xe089;" horiz-adv-x="479" 
d="M416 220l18 -24c-41 -53 -101 -90 -149 -98v-98h-35v96c-119 3 -199 99 -199 202c0 77 39 142 93 184c36 27 76 42 106 49v84h35v-80c7 1 11 1 17 1c43 0 80 -11 102 -26c9 -7 14 -17 14 -25c0 -20 -20 -43 -36 -43c-6 0 -10 4 -16 9c-23 24 -48 37 -81 42v-334
c53 -2 90 21 131 61zM250 163v330c-52 -1 -121 -44 -121 -154c0 -116 69 -165 121 -176z" />
    <glyph glyph-name="Euro.fitted" unicode="&#xe022;" horiz-adv-x="574" 
d="M511 143l26 -12c-11 -37 -32 -93 -47 -118c-22 -8 -89 -25 -140 -25c-165 -1 -256 115 -272 266h-71l12 36h56c-2 18 0 39 2 62h-47l12 36h41c31 152 142 248 291 248c59 0 111 -19 134 -25c6 -40 11 -82 17 -123l-27 -7c-23 77 -56 121 -139 121
c-102 0 -167 -89 -186 -214h327l-13 -36h-318c-2 -24 -3 -42 -1 -62h301l-13 -36h-284c19 -149 86 -230 184 -230c75 0 116 49 155 119z" />
    <glyph glyph-name="florin.fitted" unicode="&#xe09e;" horiz-adv-x="480" 
d="M188 370l8 45c15 84 45 138 95 182c53 47 90 55 113 55c24 0 58 -21 58 -44c0 -16 -22 -49 -38 -41c-17 11 -44 33 -72 33c-17 0 -31 -12 -40 -31c-11 -22 -22 -55 -39 -199h112v-39h-118l-31 -203c-20 -134 -65 -191 -116 -229c-37 -28 -65 -37 -87 -37
c-27 0 -55 21 -55 37c0 17 24 49 35 49c10 0 40 -30 70 -30c21 0 34 10 41 35c8 23 18 73 32 188l26 190h-89l1 39h94z" />
    <glyph glyph-name="sterling.fitted" unicode="&#xe0dc;" horiz-adv-x="482" 
d="M372 295h-170v-23c0 -69 -32 -123 -86 -173c36 0 71 -11 108 -27c41 -19 84 -38 120 -38c37 0 58 18 58 46c0 12 -4 24 -7 32c-4 7 -3 14 2 22c11 15 24 26 36 26c14 0 24 -22 24 -41c0 -45 -40 -91 -77 -115c-27 -18 -56 -31 -91 -31c-40 0 -89 27 -134 53
c-30 18 -50 24 -63 24c-11 0 -28 -8 -41 -43c-3 -8 -6 -12 -12 -12c-13 0 -30 19 -12 48c9 16 30 38 47 58c34 37 42 94 42 135c0 26 -2 44 -3 59h-88v38h83c-2 25 -5 53 -5 82c0 66 21 125 83 175c30 26 75 45 104 45c45 0 86 -26 97 -41c7 -11 8 -20 3 -31
c-3 -7 -11 -17 -19 -23s-18 -6 -27 2c-24 21 -52 41 -94 41c-48 0 -71 -31 -71 -95c0 -45 10 -101 19 -155h174v-38z" />
    <glyph glyph-name="yen.fitted" unicode="&#xe100;" horiz-adv-x="480" 
d="M473 623v-27c-53 -6 -62 -18 -92 -71c-22 -38 -54 -100 -99 -198h134v-36h-141v-30v-48h141v-36h-141v-69c0 -67 6 -75 90 -80v-28h-257v28c83 5 89 13 89 80v69h-141v36h141v42c0 13 0 23 -1 36h-140v36h129c-24 57 -53 119 -93 199c-29 58 -38 64 -86 70v27h207v-27
l-28 -5c-28 -4 -33 -11 -25 -32c20 -50 68 -149 96 -211c26 51 73 158 87 198c10 29 10 39 -22 45l-31 5v27h183z" />
    <glyph glyph-name="colonmonetary.fitted" unicode="&#xe08a;" horiz-adv-x="568" 
d="M505 159l25 -10c-10 -41 -29 -94 -43 -124c-22 -7 -95 -25 -152 -25l-11 -66h-32l12 68c-22 1 -41 5 -60 10l-14 -78h-33l16 89c-123 46 -176 166 -176 281c0 177 116 303 278 319l12 66h31l-10 -65h7c18 0 35 -2 54 -4l12 69h31l-12 -75c25 -5 46 -11 66 -14
c7 -44 12 -85 17 -121l-27 -7c-15 45 -32 81 -64 97l-89 -536c79 4 121 47 162 126zM310 36l92 546c-19 6 -39 9 -61 9l-90 -538c17 -9 35 -15 59 -17zM221 70l88 519c-120 -14 -178 -131 -178 -272c0 -112 34 -202 90 -247z" />
    <glyph glyph-name="franc.fitted" unicode="&#xe0a0;" horiz-adv-x="483" 
d="M450 481l-29 -3c-10 42 -16 64 -31 81c-15 21 -37 31 -94 31h-62c-28 0 -31 -3 -31 -30v-216c83 0 150 3 213 10v-57c-64 7 -130 8 -213 10v-116h145v-35h-145v-36c0 -80 6 -88 94 -93v-27h-255v27c71 5 80 16 80 93v36h-88v35h88v310c0 77 -7 90 -80 95v27h398
c1 -33 6 -94 10 -142z" />
    <glyph glyph-name="lira.fitted" unicode="&#xe0a6;" horiz-adv-x="486" 
d="M364 241h-160c-8 -55 -38 -99 -84 -142c34 0 70 -10 107 -27c43 -20 84 -38 120 -38c37 0 57 20 57 43c0 12 -2 24 -5 33c-4 7 -4 15 1 22c11 15 25 28 38 28c14 0 22 -22 22 -41c0 -45 -39 -90 -77 -115c-27 -18 -61 -31 -95 -31c-40 0 -84 27 -131 53
c-31 17 -49 22 -61 22s-27 -6 -41 -41c-2 -9 -6 -12 -12 -12c-13 0 -31 18 -13 47c9 16 31 39 49 59c35 38 41 91 41 140h-91v36h90c-3 21 -6 42 -8 67h-82v35h79c-1 12 -1 23 -1 36c0 66 21 126 83 175c31 26 75 45 103 45c46 0 86 -26 97 -41c8 -11 8 -20 4 -31
c-4 -7 -11 -16 -19 -22s-18 -6 -27 3c-24 21 -52 40 -93 40c-48 0 -71 -32 -71 -96c0 -35 4 -72 10 -109h170v-35h-164c4 -24 6 -46 7 -67h157v-36z" />
    <glyph glyph-name="numbersign.fitted" unicode="&#xe0b3;" horiz-adv-x="482" 
d="M460 454l-9 -58h-97l-30 -137h92l-10 -58h-95l-38 -174h-38l37 174h-108l-38 -174h-38l38 174h-104l10 58h108l29 137h-101l9 58h105l34 154h38l-34 -154h108l33 154h39l-33 -154h93zM316 396h-108l-29 -137h107z" />
    <glyph glyph-name="zero.taboldstyle" unicode="&#xf643;" horiz-adv-x="486" 
d="M243 453h1c117 0 200 -94 201 -231c0 -150 -97 -234 -201 -234c-116 0 -203 89 -203 230s88 235 202 235zM243 412h-1c-68 0 -122 -74 -122 -192c0 -122 58 -191 123 -191c71 0 123 73 123 191c0 122 -56 192 -123 192z" />
    <glyph glyph-name="one.taboldstyle" unicode="&#xf644;" horiz-adv-x="486" 
d="M403 0h-308v28l64 6c46 4 51 13 51 63v222c0 52 -4 60 -42 63l-62 3v26c73 11 124 24 183 42v-356c0 -50 5 -58 54 -63l60 -6v-28z" />
    <glyph glyph-name="two.taboldstyle" unicode="&#xf645;" horiz-adv-x="486" 
d="M443 118l-27 -118h-357v21c87 64 234 163 234 273c0 50 -26 98 -94 98c-54 0 -92 -54 -113 -82l-21 19l50 72c36 36 77 52 119 52c91 0 144 -62 144 -141c0 -57 -31 -93 -67 -125c-27 -28 -71 -65 -132 -118v-2h161c48 0 56 10 78 53z" />
    <glyph glyph-name="three.taboldstyle" unicode="&#xf646;" horiz-adv-x="486" 
d="M269 214v-3c82 -14 132 -78 132 -145c0 -161 -189 -229 -244 -229c-36 0 -67 16 -83 30c-14 13 -17 24 -12 38c3 8 10 18 20 26c8 7 17 6 26 -1c22 -20 55 -43 100 -43c56 0 110 46 110 144c0 90 -65 125 -113 125c-21 0 -41 -4 -58 -10l-8 24c92 37 142 80 142 141
c0 58 -36 86 -81 86s-77 -37 -98 -66l-19 18l42 58c25 27 63 46 107 46h1c78 0 128 -51 128 -125c0 -25 -10 -47 -28 -64c-14 -14 -37 -32 -64 -50z" />
    <glyph glyph-name="four.taboldstyle" unicode="&#xf647;" horiz-adv-x="486" 
d="M460 91l-10 -55h-84v-193h-79v193h-256v36c92 123 197 262 293 381h42v-362h94zM287 91v259h-2c-65 -84 -127 -170 -189 -259h191z" />
    <glyph glyph-name="five.taboldstyle" unicode="&#xf648;" horiz-adv-x="486" 
d="M164 362l-20 -108c114 -1 248 -43 248 -185c0 -62 -30 -116 -87 -159c-65 -49 -160 -72 -221 -73l-4 30c35 5 230 38 230 186c0 110 -114 132 -211 133l37 246l255 21l-14 -72z" />
    <glyph glyph-name="six.taboldstyle" unicode="&#xf649;" horiz-adv-x="486" 
d="M426 606l6 -31c-45 -10 -90 -31 -126 -59c-85 -48 -134 -121 -154 -179l58 24c30 12 52 18 63 18c94 0 171 -68 171 -179c0 -121 -88 -212 -203 -212c-97 0 -195 73 -195 236c0 166 115 290 252 347c44 18 88 29 128 35zM222 323h-1c-23 0 -50 -8 -77 -21
c-7 -28 -7 -49 -7 -72c0 -131 55 -207 124 -207c49 0 98 36 98 132c0 75 -28 168 -137 168z" />
    <glyph glyph-name="seven.taboldstyle" unicode="&#xf64a;" horiz-adv-x="486" 
d="M436 442l9 -12c-46 -82 -178 -321 -314 -579l-75 -14l-8 12c118 165 236 364 321 519h-310v74h377z" />
    <glyph glyph-name="eight.taboldstyle" unicode="&#xf64b;" horiz-adv-x="486" 
d="M249 606h1c91 0 154 -61 154 -143c0 -27 -9 -52 -26 -72c-11 -12 -34 -34 -74 -64c62 -38 125 -79 125 -164c0 -115 -106 -175 -190 -175c-102 0 -182 58 -182 160c0 45 21 73 42 93c15 14 52 40 86 61c-56 30 -104 75 -104 146c0 81 69 158 168 158zM244 575h-1
c-58 0 -88 -48 -88 -96c0 -72 60 -104 124 -138c25 21 52 57 52 122c0 81 -48 112 -87 112zM249 19h1c55 0 99 38 99 117c-1 73 -68 113 -139 150c-49 -35 -74 -83 -74 -131c0 -90 57 -136 113 -136z" />
    <glyph glyph-name="nine.taboldstyle" unicode="&#xf64c;" horiz-adv-x="486" 
d="M244 453h1c130 0 189 -116 189 -232c0 -194 -124 -302 -253 -353c-35 -13 -102 -29 -149 -31l-4 27c111 20 250 89 304 244l-37 -16c-36 -17 -64 -21 -81 -21c-81 0 -165 66 -165 174c0 130 103 208 195 208zM226 420h-1c-57 0 -92 -66 -92 -138c0 -107 66 -159 135 -159
c30 0 54 10 70 18c6 20 8 37 8 74c0 68 -16 205 -120 205z" />
    <glyph glyph-name="dollar.taboldstyle" unicode="&#xf653;" horiz-adv-x="486" 
d="M262 265l20 -6c79 -25 141 -55 141 -134c0 -73 -67 -127 -161 -135v-73h-33v72c-73 1 -122 25 -141 35c-5 16 -17 60 -27 119l29 5c18 -46 59 -118 139 -125v170l-28 9c-70 22 -121 53 -121 119c0 68 54 124 149 132v65h33v-63c31 0 66 -5 115 -20c6 -27 14 -55 21 -107
l-28 -8c-18 45 -43 95 -108 102v-157zM229 274v148c-55 -4 -81 -34 -81 -72c0 -40 31 -63 81 -76zM262 184v-162c53 5 86 29 86 76c0 37 -15 63 -86 86z" />
    <glyph glyph-name="cent.taboldstyle" unicode="&#xf654;" horiz-adv-x="486" 
d="M418 138l18 -21c-36 -50 -92 -84 -141 -93v-93h-34v91c-124 5 -197 96 -197 193c0 74 36 139 96 181c35 25 70 38 101 44v80h34v-75h12c46 -1 77 -11 99 -25c9 -7 14 -17 14 -26c0 -20 -17 -39 -33 -39c-4 0 -9 3 -14 8c-23 26 -51 41 -78 44v-325c42 0 83 16 123 56z
M261 85v322c-44 -2 -118 -42 -118 -153c0 -106 63 -157 118 -169z" />
    <glyph glyph-name="Euro.taboldstyle" unicode="&#xf64e;" horiz-adv-x="486" 
d="M437 127l27 -11c-10 -37 -26 -86 -38 -107c-19 -7 -73 -21 -116 -21c-152 0 -217 100 -233 219h-62l14 36h45c0 20 1 38 3 56h-45l14 36h37c26 126 122 206 244 206c53 0 96 -17 115 -22c6 -39 8 -71 13 -114l-26 -6c-19 64 -42 108 -115 108c-76 0 -126 -69 -143 -172
h261l-14 -36h-250c-1 -18 -3 -34 0 -56h233l-14 -36h-216c14 -110 65 -185 144 -185c62 0 90 43 122 105z" />
    <glyph glyph-name="florin.taboldstyle" unicode="&#xf64f;" horiz-adv-x="486" 
d="M192 305l8 40c14 73 42 128 92 171c46 41 81 48 104 48s54 -17 54 -40c0 -18 -24 -51 -39 -43c-15 9 -40 32 -62 32c-16 0 -27 -7 -35 -23c-12 -20 -23 -85 -36 -185h105v-38h-112l-19 -127c-18 -121 -53 -197 -121 -251c-35 -29 -62 -36 -83 -36c-26 0 -54 19 -54 41
s22 45 34 45c9 0 36 -31 65 -31c18 0 27 10 34 24c12 21 26 88 38 175l21 160h-80v38h86z" />
    <glyph glyph-name="sterling.taboldstyle" unicode="&#xf651;" horiz-adv-x="486" 
d="M350 248h-151v-11c-1 -58 -34 -110 -78 -149c38 3 76 -1 123 -23c34 -17 70 -31 99 -31c28 0 45 20 45 41c0 9 -3 20 -5 27c-4 7 -3 14 1 20c11 16 28 26 39 26c12 0 21 -18 21 -35c0 -35 -31 -83 -72 -110c-27 -17 -60 -29 -89 -29c-36 0 -78 24 -123 49
c-26 13 -41 21 -59 21c-15 0 -28 -12 -38 -39c-4 -8 -9 -11 -15 -11c-12 0 -29 17 -13 43c7 14 24 35 39 51c32 35 39 82 39 116c0 19 -1 33 -3 44h-76v37h72c-2 15 -3 38 -3 59c0 52 27 112 82 154c33 26 75 42 103 42c41 0 77 -20 89 -37c8 -11 7 -22 3 -31
c-3 -6 -10 -15 -18 -22c-8 -6 -17 -5 -26 2c-24 22 -54 41 -87 41c-54 0 -68 -47 -68 -88c0 -34 10 -77 15 -120h154v-37z" />
    <glyph glyph-name="yen.taboldstyle" unicode="&#xf652;" horiz-adv-x="486" 
d="M460 532v-26c-47 -6 -59 -18 -85 -59c-21 -33 -48 -77 -93 -161h126v-35h-133v-25v-46h133v-35h-133v-51c0 -52 7 -63 83 -68v-26h-244v26c79 5 82 18 82 69v50h-135v35h135v40c0 11 1 21 0 31h-135v35h124c-23 43 -53 100 -89 163c-26 45 -41 52 -81 57v26h197v-27
l-27 -4c-23 -4 -28 -10 -19 -27c17 -34 61 -118 90 -171c24 45 65 124 80 159c10 24 8 33 -21 39l-27 4v27h172z" />
    <glyph glyph-name="colonmonetary.taboldstyle" unicode="&#xf64d;" horiz-adv-x="488" 
d="M436 135l25 -8c-9 -37 -24 -88 -37 -115c-20 -6 -80 -22 -124 -22l-10 -58h-30l9 60c-19 1 -34 4 -49 8l-12 -68h-32l13 77c-109 43 -152 144 -152 250c0 162 106 266 240 280l10 58h31l-10 -58h7c15 0 29 -1 45 -3l10 62h31l-12 -67c19 -5 40 -10 53 -13
c7 -40 12 -75 15 -113l-25 -5c-13 47 -27 73 -49 88l-77 -466c68 5 91 38 130 113zM275 25l79 474c-17 6 -32 8 -51 9l-78 -469c15 -7 29 -12 50 -14zM197 56l75 450c-92 -14 -141 -113 -141 -241c0 -106 27 -177 66 -209z" />
    <glyph glyph-name="franc.taboldstyle" unicode="&#xe0a2;" horiz-adv-x="486" 
d="M440 404l-29 -4c-9 34 -16 55 -26 69c-13 18 -27 25 -87 25h-57c-25 0 -28 -2 -28 -25v-170c75 0 141 3 196 9v-54c-57 6 -122 6 -196 8v-93h121v-35h-121v-30c0 -67 8 -71 88 -77v-27h-243v27c67 5 75 9 75 77v30h-78v35h78v252c0 66 -7 76 -75 80v28h374
c0 -28 4 -80 8 -125z" />
    <glyph glyph-name="lira.taboldstyle" unicode="&#xe0a8;" horiz-adv-x="486" 
d="M353 191h-159c-10 -33 -35 -72 -73 -103c38 3 76 -1 124 -23c34 -16 72 -31 100 -31s43 20 43 41c0 9 -2 21 -5 27c-3 7 -2 15 1 21c11 16 28 26 39 26s22 -18 22 -35c0 -35 -32 -84 -73 -111c-27 -17 -57 -29 -87 -29c-36 0 -80 24 -124 48c-26 14 -42 23 -60 23
c-15 0 -27 -13 -37 -40c-4 -8 -10 -11 -16 -11c-12 0 -29 17 -12 43c7 14 24 35 39 52c27 31 36 71 38 102h-81v36h81c0 17 -2 36 -5 58h-77v35h74c0 8 -1 16 -1 29c0 47 25 107 82 150c32 26 75 42 104 42c39 0 76 -20 87 -36c8 -13 7 -23 4 -32c-3 -6 -10 -16 -18 -22
c-9 -6 -18 -6 -27 1c-24 23 -54 40 -86 40c-55 0 -68 -46 -68 -88c0 -30 7 -68 10 -84h163v-35h-160c4 -26 5 -43 4 -58h154v-36z" />
    <glyph glyph-name="numbersign.taboldstyle" unicode="&#xf650;" horiz-adv-x="486" 
d="M448 364l-9 -60h-90l-29 -134h85l-10 -61h-89l-37 -173h-39l38 173h-109l-37 -173h-39l39 173h-97l10 61h101l28 134h-93l9 60h98l33 152h38l-33 -152h107l33 152h39l-32 -152h85zM311 304h-108l-29 -134h108z" />
    <glyph glyph-name="a.superior" unicode="&#xf6e9;" horiz-adv-x="305" 
d="M295 302l-63 -33c-25 2 -39 20 -45 39c-26 -17 -58 -39 -77 -39c-45 0 -77 39 -77 76c0 28 16 49 48 61s83 28 105 44v10c0 32 -19 55 -50 55c-23 0 -38 -22 -47 -53c-4 -11 -11 -15 -21 -15c-14 0 -32 13 -32 28c0 11 8 20 21 28c16 12 59 36 97 42c57 0 89 -30 89 -88
v-108c0 -27 11 -34 21 -34c7 0 15 2 24 6zM186 332v91c-13 -7 -45 -20 -62 -27c-20 -11 -29 -20 -29 -40c0 -28 22 -44 44 -44c19 0 37 11 47 20z" />
    <glyph glyph-name="b.superior" unicode="&#xf6ea;" horiz-adv-x="349" 
d="M124 522l48 19c8 3 16 4 24 4c69 0 126 -55 126 -125c0 -91 -78 -151 -163 -151c-32 0 -58 6 -95 21v324c0 35 -1 37 -46 42v19c33 4 75 13 106 22v-175zM124 500v-152c0 -9 1 -16 4 -22c5 -11 22 -29 49 -30c42 0 78 40 78 108s-41 105 -91 105c-16 0 -29 -3 -40 -9z
" />
    <glyph glyph-name="d.superior" unicode="&#xf6eb;" horiz-adv-x="355" 
d="M338 316v-21c-24 -3 -71 -13 -110 -26v33l-44 -25c-9 -4 -19 -8 -29 -8c-54 0 -128 41 -128 131c0 81 69 145 165 145c10 0 24 -1 36 -6v74c0 35 -2 37 -49 42v20c40 5 82 15 109 22v-349c0 -26 4 -29 21 -30zM228 329v157c-12 21 -35 32 -58 32c-21 0 -76 -15 -76 -105
c0 -73 47 -103 84 -103c20 0 35 8 50 19z" />
    <glyph glyph-name="e.superior" unicode="&#xf6ec;" horiz-adv-x="292" 
d="M164 545h1c54 0 98 -43 99 -97c0 -14 -4 -22 -17 -24c-10 -2 -89 -7 -161 -10c1 -66 46 -96 95 -96c20 0 46 10 69 29l13 -15c-40 -52 -87 -63 -107 -63c-83 0 -129 60 -129 131c0 83 67 145 137 145zM90 442l97 3c10 0 14 3 14 15c0 29 -21 60 -50 60h-1
c-23 0 -55 -27 -60 -78z" />
    <glyph glyph-name="egrave.superior" unicode="&#xe090;" horiz-adv-x="292" 
d="M182 579l-23 -9c-29 36 -63 74 -81 97l2 5c6 3 49 10 59 8c12 -26 30 -71 43 -101zM164 545h1c54 0 98 -43 99 -97c0 -14 -4 -22 -17 -24c-10 -2 -89 -7 -161 -10c1 -66 46 -96 95 -96c20 0 46 10 69 29l13 -15c-40 -52 -87 -63 -107 -63c-83 0 -129 60 -129 131
c0 83 67 145 137 145zM90 442l97 3c10 0 14 3 14 15c0 29 -21 60 -50 60h-1c-23 0 -55 -27 -60 -78z" />
    <glyph glyph-name="g.superior" unicode="&#xe0a3;" horiz-adv-x="306" 
d="M306 538l4 -5c-6 -10 -19 -30 -28 -35l-36 2c11 -13 18 -30 18 -51c0 -65 -59 -99 -117 -99c-10 0 -21 1 -31 3c-8 -5 -19 -16 -19 -25c0 -11 11 -21 38 -21c24 0 51 1 72 1c41 0 92 -16 92 -76c0 -64 -80 -122 -164 -122c-72 0 -116 38 -117 75c0 14 6 26 16 35
c13 13 41 30 56 41c-26 7 -42 22 -51 36c-5 9 -7 20 -7 26c26 9 50 25 59 37c-28 12 -59 40 -59 82c0 72 71 103 120 103c22 0 48 -5 68 -16c30 2 62 6 86 9zM146 523h-1c-25 0 -49 -26 -49 -71c0 -47 22 -80 57 -80c27 0 50 22 50 71c0 37 -16 80 -57 80zM160 258h-1
c-28 0 -44 -4 -55 -14c-16 -13 -30 -27 -30 -45c0 -31 40 -57 85 -57c57 0 89 30 89 68c0 20 -11 34 -28 41c-17 6 -38 7 -60 7z" />
    <glyph glyph-name="h.superior" unicode="&#xf637;" horiz-adv-x="372" 
d="M350 277h-144v22c38 6 41 9 41 44v100c0 38 -21 61 -57 61c-26 0 -47 -14 -62 -26v-135c0 -35 4 -38 39 -44v-22h-147v22c45 6 49 9 49 43v273c0 36 -3 36 -50 42v20c38 4 78 14 109 22v-195l36 23c20 13 36 20 55 20c53 0 88 -37 88 -92v-112c0 -35 2 -38 43 -44v-22z
" />
    <glyph glyph-name="i.superior" unicode="&#xf6ed;" horiz-adv-x="194" 
d="M94 690h1c23 0 41 -19 41 -42s-18 -40 -42 -40c-22 0 -42 17 -42 40s20 42 42 42zM178 277h-158v21c46 7 50 10 50 44v123c0 33 -2 35 -44 40v20c33 4 71 14 101 22h2v-205c0 -34 3 -37 49 -44v-21z" />
    <glyph glyph-name="l.superior" unicode="&#xf6ee;" horiz-adv-x="192" 
d="M176 277h-160v22c47 7 50 9 50 43v272c0 36 -2 37 -51 42v20c38 5 79 14 111 22v-356c0 -34 3 -36 50 -43v-22z" />
    <glyph glyph-name="m.superior" unicode="&#xf6ef;" horiz-adv-x="543" 
d="M519 277h-143v21c38 7 41 9 41 45v98c0 41 -21 63 -55 63c-22 0 -39 -11 -60 -28v-16v-117c0 -35 4 -38 40 -45v-21h-140v21c38 7 41 10 41 45v98c0 40 -20 63 -55 63c-25 0 -42 -14 -60 -27v-134c0 -35 5 -38 38 -45v-21h-148v21c47 7 51 10 51 45v118
c0 36 -2 37 -44 44v19c33 5 68 13 101 22l2 1v-44l36 23c23 15 38 21 55 21c36 0 64 -20 77 -49l37 26c23 16 42 23 58 23c50 0 86 -35 86 -95v-109c0 -35 3 -38 42 -45v-21z" />
    <glyph glyph-name="n.superior" unicode="&#x207f;" horiz-adv-x="371" 
d="M349 277h-143v21c38 6 41 9 41 44v101c0 38 -21 62 -57 62c-26 0 -46 -16 -61 -29v-134c0 -35 5 -38 39 -44v-21h-148v21c46 6 50 9 50 43v120c0 36 -3 37 -42 44v19c32 5 66 13 99 22l2 1v-45l34 24c22 14 37 21 56 21c52 0 87 -33 87 -93v-112c0 -35 3 -38 43 -44v-21z
" />
    <glyph glyph-name="o.superior" unicode="&#xf6f0;" horiz-adv-x="334" 
d="M167 545h1c80 0 138 -61 138 -134c-1 -92 -74 -142 -138 -142c-90 0 -142 68 -141 134c0 97 82 142 140 142zM160 518h-1c-30 0 -62 -33 -63 -99c0 -73 34 -122 76 -122c36 0 64 28 65 99c0 70 -29 122 -77 122z" />
    <glyph glyph-name="r.superior" unicode="&#xf6f1;" horiz-adv-x="262" 
d="M128 486h2c20 31 37 44 48 52c5 5 15 9 23 9c23 0 43 -16 43 -32c0 -19 -13 -34 -20 -39s-15 -5 -20 0c-9 7 -19 14 -30 14c-12 0 -28 -9 -46 -42v-105c0 -35 3 -38 55 -45v-21h-163v21c46 7 50 10 50 45v118c0 36 -2 36 -44 44v19c33 4 74 14 101 22l1 1v-61z" />
    <glyph glyph-name="s.superior" unicode="&#xf6f2;" horiz-adv-x="265" 
d="M221 465l-20 -5c-17 37 -38 61 -66 61s-42 -18 -42 -35c0 -22 23 -34 57 -47c53 -20 85 -41 85 -83c0 -62 -61 -86 -111 -86c-34 0 -69 13 -83 23c-4 11 -10 50 -10 77l21 3c14 -41 44 -78 80 -78c23 0 45 14 45 39c0 22 -20 36 -59 51c-42 17 -77 38 -77 79
c0 42 35 82 103 82c22 0 45 -6 62 -12c7 -14 14 -49 15 -69z" />
    <glyph glyph-name="t.superior" unicode="&#xf6f3;" horiz-adv-x="228" 
d="M209 300l-49 -24c-11 -4 -20 -7 -28 -7c-39 0 -65 25 -65 73v165h-44l-1 12l21 20h24v39l48 46l11 -3v-82h74c6 -6 5 -26 -4 -32h-70v-139c0 -49 23 -57 36 -57s25 4 40 11z" />
    <glyph glyph-name="zero.superior" unicode="&#x2070;" horiz-adv-x="341" 
d="M170 760h1c100 0 136 -99 136 -183c0 -83 -36 -183 -137 -183s-136 100 -136 183c0 84 35 183 136 183zM171 732h-1c-46 0 -64 -75 -64 -155c0 -69 15 -154 65 -154c49 0 64 82 64 154c0 74 -16 155 -64 155z" />
    <glyph glyph-name="one.superior" unicode="&#xb9;" horiz-adv-x="341" 
d="M273 402h-196v23c54 4 66 10 66 59v178c0 37 -3 42 -38 44l-29 2v23c44 5 86 15 132 29v-276c0 -49 11 -53 65 -59v-23z" />
    <glyph glyph-name="two.superior" unicode="&#xb2;" horiz-adv-x="341" 
d="M284 498l22 -8c-10 -32 -17 -61 -23 -88h-243v22c56 45 171 132 171 213c0 50 -30 73 -67 73s-65 -28 -85 -55l-17 18l32 43c23 29 59 45 97 45c56 0 110 -38 110 -107c0 -48 -31 -86 -106 -152l-52 -46v-2h91c39 0 50 4 70 44z" />
    <glyph glyph-name="three.superior" unicode="&#xb3;" horiz-adv-x="341" 
d="M206 614v-2c53 -9 87 -40 87 -83c0 -92 -126 -135 -168 -135c-30 0 -56 12 -68 21c-11 9 -14 19 -11 29c3 9 10 17 18 23c6 5 13 5 20 -1c18 -13 46 -33 76 -33c36 0 65 22 65 75c0 47 -39 67 -77 67c-16 0 -29 -3 -41 -7l-7 25c60 19 100 41 100 78c0 25 -19 46 -53 46
c-31 0 -60 -28 -75 -50l-16 16l29 41c17 18 52 36 86 36h1c58 0 95 -34 95 -76c0 -17 -7 -32 -19 -41c-10 -9 -24 -19 -42 -29z" />
    <glyph glyph-name="four.superior" unicode="&#x2074;" horiz-adv-x="341" 
d="M311 500h-59v-28c0 -40 11 -44 55 -47v-23h-180v23c54 4 64 7 64 47v28h-162v24c59 79 123 162 185 237h38v-223h59v-38zM191 538v148h-2c-38 -47 -70 -91 -109 -148h111z" />
    <glyph glyph-name="five.superior" unicode="&#x2075;" horiz-adv-x="341" 
d="M117 701l-17 -91c25 9 56 17 72 17c80 0 120 -46 120 -95c0 -36 -20 -70 -56 -97c-35 -25 -79 -41 -110 -41c-29 0 -57 12 -69 22c-10 9 -11 17 -9 27c3 9 10 18 18 24c8 5 14 4 22 -2c14 -11 44 -31 74 -31c37 0 65 25 65 73c0 42 -34 77 -94 77c-31 0 -53 -6 -69 -11
l27 180h184l-11 -52h-147z" />
    <glyph glyph-name="six.superior" unicode="&#x2076;" horiz-adv-x="341" 
d="M114 607l34 16c14 7 28 11 39 11c76 0 118 -48 118 -112c0 -70 -57 -128 -135 -128c-72 0 -135 54 -135 145c0 116 88 183 162 205c35 11 61 14 87 19l5 -26c-22 -4 -47 -11 -72 -22c-35 -16 -86 -47 -103 -108zM161 595h-1c-21 0 -39 -8 -51 -14c-3 -10 -4 -22 -4 -40
c0 -70 29 -119 75 -119c42 0 59 39 59 81c0 55 -29 92 -78 92z" />
    <glyph glyph-name="seven.superior" unicode="&#x2077;" horiz-adv-x="341" 
d="M297 753l4 -7c-56 -115 -113 -231 -168 -347l-54 -4l-6 9c64 97 120 198 173 298h-131c-32 0 -36 -8 -49 -42h-25c6 41 10 68 14 93h242z" />
    <glyph glyph-name="eight.superior" unicode="&#x2078;" horiz-adv-x="341" 
d="M175 761h1c60 0 107 -39 107 -86c0 -17 -7 -35 -19 -48c-6 -6 -19 -17 -42 -32c36 -19 77 -43 77 -96c0 -70 -73 -105 -132 -105c-69 0 -125 37 -125 97c0 29 15 45 28 57c9 9 31 23 47 32c-30 15 -62 42 -62 83c0 52 47 98 120 98zM168 734h-1c-34 0 -54 -24 -54 -51
c0 -37 35 -58 85 -77c16 11 30 35 30 63c0 43 -31 65 -60 65zM172 422h1c35 0 64 21 65 60c-1 40 -33 58 -97 86c-26 -15 -41 -43 -41 -72c0 -44 36 -74 72 -74z" />
    <glyph glyph-name="nine.superior" unicode="&#x2079;" horiz-adv-x="341" 
d="M172 760h1c79 0 128 -64 128 -149c0 -93 -57 -164 -146 -200c-35 -14 -77 -18 -99 -18l-4 23c95 17 159 72 177 142l-41 -19c-13 -6 -24 -9 -35 -9c-70 0 -115 47 -115 105s48 125 134 125zM163 733h-1c-38 0 -58 -38 -58 -78c0 -46 29 -84 76 -84c20 0 39 6 51 14
c1 11 1 22 1 35c0 49 -14 113 -69 113z" />
    <glyph glyph-name="period.superior" unicode="&#xf6e8;" horiz-adv-x="178" 
d="M88 392h-1c-27 0 -49 20 -49 52c0 29 22 52 50 52c30 0 51 -23 51 -52c0 -31 -21 -52 -51 -52z" />
    <glyph glyph-name="comma.superior" unicode="&#xf6e2;" horiz-adv-x="177" 
d="M69 513h1c32 0 77 -33 77 -87c0 -65 -53 -97 -111 -112l-9 25c38 15 65 36 65 66c0 27 -23 45 -48 51c-8 1 -14 10 -14 25c0 20 20 32 39 32z" />
    <glyph glyph-name="dollar.superior" unicode="&#xf6e4;" horiz-adv-x="341" 
d="M188 613l20 -6c57 -18 104 -40 104 -100c0 -62 -53 -103 -124 -109v-57h-29v56c-54 0 -94 19 -109 28c-3 13 -12 44 -20 92l23 5c13 -39 49 -89 106 -96v130l-19 6c-61 18 -96 47 -96 97c0 51 40 93 115 100v50h29v-48c19 -1 43 -4 88 -16c5 -21 11 -43 17 -85l-24 -5
c-13 37 -34 72 -81 78v-120zM159 621v112c-42 -4 -62 -26 -62 -54c0 -29 19 -48 62 -58zM188 549v-123c48 3 65 27 65 57c0 29 -10 49 -65 66z" />
    <glyph glyph-name="cent.superior" unicode="&#xf6e0;" horiz-adv-x="341" 
d="M297 517l13 -19c-28 -36 -69 -59 -103 -64v-66h-30v64c-91 3 -145 67 -145 138c0 53 27 96 64 123c27 20 57 31 81 35v56h30v-52h10c30 0 54 -7 72 -17c6 -5 9 -13 9 -21c0 -15 -15 -29 -27 -29c-4 0 -6 1 -12 6c-20 16 -35 26 -52 28v-221c31 1 59 11 90 39zM177 481
v219c-32 -1 -82 -28 -82 -104c0 -78 48 -107 82 -115z" />
    <glyph glyph-name="hyphen.superior" unicode="&#xf6e6;" horiz-adv-x="259" 
d="M223 539h-187v50h187v-50z" />
    <glyph glyph-name="parenleft.superior" unicode="&#x207d;" horiz-adv-x="245" 
d="M209 305l-16 -20c-103 61 -149 167 -149 275v1c0 107 48 213 149 274l16 -20c-59 -50 -98 -150 -98 -255s39 -205 98 -255z" />
    <glyph glyph-name="parenright.superior" unicode="&#x207e;" horiz-adv-x="245" 
d="M200 560v-1c0 -107 -47 -213 -149 -274l-15 20c59 50 98 150 98 255s-40 205 -98 255l15 20c104 -61 149 -167 149 -275z" />
    <glyph glyph-name="zero.inferior" unicode="&#x2080;" horiz-adv-x="341" 
d="M170 255h1c100 0 136 -99 136 -183c0 -83 -36 -183 -137 -183s-136 100 -136 183c0 84 35 183 136 183zM171 227h-1c-46 0 -64 -75 -64 -155c0 -69 15 -154 65 -154c49 0 64 82 64 154c0 74 -16 155 -64 155z" />
    <glyph glyph-name="one.inferior" unicode="&#x2081;" horiz-adv-x="341" 
d="M273 -103h-196v23c54 4 66 10 66 59v178c0 37 -3 42 -38 44l-29 2v23c44 5 86 15 132 29v-276c0 -49 11 -53 65 -59v-23z" />
    <glyph glyph-name="two.inferior" unicode="&#x2082;" horiz-adv-x="341" 
d="M284 -7l22 -8c-10 -32 -17 -61 -23 -88h-243v22c56 45 171 132 171 213c0 50 -30 73 -67 73s-65 -28 -85 -55l-17 18l32 43c23 29 59 45 97 45c56 0 110 -38 110 -107c0 -48 -31 -86 -106 -152l-52 -46v-2h91c39 0 50 4 70 44z" />
    <glyph glyph-name="three.inferior" unicode="&#x2083;" horiz-adv-x="341" 
d="M206 109v-2c53 -9 87 -40 87 -83c0 -92 -126 -135 -168 -135c-30 0 -56 12 -68 21c-11 9 -14 19 -11 29c3 9 10 17 18 23c6 5 13 5 20 -1c18 -13 46 -33 76 -33c36 0 65 22 65 75c0 47 -39 67 -77 67c-16 0 -29 -3 -41 -7l-7 25c60 19 100 41 100 78c0 25 -19 46 -53 46
c-31 0 -60 -28 -75 -50l-16 16l29 41c17 18 52 36 86 36h1c58 0 95 -34 95 -76c0 -17 -7 -32 -19 -41c-10 -9 -24 -19 -42 -29z" />
    <glyph glyph-name="four.inferior" unicode="&#x2084;" horiz-adv-x="341" 
d="M311 -5h-59v-28c0 -40 11 -44 55 -47v-23h-180v23c54 4 64 7 64 47v28h-162v24c59 79 123 162 185 237h38v-223h59v-38zM191 33v148h-2c-38 -47 -70 -91 -109 -148h111z" />
    <glyph glyph-name="five.inferior" unicode="&#x2085;" horiz-adv-x="341" 
d="M117 196l-17 -91c25 9 56 17 72 17c80 0 120 -46 120 -95c0 -36 -20 -70 -56 -97c-35 -25 -79 -41 -110 -41c-29 0 -57 12 -69 22c-10 9 -11 17 -9 27c3 9 10 18 18 24c8 5 14 4 22 -2c14 -11 44 -31 74 -31c37 0 65 25 65 73c0 42 -34 77 -94 77c-31 0 -53 -6 -69 -11
l27 180h184l-11 -52h-147z" />
    <glyph glyph-name="six.inferior" unicode="&#x2086;" horiz-adv-x="341" 
d="M114 102l34 16c14 7 28 11 39 11c76 0 118 -48 118 -112c0 -70 -57 -128 -135 -128c-72 0 -135 54 -135 145c0 116 88 183 162 205c35 11 61 14 87 19l5 -26c-22 -4 -47 -11 -72 -22c-35 -16 -86 -47 -103 -108zM161 90h-1c-21 0 -39 -8 -51 -14c-3 -10 -4 -22 -4 -40
c0 -70 29 -119 75 -119c42 0 59 39 59 81c0 55 -29 92 -78 92z" />
    <glyph glyph-name="seven.inferior" unicode="&#x2087;" horiz-adv-x="341" 
d="M297 248l4 -7c-56 -115 -113 -231 -168 -347l-54 -4l-6 9c64 97 120 198 173 298h-131c-32 0 -36 -8 -49 -42h-25c6 41 10 68 14 93h242z" />
    <glyph glyph-name="eight.inferior" unicode="&#x2088;" horiz-adv-x="341" 
d="M175 256h1c60 0 107 -39 107 -86c0 -17 -7 -35 -19 -48c-6 -6 -19 -17 -42 -32c36 -19 77 -43 77 -96c0 -70 -73 -105 -132 -105c-69 0 -125 37 -125 97c0 29 15 45 28 57c9 9 31 23 47 32c-30 15 -62 42 -62 83c0 52 47 98 120 98zM168 229h-1c-34 0 -54 -24 -54 -51
c0 -37 35 -58 85 -77c16 11 30 35 30 63c0 43 -31 65 -60 65zM172 -83h1c35 0 64 21 65 60c-1 40 -33 58 -97 86c-26 -15 -41 -43 -41 -72c0 -44 36 -74 72 -74z" />
    <glyph glyph-name="nine.inferior" unicode="&#x2089;" horiz-adv-x="341" 
d="M172 255h1c79 0 128 -64 128 -149c0 -93 -57 -164 -146 -200c-35 -14 -77 -18 -99 -18l-4 23c95 17 159 72 177 142l-41 -19c-13 -6 -24 -9 -35 -9c-70 0 -115 47 -115 105s48 125 134 125zM163 228h-1c-38 0 -58 -38 -58 -78c0 -46 29 -84 76 -84c20 0 39 6 51 14
c1 11 1 22 1 35c0 49 -14 113 -69 113z" />
    <glyph glyph-name="period.inferior" unicode="&#xf6e7;" horiz-adv-x="178" 
d="M88 -113h-1c-27 0 -49 20 -49 52c0 29 22 52 50 52c30 0 51 -23 51 -52c0 -31 -21 -52 -51 -52z" />
    <glyph glyph-name="comma.inferior" unicode="&#xf6e1;" horiz-adv-x="177" 
d="M69 8h1c32 0 77 -33 77 -87c0 -65 -53 -97 -111 -112l-9 25c38 15 65 36 65 66c0 27 -23 45 -48 51c-8 1 -14 10 -14 25c0 20 20 32 39 32z" />
    <glyph glyph-name="dollar.inferior" unicode="&#xf6e3;" horiz-adv-x="341" 
d="M188 108l20 -6c57 -18 104 -40 104 -100c0 -62 -53 -103 -124 -109v-57h-29v56c-54 0 -94 19 -109 28c-3 13 -12 44 -20 92l23 5c13 -39 49 -89 106 -96v130l-19 6c-61 18 -96 47 -96 97c0 51 40 93 115 100v50h29v-48c19 -1 43 -4 88 -16c5 -21 11 -43 17 -85l-24 -5
c-13 37 -34 72 -81 78v-120zM159 116v112c-42 -4 -62 -26 -62 -54c0 -29 19 -48 62 -58zM188 44v-123c48 3 65 27 65 57c0 29 -10 49 -65 66z" />
    <glyph glyph-name="cent.inferior" unicode="&#xf6df;" horiz-adv-x="341" 
d="M297 12l13 -19c-28 -36 -69 -59 -103 -64v-66h-30v64c-91 3 -145 67 -145 138c0 53 27 96 64 123c27 20 57 31 81 35v56h30v-52h10c30 0 54 -7 72 -17c6 -5 9 -13 9 -21c0 -15 -15 -29 -27 -29c-4 0 -6 1 -12 6c-20 16 -35 26 -52 28v-221c31 1 59 11 90 39zM177 -24v219
c-32 -1 -82 -28 -82 -104c0 -78 48 -107 82 -115z" />
    <glyph glyph-name="hyphen.inferior" unicode="&#xf6e5;" horiz-adv-x="259" 
d="M223 34h-187v50h187v-50z" />
    <glyph glyph-name="parenleft.inferior" unicode="&#x208d;" horiz-adv-x="245" 
d="M209 -200l-16 -20c-103 61 -149 167 -149 275v1c0 107 48 213 149 274l16 -20c-59 -50 -98 -150 -98 -255s39 -205 98 -255z" />
    <glyph glyph-name="parenright.inferior" unicode="&#x208e;" horiz-adv-x="245" 
d="M200 55v-1c0 -107 -47 -213 -149 -274l-15 20c59 50 98 150 98 255s-40 205 -98 255l15 20c104 -61 149 -167 149 -275z" />
    <glyph glyph-name="zero.numerator" unicode="&#xf661;" horiz-adv-x="341" 
d="M170 635h1c100 0 136 -99 136 -183c0 -83 -36 -183 -137 -183s-136 100 -136 183c0 84 35 183 136 183zM171 607h-1c-46 0 -64 -75 -64 -155c0 -69 15 -154 65 -154c49 0 64 82 64 154c0 74 -16 155 -64 155z" />
    <glyph glyph-name="one.numerator" unicode="&#xf662;" horiz-adv-x="341" 
d="M273 277h-196v23c54 4 66 10 66 59v178c0 37 -3 42 -38 44l-29 2v23c44 5 86 15 132 29v-276c0 -49 11 -53 65 -59v-23z" />
    <glyph glyph-name="two.numerator" unicode="&#xf663;" horiz-adv-x="341" 
d="M284 373l22 -8c-10 -32 -17 -61 -23 -88h-243v22c56 45 171 132 171 213c0 50 -30 73 -67 73s-65 -28 -85 -55l-17 18l32 43c23 29 59 45 97 45c56 0 110 -38 110 -107c0 -48 -31 -86 -106 -152l-52 -46v-2h91c39 0 50 4 70 44z" />
    <glyph glyph-name="three.numerator" unicode="&#xf664;" horiz-adv-x="341" 
d="M206 489v-2c53 -9 87 -40 87 -83c0 -92 -126 -135 -168 -135c-30 0 -56 12 -68 21c-11 9 -14 19 -11 29c3 9 10 17 18 23c6 5 13 5 20 -1c18 -13 46 -33 76 -33c36 0 65 22 65 75c0 47 -39 67 -77 67c-16 0 -29 -3 -41 -7l-7 25c60 19 100 41 100 78c0 25 -19 46 -53 46
c-31 0 -60 -28 -75 -50l-16 16l29 41c17 18 52 36 86 36h1c58 0 95 -34 95 -76c0 -17 -7 -32 -19 -41c-10 -9 -24 -19 -42 -29z" />
    <glyph glyph-name="four.numerator" unicode="&#xf665;" horiz-adv-x="341" 
d="M311 375h-59v-28c0 -40 11 -44 55 -47v-23h-180v23c54 4 64 7 64 47v28h-162v24c59 79 123 162 185 237h38v-223h59v-38zM191 413v148h-2c-38 -47 -70 -91 -109 -148h111z" />
    <glyph glyph-name="five.numerator" unicode="&#xf666;" horiz-adv-x="341" 
d="M117 576l-17 -91c25 9 56 17 72 17c80 0 120 -46 120 -95c0 -36 -20 -70 -56 -97c-35 -25 -79 -41 -110 -41c-29 0 -57 12 -69 22c-10 9 -11 17 -9 27c3 9 10 18 18 24c8 5 14 4 22 -2c14 -11 44 -31 74 -31c37 0 65 25 65 73c0 42 -34 77 -94 77c-31 0 -53 -6 -69 -11
l27 180h184l-11 -52h-147z" />
    <glyph glyph-name="six.numerator" unicode="&#xf667;" horiz-adv-x="341" 
d="M114 482l34 16c14 7 28 11 39 11c76 0 118 -48 118 -112c0 -70 -57 -128 -135 -128c-72 0 -135 54 -135 145c0 116 88 183 162 205c35 11 61 14 87 19l5 -26c-22 -4 -47 -11 -72 -22c-35 -16 -86 -47 -103 -108zM161 470h-1c-21 0 -39 -8 -51 -14c-3 -10 -4 -22 -4 -40
c0 -70 29 -119 75 -119c42 0 59 39 59 81c0 55 -29 92 -78 92z" />
    <glyph glyph-name="seven.numerator" unicode="&#xf668;" horiz-adv-x="341" 
d="M297 628l4 -7c-56 -115 -113 -231 -168 -347l-54 -4l-6 9c64 97 120 198 173 298h-131c-32 0 -36 -8 -49 -42h-25c6 41 10 68 14 93h242z" />
    <glyph glyph-name="eight.numerator" unicode="&#xf669;" horiz-adv-x="341" 
d="M175 636h1c60 0 107 -39 107 -86c0 -17 -7 -35 -19 -48c-6 -6 -19 -17 -42 -32c36 -19 77 -43 77 -96c0 -70 -73 -105 -132 -105c-69 0 -125 37 -125 97c0 29 15 45 28 57c9 9 31 23 47 32c-30 15 -62 42 -62 83c0 52 47 98 120 98zM168 609h-1c-34 0 -54 -24 -54 -51
c0 -37 35 -58 85 -77c16 11 30 35 30 63c0 43 -31 65 -60 65zM172 297h1c35 0 64 21 65 60c-1 40 -33 58 -97 86c-26 -15 -41 -43 -41 -72c0 -44 36 -74 72 -74z" />
    <glyph glyph-name="nine.numerator" unicode="&#xf66a;" horiz-adv-x="341" 
d="M172 635h1c79 0 128 -64 128 -149c0 -93 -57 -164 -146 -200c-35 -14 -77 -18 -99 -18l-4 23c95 17 159 72 177 142l-41 -19c-13 -6 -24 -9 -35 -9c-70 0 -115 47 -115 105s48 125 134 125zM163 608h-1c-38 0 -58 -38 -58 -78c0 -46 29 -84 76 -84c20 0 39 6 51 14
c1 11 1 22 1 35c0 49 -14 113 -69 113z" />
    <glyph glyph-name="period.numerator" unicode="&#xf66c;" horiz-adv-x="178" 
d="M88 267h-1c-27 0 -49 20 -49 52c0 29 22 52 50 52c30 0 51 -23 51 -52c0 -31 -21 -52 -51 -52z" />
    <glyph glyph-name="comma.numerator" unicode="&#xf66b;" horiz-adv-x="177" 
d="M69 388h1c32 0 77 -33 77 -87c0 -65 -53 -97 -111 -112l-9 25c38 15 65 36 65 66c0 27 -23 45 -48 51c-8 1 -14 10 -14 25c0 20 20 32 39 32z" />
    <glyph glyph-name="dollar.numerator" unicode="&#xf62f;" horiz-adv-x="341" 
d="M188 488l20 -6c57 -18 104 -40 104 -100c0 -62 -53 -103 -124 -109v-57h-29v56c-54 0 -94 19 -109 28c-3 13 -12 44 -20 92l23 5c13 -39 49 -89 106 -96v130l-19 6c-61 18 -96 47 -96 97c0 51 40 93 115 100v50h29v-48c19 -1 43 -4 88 -16c5 -21 11 -43 17 -85l-24 -5
c-13 37 -34 72 -81 78v-120zM159 496v112c-42 -4 -62 -26 -62 -54c0 -29 19 -48 62 -58zM188 424v-123c48 3 65 27 65 57c0 29 -10 49 -65 66z" />
    <glyph glyph-name="cent.numerator" unicode="&#xf62e;" horiz-adv-x="341" 
d="M297 392l13 -19c-28 -36 -69 -59 -103 -64v-66h-30v64c-91 3 -145 67 -145 138c0 53 27 96 64 123c27 20 57 31 81 35v56h30v-52h10c30 0 54 -7 72 -17c6 -5 9 -13 9 -21c0 -15 -15 -29 -27 -29c-4 0 -6 1 -12 6c-20 16 -35 26 -52 28v-221c31 1 59 11 90 39zM177 356
v219c-32 -1 -82 -28 -82 -104c0 -78 48 -107 82 -115z" />
    <glyph glyph-name="hyphen.numerator" unicode="&#xf630;" horiz-adv-x="259" 
d="M223 414h-187v50h187v-50z" />
    <glyph glyph-name="parenleft.numerator" unicode="&#xf631;" horiz-adv-x="245" 
d="M209 180l-16 -20c-103 61 -149 167 -149 275v1c0 107 48 213 149 274l16 -20c-59 -50 -98 -150 -98 -255s39 -205 98 -255z" />
    <glyph glyph-name="parenright.numerator" unicode="&#xf632;" horiz-adv-x="245" 
d="M200 435v-1c0 -107 -47 -213 -149 -274l-15 20c59 50 98 150 98 255s-40 205 -98 255l15 20c104 -61 149 -167 149 -275z" />
    <glyph glyph-name="zero.denominator" unicode="&#xf655;" horiz-adv-x="341" 
d="M170 358h1c100 0 136 -99 136 -183c0 -83 -36 -183 -137 -183s-136 100 -136 183c0 84 35 183 136 183zM171 330h-1c-46 0 -64 -75 -64 -155c0 -69 15 -154 65 -154c49 0 64 82 64 154c0 74 -16 155 -64 155z" />
    <glyph glyph-name="one.denominator" unicode="&#xf656;" horiz-adv-x="341" 
d="M273 0h-196v23c54 4 66 10 66 59v178c0 37 -3 42 -38 44l-29 2v23c44 5 86 15 132 29v-276c0 -49 11 -53 65 -59v-23z" />
    <glyph glyph-name="two.denominator" unicode="&#xf657;" horiz-adv-x="341" 
d="M284 96l22 -8c-10 -32 -17 -61 -23 -88h-243v22c56 45 171 132 171 213c0 50 -30 73 -67 73s-65 -28 -85 -55l-17 18l32 43c23 29 59 45 97 45c56 0 110 -38 110 -107c0 -48 -31 -86 -106 -152l-52 -46v-2h91c39 0 50 4 70 44z" />
    <glyph glyph-name="three.denominator" unicode="&#xf658;" horiz-adv-x="341" 
d="M206 212v-2c53 -9 87 -40 87 -83c0 -92 -126 -135 -168 -135c-30 0 -56 12 -68 21c-11 9 -14 19 -11 29c3 9 10 17 18 23c6 5 13 5 20 -1c18 -13 46 -33 76 -33c36 0 65 22 65 75c0 47 -39 67 -77 67c-16 0 -29 -3 -41 -7l-7 25c60 19 100 41 100 78c0 25 -19 46 -53 46
c-31 0 -60 -28 -75 -50l-16 16l29 41c17 18 52 36 86 36h1c58 0 95 -34 95 -76c0 -17 -7 -32 -19 -41c-10 -9 -24 -19 -42 -29z" />
    <glyph glyph-name="four.denominator" unicode="&#xf659;" horiz-adv-x="341" 
d="M311 98h-59v-28c0 -40 11 -44 55 -47v-23h-180v23c54 4 64 7 64 47v28h-162v24c59 79 123 162 185 237h38v-223h59v-38zM191 136v148h-2c-38 -47 -70 -91 -109 -148h111z" />
    <glyph glyph-name="five.denominator" unicode="&#xf65a;" horiz-adv-x="341" 
d="M117 299l-17 -91c25 9 56 17 72 17c80 0 120 -46 120 -95c0 -36 -20 -70 -56 -97c-35 -25 -79 -41 -110 -41c-29 0 -57 12 -69 22c-10 9 -11 17 -9 27c3 9 10 18 18 24c8 5 14 4 22 -2c14 -11 44 -31 74 -31c37 0 65 25 65 73c0 42 -34 77 -94 77c-31 0 -53 -6 -69 -11
l27 180h184l-11 -52h-147z" />
    <glyph glyph-name="six.denominator" unicode="&#xf65b;" horiz-adv-x="341" 
d="M114 205l34 16c14 7 28 11 39 11c76 0 118 -48 118 -112c0 -70 -57 -128 -135 -128c-72 0 -135 54 -135 145c0 116 88 183 162 205c35 11 61 14 87 19l5 -26c-22 -4 -47 -11 -72 -22c-35 -16 -86 -47 -103 -108zM161 193h-1c-21 0 -39 -8 -51 -14c-3 -10 -4 -22 -4 -40
c0 -70 29 -119 75 -119c42 0 59 39 59 81c0 55 -29 92 -78 92z" />
    <glyph glyph-name="seven.denominator" unicode="&#xf65c;" horiz-adv-x="341" 
d="M297 351l4 -7c-56 -115 -113 -231 -168 -347l-54 -4l-6 9c64 97 120 198 173 298h-131c-32 0 -36 -8 -49 -42h-25c6 41 10 68 14 93h242z" />
    <glyph glyph-name="eight.denominator" unicode="&#xf65d;" horiz-adv-x="341" 
d="M175 359h1c60 0 107 -39 107 -86c0 -17 -7 -35 -19 -48c-6 -6 -19 -17 -42 -32c36 -19 77 -43 77 -96c0 -70 -73 -105 -132 -105c-69 0 -125 37 -125 97c0 29 15 45 28 57c9 9 31 23 47 32c-30 15 -62 42 -62 83c0 52 47 98 120 98zM168 332h-1c-34 0 -54 -24 -54 -51
c0 -37 35 -58 85 -77c16 11 30 35 30 63c0 43 -31 65 -60 65zM172 20h1c35 0 64 21 65 60c-1 40 -33 58 -97 86c-26 -15 -41 -43 -41 -72c0 -44 36 -74 72 -74z" />
    <glyph glyph-name="nine.denominator" unicode="&#xf65e;" horiz-adv-x="341" 
d="M172 358h1c79 0 128 -64 128 -149c0 -93 -57 -164 -146 -200c-35 -14 -77 -18 -99 -18l-4 23c95 17 159 72 177 142l-41 -19c-13 -6 -24 -9 -35 -9c-70 0 -115 47 -115 105s48 125 134 125zM163 331h-1c-38 0 -58 -38 -58 -78c0 -46 29 -84 76 -84c20 0 39 6 51 14
c1 11 1 22 1 35c0 49 -14 113 -69 113z" />
    <glyph glyph-name="period.denominator" unicode="&#xf660;" horiz-adv-x="178" 
d="M88 -10h-1c-27 0 -49 20 -49 52c0 29 22 52 50 52c30 0 51 -23 51 -52c0 -31 -21 -52 -51 -52z" />
    <glyph glyph-name="comma.denominator" unicode="&#xf65f;" horiz-adv-x="177" 
d="M69 111h1c32 0 77 -33 77 -87c0 -65 -53 -97 -111 -112l-9 25c38 15 65 36 65 66c0 27 -23 45 -48 51c-8 1 -14 10 -14 25c0 20 20 32 39 32z" />
    <glyph glyph-name="dollar.denominator" unicode="&#xf62a;" horiz-adv-x="341" 
d="M188 211l20 -6c57 -18 104 -40 104 -100c0 -62 -53 -103 -124 -109v-57h-29v56c-54 0 -94 19 -109 28c-3 13 -12 44 -20 92l23 5c13 -39 49 -89 106 -96v130l-19 6c-61 18 -96 47 -96 97c0 51 40 93 115 100v50h29v-48c19 -1 43 -4 88 -16c5 -21 11 -43 17 -85l-24 -5
c-13 37 -34 72 -81 78v-120zM159 219v112c-42 -4 -62 -26 -62 -54c0 -29 19 -48 62 -58zM188 147v-123c48 3 65 27 65 57c0 29 -10 49 -65 66z" />
    <glyph glyph-name="cent.denominator" unicode="&#xf629;" horiz-adv-x="341" 
d="M297 115l13 -19c-28 -36 -69 -59 -103 -64v-66h-30v64c-91 3 -145 67 -145 138c0 53 27 96 64 123c27 20 57 31 81 35v56h30v-52h10c30 0 54 -7 72 -17c6 -5 9 -13 9 -21c0 -15 -15 -29 -27 -29c-4 0 -6 1 -12 6c-20 16 -35 26 -52 28v-221c31 1 59 11 90 39zM177 79v219
c-32 -1 -82 -28 -82 -104c0 -78 48 -107 82 -115z" />
    <glyph glyph-name="hyphen.denominator" unicode="&#xf62b;" horiz-adv-x="259" 
d="M223 137h-187v50h187v-50z" />
    <glyph glyph-name="parenleft.denominator" unicode="&#xf62c;" horiz-adv-x="245" 
d="M209 -97l-16 -20c-103 61 -149 167 -149 275v1c0 107 48 213 149 274l16 -20c-59 -50 -98 -150 -98 -255s39 -205 98 -255z" />
    <glyph glyph-name="parenright.denominator" unicode="&#xf62d;" horiz-adv-x="245" 
d="M200 158v-1c0 -107 -47 -213 -149 -274l-15 20c59 50 98 150 98 255s-40 205 -98 255l15 20c104 -61 149 -167 149 -275z" />
    <glyph glyph-name="orn.001" unicode="&#xe0b5;" horiz-adv-x="974" 
d="M684 420l-3 2c-8 -3 -27 -11 -53 -18c-31 -8 -66 -16 -114 -16c-78 0 -180 36 -180 101c0 30 34 105 186 105c78 0 173 -37 200 -132c27 37 45 82 45 138c0 50 -21 93 -54 112c-13 7 -13 15 -3 25c9 6 24 15 38 21c12 5 23 4 36 -4c29 -18 51 -60 51 -110
c0 -77 -30 -137 -86 -210c108 -4 170 -95 170 -201c0 -76 -46 -135 -104 -135c-66 0 -124 64 -124 166c0 57 14 99 26 131l-2 2c-57 -76 -188 -159 -278 -209l2 -2c22 6 37 8 61 8c52 0 79 -36 79 -77c0 -108 -149 -232 -324 -232c-100 0 -191 53 -191 175
c0 94 93 268 256 268c59 0 76 -41 76 -64c0 -32 -9 -52 -31 -79l3 -3c37 24 52 32 133 85c72 47 142 97 185 153zM563 429h1c53 0 89 10 118 25c-15 60 -81 105 -164 105c-71 0 -104 -25 -104 -56c0 -49 78 -74 149 -74zM837 154h1c24 0 40 28 40 64c4 87 -59 172 -132 183
c-6 -18 -8 -39 -8 -73c0 -113 51 -174 99 -174zM515 86c0 43 -20 73 -71 73c-27 0 -60 -6 -104 -42c-45 -38 -63 -63 -69 -82c-4 -13 -14 -21 -26 -21c-17 0 -31 2 -36 4c-9 6 -12 12 -11 23c1 15 12 40 38 63c17 15 40 30 50 36c7 5 16 11 29 24c10 14 24 39 24 71
c0 27 -11 56 -57 56c-75 0 -146 -93 -146 -196c0 -98 68 -160 173 -160c133 0 206 91 206 151z" />
    <glyph glyph-name="orn.002" unicode="&#xe0b6;" horiz-adv-x="1124" 
d="M1057 110h10c-16 -39 -42 -46 -57 -46c-12 0 -23 3 -33 8c-17 0 -84 -15 -133 -29c-58 -17 -128 -29 -183 -29c-80 0 -129 46 -129 102c0 41 22 69 60 87l35 4l4 -4c-15 -19 -23 -44 -23 -62c0 -32 14 -82 119 -82c71 0 175 30 229 51c-19 23 -29 63 -43 110
c-26 83 -68 205 -164 205c-62 0 -70 -44 -70 -72c0 -30 19 -60 38 -76c9 -3 20 -7 34 -11c63 -20 106 -48 122 -83c6 -10 0 -16 -4 -19c-6 -3 -27 -12 -43 -14c-12 0 -14 0 -19 8c-10 15 -30 38 -62 56c-48 28 -104 47 -343 67c-26 2 -54 6 -75 9l-3 -3
c49 -25 50 -79 50 -93c0 -99 -79 -157 -145 -199c-20 -13 -33 -22 -47 -42c-13 -26 -38 -33 -69 -40c11 27 -1 100 -6 129c-6 27 -13 51 -13 84c0 62 29 139 160 169v4c-95 11 -194 41 -194 141c0 38 30 102 120 115c9 0 15 -10 10 -18c-31 -21 -43 -46 -43 -84
c0 -71 50 -99 136 -117c4 12 9 31 13 60c6 47 15 109 58 163c41 50 101 68 149 70c17 1 40 10 52 13c34 -27 47 -76 47 -114c0 -101 -59 -185 -235 -202v-2c24 -5 50 -8 77 -10c114 -11 194 -21 228 -32l1 2c-22 22 -37 48 -37 75c0 61 53 107 123 107
c139 0 192 -157 237 -284c20 -57 49 -72 61 -72zM332 348l1 -2c80 12 204 40 204 166c0 34 -11 65 -28 86c-97 -4 -118 -69 -154 -202c-7 -26 -17 -42 -23 -48zM305 198v1c0 26 -6 57 -27 76c-102 -15 -113 -104 -113 -148c0 -18 2 -43 8 -72c4 -23 7 -44 7 -59
c52 35 125 103 125 202z" />
    <glyph glyph-name="orn.003" unicode="&#xe0b7;" horiz-adv-x="1133" 
d="M634 478h3c2 14 8 35 8 69c0 62 -47 176 -204 176c-140 0 -309 -122 -309 -356c0 -228 161 -440 423 -440c199 0 453 134 453 442c0 120 -51 215 -120 267c-20 15 -41 23 -47 26c9 18 30 33 49 33c72 0 183 -113 183 -285c0 -265 -220 -541 -552 -541
c-316 0 -462 240 -462 440c0 278 211 460 421 460c173 0 213 -125 213 -186c0 -63 -16 -91 -29 -117l4 -2c33 37 69 67 129 67c79 0 117 -66 117 -121c0 -100 -68 -181 -133 -231c-102 -78 -211 -93 -235 -93c-35 0 -44 11 -44 30h-2c-14 -35 -53 -68 -113 -68
c-51 0 -90 34 -90 83c0 15 4 33 17 48c10 12 20 10 20 -5c0 -27 33 -81 83 -81c8 0 47 3 47 45c0 48 -21 71 -69 147c-35 57 -62 109 -62 149c0 116 100 157 160 157c91 0 126 -66 141 -113zM843 371v1c0 61 -25 108 -87 108c-74 0 -95 -82 -99 -113c-3 -17 -9 -22 -16 -27
c-9 -9 -36 -19 -46 -22c-11 -5 -14 4 -14 8c1 11 5 28 5 73c0 81 -46 154 -119 154c-59 0 -70 -42 -70 -76c0 -41 23 -85 61 -146c44 -71 59 -104 59 -144c0 -14 -2 -32 -7 -43c15 -4 30 -8 47 -8c181 0 286 123 286 235z" />
    <glyph glyph-name="orn.004" unicode="&#xe0b8;" horiz-adv-x="957" 
d="M335 249v4c-21 10 -37 31 -37 60c0 56 81 162 205 162c91 0 152 -56 213 -113c76 -71 132 -124 185 -119c-2 -17 -20 -40 -40 -50c-9 -4 -21 -7 -31 -6c-8 1 -26 -9 -42 -19c-20 -12 -55 -34 -142 -99c-62 -46 -131 -83 -196 -83c-74 0 -121 48 -121 103
c0 28 10 67 59 103l-1 2h-167c-59 0 -101 2 -127 20c-25 16 -38 43 -38 71c0 35 24 77 64 103l15 -9c-9 -10 -17 -28 -17 -52c0 -60 54 -78 169 -78h49zM483 247h134c25 0 25 -5 19 -14c-6 -10 -9 -11 -22 -23c-14 -14 -36 -16 -75 -16h-57c-71 0 -96 -39 -96 -66
c0 -32 16 -79 97 -79c101 0 165 58 297 165c-26 19 -65 56 -122 109c-81 75 -121 108 -196 108c-74 0 -106 -49 -106 -98c0 -36 17 -86 127 -86z" />
    <glyph glyph-name="orn.005" unicode="&#xe0b9;" horiz-adv-x="457" 
d="M54 223v1c0 133 97 260 272 260c26 0 59 -5 68 -7c11 -3 17 -14 2 -19c-31 -12 -124 -84 -124 -235c0 -150 93 -222 124 -235c13 -5 11 -14 1 -19c-9 -2 -32 -6 -59 -6c-175 0 -284 126 -284 260zM144 223v-1c0 -165 117 -221 182 -221c-57 48 -109 100 -109 222
c0 121 53 180 102 221c-64 0 -175 -55 -175 -221z" />
    <glyph glyph-name="orn.006" unicode="&#xe0ba;" horiz-adv-x="603" 
d="M376 493h1c63 0 116 -14 143 -34c9 -7 11 -15 -4 -21c-68 -24 -142 -115 -142 -224c0 -110 74 -201 142 -226c15 -6 13 -13 4 -20c-27 -20 -84 -33 -146 -33c-157 0 -310 103 -310 279c0 175 153 279 312 279zM130 214v-1c0 -101 59 -207 166 -223c14 -3 16 6 7 14
c-35 29 -100 95 -100 210c0 114 65 181 100 210c9 7 7 16 -7 13c-107 -16 -166 -123 -166 -223z" />
    <glyph glyph-name="orn.007" unicode="&#xe0bb;" horiz-adv-x="623" 
d="M178 342v3c-27 26 -48 66 -48 110c0 52 21 104 65 142c39 34 82 51 122 51c50 0 77 -37 77 -67c0 -32 -27 -47 -43 -50c-11 -2 -15 0 -16 7c-7 36 -24 63 -65 63c-42 0 -78 -33 -78 -99c0 -45 20 -92 53 -122c38 46 85 68 141 68c84 0 171 -71 174 -196
c3 -106 -66 -221 -153 -276c-16 -12 -25 -16 -38 -34c-15 -22 -41 -37 -66 -37c-29 0 -55 23 -55 52c0 25 23 41 35 41c6 0 9 -5 13 -11c5 -11 19 -23 35 -23c22 0 42 20 42 51c0 47 -35 80 -91 80c-42 0 -72 -14 -89 -24c-8 -5 -15 -7 -25 -7c-60 0 -109 72 -109 141
c0 60 44 132 119 137zM490 239v1c0 84 -38 154 -128 154c-36 0 -72 -16 -94 -50c44 -55 70 -76 92 -95c54 -44 86 -86 94 -142c22 27 36 77 36 132z" />
    <glyph glyph-name="orn.008" unicode="&#xe0bc;" horiz-adv-x="830" 
d="M130 130l-16 -9c-26 22 -60 63 -60 115c0 66 44 102 87 102c36 0 57 -24 80 -52c22 -27 36 -35 49 -35c17 0 41 37 56 91c14 52 34 102 95 100c80 -1 132 -94 161 -135c41 -55 67 -63 85 -63c26 0 44 17 44 36c0 11 -2 22 -6 28c-4 7 1 15 10 11c35 -14 56 -43 56 -76
c0 -30 -26 -71 -92 -80c-45 -6 -41 -1 -130 -83c-27 -26 -79 -61 -123 -61c-77 0 -97 65 -119 131c-7 22 -17 31 -34 43c-11 8 -32 25 -43 35c-16 14 -38 24 -62 24c-42 0 -59 -31 -59 -61c0 -25 10 -50 21 -61zM453 278h-1c-38 0 -68 -14 -89 -39c-9 -13 -8 -18 0 -30
c21 -24 51 -39 90 -39s85 20 120 44c11 7 11 13 0 21c-35 24 -81 43 -120 43z" />
    </font>
</defs>
</svg>
