<?xml version="1.0" standalone="no"?>
<!DOCTYPE svg PUBLIC "-//W3C//DTD SVG 1.1//EN" "http://www.w3.org/Graphics/SVG/1.1/DTD/svg11.dtd" >
<svg xmlns="http://www.w3.org/2000/svg" xmlns:xlink="http://www.w3.org/1999/xlink" version="1.1">
<metadata></metadata>
<defs>
<font id="cadillac_serifregular" horiz-adv-x="1007" >
<font-face units-per-em="2048" ascent="1434" descent="-614" />
<missing-glyph horiz-adv-x="376" />
<glyph unicode="&#xfb01;" horiz-adv-x="1136" d="M59 836v73h140v47q0 174 71 283q50 73 128.5 113.5t176.5 40.5q119 0 209 -47.5t90 -100.5q0 -37 -27 -69.5t-59 -32.5q-18 0 -32 11.5t-39 47.5q-45 66 -81 92.5t-85 26.5q-91 0 -132.5 -76.5t-41.5 -226.5v-109h325q152 0 256 11v-768q0 -76 54 -95q23 -8 65 -20v-37 q-108 6 -200 6q-9 0 -213 -6v37l116 41v676q0 82 -73 82h-330v-684q0 -53 20.5 -73.5t98.5 -41.5v-37q-34 0 -102 3t-103 3q-33 0 -104.5 -3t-104.5 -3v37l117 41v758h-140z" />
<glyph unicode="&#xfb02;" horiz-adv-x="1157" d="M59 836v73h140q0 235 110.5 359.5t288.5 124.5q55 0 168.5 -11.5t155.5 -11.5q37 0 57 2v-1220q0 -40 12 -62.5t41 -32.5q18 -6 66 -20v-37q-108 6 -201 6q-9 0 -213 -6v37l117 41v1190q-77 51 -183 51q-119 0 -182 -96q-59 -91 -59 -262v-52h225l-12 -73h-213v-684 q0 -53 20.5 -73.5t98.5 -41.5v-37q-34 0 -102 3t-103 3q-33 0 -104.5 -3t-104.5 -3v37l117 41v758h-140z" />
<glyph unicode="&#xfb03;" horiz-adv-x="1718" d="M59 836v73h140v37q0 211 110 324q108 108 287 108q93 0 170 -27t119 -69q105 111 272 111q119 0 209 -47.5t90 -100.5q0 -37 -27 -69.5t-59 -32.5q-19 0 -33 11.5t-39 47.5q-45 66 -81 92.5t-84 26.5q-175 0 -175 -303v-109h326q152 0 256 11v-768q0 -40 12 -62.5 t41 -32.5q18 -6 66 -20v-37q-108 6 -201 6q-9 0 -213 -6v37l117 41v676q0 82 -74 82h-330v-684q0 -53 20.5 -73.5t98.5 -41.5v-37q-34 0 -102 3t-103 3q-33 0 -104 -3t-104 -3v37l116 41v758h-403v-684q0 -53 20.5 -73.5t98.5 -41.5v-37q-34 0 -102 3t-103 3 q-33 0 -104.5 -3t-104.5 -3v37l117 41v758h-140zM377 909h403v47q0 108 27 191q-43 75 -100 117.5t-123 42.5q-102 0 -154.5 -76t-52.5 -225v-97z" />
<glyph unicode="&#xfb04;" horiz-adv-x="1738" d="M59 836v73h140v37q0 211 110 324q108 108 287 108q98 0 178 -30.5t121 -75.5q109 121 285 121q55 0 168 -11.5t155 -11.5q38 0 58 2v-1220q0 -40 12 -62.5t41 -32.5q23 -8 65 -20v-37q-108 6 -200 6q-9 0 -213 -6v37l116 41v1190q-77 51 -182 51q-119 0 -182 -96 q-60 -92 -60 -262v-52h236l-16 -73h-220v-684q0 -53 20.5 -73.5t98.5 -41.5v-37q-34 0 -102 3t-103 3q-33 0 -104 -3t-104 -3v37l116 41v758h-403v-684q0 -53 20.5 -73.5t98.5 -41.5v-37q-34 0 -102 3t-103 3q-33 0 -104.5 -3t-104.5 -3v37l117 41v758h-140zM377 909h403 q0 128 35 224q-43 81 -102.5 127.5t-128.5 46.5q-102 0 -154.5 -76t-52.5 -225v-97z" />
<glyph horiz-adv-x="0" />
<glyph horiz-adv-x="0" />
<glyph horiz-adv-x="682" />
<glyph unicode="&#xd;" horiz-adv-x="376" />
<glyph unicode=" "  horiz-adv-x="376" />
<glyph unicode="&#x09;" horiz-adv-x="376" />
<glyph unicode="&#xa0;" horiz-adv-x="376" />
<glyph unicode="!" horiz-adv-x="471" d="M129 74q0 44 31 74t76 30q44 0 75 -30t31 -74t-31 -74.5t-75 -30.5t-75.5 30.5t-31.5 74.5zM141 1167q-5 65 17.5 104.5t77.5 39.5q52 0 73.5 -39.5t16.5 -104.5l-68 -829h-47z" />
<glyph unicode="&#x22;" horiz-adv-x="610" d="M72 1194q0 117 90 117t90 -117q0 -48 -33 -185.5t-39 -199.5h-37q-6 61 -38.5 198t-32.5 187zM358 1194q0 117 91 117q90 0 90 -117q0 -48 -33 -185.5t-39 -199.5h-37q-6 61 -39 198t-33 187z" />
<glyph unicode="#" d="M8 369l27 108h207l67 322h-209l25 108h209l86 404h119l-84 -404h213l86 404h118l-84 -404h211l-26 -108h-209l-68 -322h211l-24 -108h-209l-82 -400h-121l82 400h-213l-82 -400h-121l82 400h-211zM362 477h213l68 322h-213z" />
<glyph unicode="$" d="M113 969q0 145 95.5 236.5t260.5 103.5v182h80v-182q129 -11 213.5 -95t103.5 -223l-98 -22q-10 101 -69 167.5t-150 80.5v-474q49 -23 74.5 -35.5t69.5 -37.5t68.5 -45t56 -51.5t47.5 -63t28 -74t12 -90.5q0 -137 -93.5 -244.5t-262.5 -128.5v-186h-80v182 q-53 2 -108 23t-105 59.5t-86 102t-45 141.5l98 24q14 -119 89.5 -188t156.5 -74v514q-93 47 -153.5 85t-109.5 85.5t-71 103t-22 124.5zM285 1014q0 -75 49 -128t135 -100v433q-88 -10 -136 -64.5t-48 -140.5zM549 63q79 21 124.5 80t45.5 146q0 83 -45.5 138.5 t-124.5 100.5v-465z" />
<glyph unicode="%" horiz-adv-x="1556" d="M92 905q0 178 73 281.5t191 103.5t191.5 -103.5t73.5 -281.5t-73.5 -281.5t-191.5 -103.5t-191 103.5t-73 281.5zM244 905q0 -140 27.5 -231.5t84.5 -91.5t85 91.5t28 231.5t-28 232t-85 92q-38 0 -64 -46t-37 -117t-11 -161zM369 -31l731 1342h98l-731 -1342h-98z M936 354q0 178 73 281.5t191 103.5t191 -103.5t73 -281.5t-73 -281.5t-191 -103.5t-191 103.5t-73 281.5zM1087 354q0 -140 28 -231.5t85 -91.5t85 91.5t28 231.5t-28 232t-85 92t-85 -92t-28 -232z" />
<glyph unicode="&#x26;" horiz-adv-x="1357" d="M80 336q0 113 71 201.5t226 167.5q-137 165 -137 311q0 126 92 210.5t227 84.5q119 0 205 -72.5t86 -179.5q0 -90 -61.5 -172t-200.5 -166l346 -395q72 138 84 333l-131 48v43q86 -7 186 -7q85 0 174 7v-43q-92 -20 -121 -43.5t-39 -85.5q-35 -204 -98 -314l72 -80 q65 -74 101.5 -99.5t78.5 -25.5q47 0 100 27v-43q-91 -74 -190 -74q-72 0 -132 36t-136 122q-79 -77 -179.5 -117.5t-209.5 -40.5q-173 0 -293.5 106.5t-120.5 260.5zM270 362q0 -123 79 -203.5t208 -80.5q151 0 270 110l-397 459q-160 -105 -160 -285zM395 1051 q0 -60 31.5 -120t112.5 -153q88 58 133 125.5t45 153.5q0 75 -43.5 125.5t-116.5 50.5q-72 0 -117 -51t-45 -131z" />
<glyph unicode="'" horiz-adv-x="323" d="M72 1194q0 117 90 117t90 -117q0 -48 -33 -185.5t-39 -199.5h-37q-6 61 -38.5 198t-32.5 187z" />
<glyph unicode="(" horiz-adv-x="630" d="M164 641q0 297 118.5 560.5t286.5 369.5h74q-95 -70 -165.5 -224t-104 -337.5t-33.5 -370.5t33.5 -370t104 -336.5t165.5 -223.5h-74q-167 106 -286 370.5t-119 561.5z" />
<glyph unicode=")" horiz-adv-x="630" d="M-12 -291q95 70 165.5 223.5t104 336.5t33.5 370t-33.5 370.5t-104 337.5t-165.5 224h73q168 -106 287 -369.5t119 -560.5t-119 -561.5t-287 -370.5h-73z" />
<glyph unicode="*" horiz-adv-x="774" d="M78 836.5q9 25.5 37 40.5q17 10 102 35.5t135 50.5q-49 23 -133 48.5t-102 35.5q-29 15 -38 38.5t5 51.5q13 24 40 28.5t54 -10.5q18 -10 82 -69.5t109 -90.5q-4 53 -24.5 138.5t-20.5 105.5q0 72 61 72q29 0 46.5 -20t17.5 -52q0 -21 -21 -107.5t-25 -140.5 q45 31 110 92.5t83 71.5q27 15 54 10.5t40 -28.5q14 -28 5 -51.5t-38 -38.5q-18 -10 -102 -35.5t-133 -48.5q50 -25 135 -50.5t102 -35.5q28 -15 37 -40.5t-4 -50.5q-29 -53 -94 -18q-18 10 -83.5 72t-111.5 92q3 -56 24.5 -143t21.5 -107q0 -32 -17.5 -52t-46.5 -20 q-61 0 -61 72q0 20 21 106.5t24 141.5q-46 -30 -110.5 -91t-82.5 -71q-65 -35 -94 18q-13 25 -4 50.5z" />
<glyph unicode="+" horiz-adv-x="901" d="M109 406v100h290v291h101v-291h291v-100h-291v-291h-101v291h-290z" />
<glyph unicode="," horiz-adv-x="421" d="M98 98q0 34 26 56t66 22q54 0 89.5 -43t35.5 -108q0 -98 -44.5 -177.5t-129.5 -128.5l-24 37q102 77 102 164q0 37 -19 63.5t-41.5 39t-41.5 32t-19 43.5z" />
<glyph unicode="-" horiz-adv-x="653" d="M82 428v92h489v-92h-489z" />
<glyph unicode="." horiz-adv-x="421" d="M104 74q0 44 31 74t76 30q44 0 75 -30t31 -74t-31 -74.5t-75 -30.5t-75.5 30.5t-31.5 74.5z" />
<glyph unicode="/" horiz-adv-x="669" d="M76 -31l413 1342h105l-414 -1342h-104z" />
<glyph unicode="0" d="M90 639q0 76 10 152t30 152.5t54 142t78.5 116.5t106.5 80t135 29t135 -29t106.5 -80t78.5 -116.5t54 -142t30 -152.5t10 -152q0 -92 -14 -182.5t-45.5 -179.5t-78 -156.5t-118 -109.5t-158.5 -42t-158.5 42t-118 109.5t-78 156.5t-45.5 179.5t-14 182.5zM276 639 q0 -39 1 -77t6.5 -98.5t14.5 -112.5t26 -108t40.5 -95.5t59.5 -65t80 -25.5t80 25.5t59 65t40.5 95.5t26 107.5t14 113t6.5 99t1 76.5t-1 77t-6.5 99t-14 113t-26 108.5t-40.5 96t-59 65t-80 25.5t-80 -25.5t-59.5 -65t-40.5 -96t-26 -108.5t-14.5 -113t-6.5 -99t-1 -77z " />
<glyph unicode="1" d="M264 1196v41q189 7 289 61h45v-1138q0 -42 14.5 -65.5t49.5 -35.5q47 -16 77 -20v-39q-108 6 -227 6q-29 0 -233 -6v39l145 41v981q0 57 -35 84q-45 34 -125 51z" />
<glyph unicode="2" d="M152 0v72q50 70 130.5 170t133.5 168.5t107.5 154.5t82 172.5t27.5 177.5q0 82 -16 140t-45 89t-62.5 44.5t-73.5 13.5q-136 0 -207 -158l-77 35q53 122 145.5 177t202.5 55q49 0 93.5 -11t88.5 -38.5t76 -69.5t51.5 -108t19.5 -150q0 -85 -30 -166.5t-88.5 -160.5 t-117 -144t-144.5 -158t-142 -162h336q71 0 112.5 30.5t67.5 100.5l39 -10q-39 -127 -61 -264h-649z" />
<glyph unicode="3" d="M152 113q0 37 24 66.5t53 29.5q23 0 42.5 -26t34.5 -57t49.5 -57t82.5 -26q75 0 128 44.5t75.5 110t22.5 142.5q0 158 -90.5 240t-235.5 84v75q115 9 196.5 86.5t81.5 192.5q0 87 -47.5 140.5t-124.5 53.5q-63 0 -110.5 -35.5t-73.5 -95.5l-78 33q26 68 79.5 114 t112.5 64.5t122 18.5q58 0 110 -16.5t96.5 -50.5t70.5 -93.5t26 -138.5q0 -103 -72.5 -188.5t-173.5 -102.5q131 -17 213 -119.5t82 -241.5q0 -167 -117.5 -279t-294.5 -112q-117 0 -200.5 40t-83.5 104z" />
<glyph unicode="4" d="M63 305v70l605 905h90v-854h170v-121h-170v-147q0 -42 14 -65.5t49 -35.5q9 -3 68 -20v-37q-108 6 -221 6q-3 0 -207 -6v37l119 41v227h-517zM195 426h385v580z" />
<glyph unicode="5" d="M168 111q0 36 25.5 68t60.5 32q26 0 44 -26.5t28 -57.5t38 -57.5t72 -26.5q105 0 167.5 100t62.5 234q0 96 -20.5 169t-69 119t-121.5 46q-82 0 -152 -47l-70 14l21 602h573l-26 -147h-457l-12 -371q80 39 178 39q162 0 251 -110t89 -296q0 -189 -119 -307.5t-299 -118.5 q-36 0 -77.5 6.5t-85.5 21.5t-72.5 44.5t-28.5 69.5z" />
<glyph unicode="6" d="M121 434q0 177 70.5 352.5t204 316.5t302.5 208l21 -49q-273 -181 -377 -555q46 43 105.5 66.5t119.5 23.5q102 0 178.5 -62.5t113 -156t36.5 -199.5q0 -175 -106 -292.5t-279 -117.5q-95 0 -171 38.5t-122.5 103.5t-71 147.5t-24.5 175.5zM303 412q0 -163 56 -266 t151 -103q62 0 105 30t63.5 80t28.5 98.5t8 102.5q0 44 -4.5 87t-18.5 91t-35.5 83.5t-59 59t-85.5 23.5q-97 0 -193 -92q-16 -91 -16 -194z" />
<glyph unicode="7" d="M131 997q16 53 33 143.5t20 139.5h672l33 -43l-404 -1237h-180l436 1137h-354q-89 0 -136 -33t-81 -119z" />
<glyph unicode="8" d="M106 322q0 118 73.5 206t187.5 144q-89 59 -145 142.5t-56 180.5q0 143 101 229.5t239 86.5q150 0 241 -79.5t91 -211.5q0 -92 -54.5 -172t-167.5 -127q50 -31 84.5 -55.5t75 -61.5t65 -73t41.5 -84.5t17 -102.5q0 -74 -26.5 -141t-75.5 -119.5t-125 -83.5t-168 -31 q-75 0 -144.5 22t-127 64t-92 111t-34.5 156zM276 330q0 -120 64.5 -200.5t167.5 -80.5q100 0 162.5 65t62.5 177q0 46 -19.5 90t-47.5 77.5t-71.5 68t-79 56.5t-81.5 48q-63 -41 -110.5 -116t-47.5 -185zM332 1051q0 -163 219 -289q59 36 92 107.5t33 158.5 q0 96 -45.5 148.5t-124.5 52.5q-82 0 -128 -48.5t-46 -129.5z" />
<glyph unicode="9" d="M123 901q0 175 106 292.5t279 117.5q95 0 171 -38.5t122.5 -103.5t71 -147.5t24.5 -175.5q0 -177 -71 -352.5t-204.5 -316.5t-302.5 -208l-20 49q273 181 377 555q-46 -43 -105.5 -66.5t-119.5 -23.5q-102 0 -178.5 62.5t-113 156t-36.5 199.5zM303 926q0 -44 4.5 -87 t18.5 -91t35.5 -83.5t59 -59t85.5 -23.5q96 0 192 92q17 97 17 194q0 163 -56 266t-151 103q-62 0 -105 -30t-63.5 -80t-28.5 -98.5t-8 -102.5z" />
<glyph unicode=":" horiz-adv-x="421" d="M104 74q0 44 31 74t76 30q44 0 75 -30t31 -74q0 -43 -31 -74t-75 -31t-75.5 31t-31.5 74zM104 633q0 43 31.5 73.5t75.5 30.5t75 -30.5t31 -73.5q0 -44 -31 -74.5t-75 -30.5t-75.5 30.5t-31.5 74.5z" />
<glyph unicode=";" horiz-adv-x="421" d="M104 633q0 43 31.5 73.5t75.5 30.5t75 -30.5t31 -73.5q0 -44 -31 -74.5t-75 -30.5t-75.5 30.5t-31.5 74.5zM109 98q0 34 26 56t66 22q54 0 89.5 -43t35.5 -108q0 -98 -44.5 -177.5t-129.5 -128.5l-25 37q102 77 102 164q0 30 -12.5 52.5t-30 36t-35 25.5t-30 28t-12.5 36 z" />
<glyph unicode="&#x3c;" horiz-adv-x="901" d="M109 393v127l682 332v-111l-572 -284l572 -281v-110z" />
<glyph unicode="=" horiz-adv-x="901" d="M109 252v100h682v-100h-682zM109 555v100h682v-100h-682z" />
<glyph unicode="&#x3e;" horiz-adv-x="901" d="M109 66v110l571 281l-571 284v111l682 -332v-127z" />
<glyph unicode="?" horiz-adv-x="755" d="M43 1118q55 92 136 142.5t181 50.5q136 0 225 -85t89 -229q0 -57 -20 -112t-51 -99t-69.5 -98t-74.5 -105.5t-67 -126.5t-46 -157h-61q6 81 29 163t52 147t57 128t47 128.5t19 125.5q0 100 -48 157.5t-126 57.5q-62 0 -120 -34.5t-101 -92.5zM209 74q0 44 31 74t75 30 q45 0 76 -30t31 -74t-31.5 -74.5t-75.5 -30.5t-75 30.5t-31 74.5z" />
<glyph unicode="@" horiz-adv-x="1556" d="M90 524q0 157 60.5 300t166.5 251t262 172t336 64q259 0 407 -137.5t148 -360.5q0 -132 -54 -250t-149.5 -191t-205.5 -73q-77 0 -126.5 36.5t-53.5 96.5q-43 -71 -108.5 -113.5t-143.5 -42.5q-86 0 -144.5 59.5t-58.5 164.5q0 95 40.5 186t105 156t145.5 105t160 40 q93 0 153 -51l37 51l98 -18l4 -6l-127 -416q-18 -67 -18 -101q0 -32 16.5 -51.5t51.5 -19.5q90 0 159.5 131.5t69.5 310.5q0 189 -108.5 303.5t-305.5 114.5q-125 0 -243 -58.5t-205 -154.5t-140 -226t-53 -266q0 -222 125.5 -353.5t360.5 -131.5q131 0 260 45t239 123 l29 -41q-273 -203 -582 -203q-135 0 -248.5 38t-191.5 110q-168 152 -168 407zM600 500q0 -59 25 -93t65 -34q78 0 141 92q51 78 95 219l55 182q-32 43 -96 43q-74 0 -141 -64.5t-105.5 -159t-38.5 -185.5z" />
<glyph unicode="A" horiz-adv-x="1292" d="M16 0v41l136 41l462 1198h60l436 -1124q19 -45 37.5 -64.5t52.5 -30.5l68 -20v-41q-23 0 -111 3t-119 3q-33 0 -123.5 -3t-115.5 -3v41l141 41l-145 377h-392l-118 -307q-9 -27 -9 -37q0 -15 9 -25.5t21.5 -16t35.5 -12.5q47 -14 82 -20v-41q-23 0 -91.5 3t-99.5 3 q-33 0 -112.5 -3t-104.5 -3zM430 535h336l-170 436z" />
<glyph unicode="B" horiz-adv-x="1138" d="M86 1239v41h481q250 0 351 -98q71 -68 71 -178t-62.5 -189t-176.5 -113q148 -30 229.5 -115.5t81.5 -217.5q0 -155 -103 -258q-108 -111 -335 -111h-529v41l131 41v1036q0 59 -31 82.5t-108 38.5zM414 164q0 -50 35 -67t139 -17q123 0 193.5 71.5t70.5 219.5 q0 133 -70 200q-78 78 -268 78h-100v-485zM414 731h127q125 0 194 72q60 63 60 168q0 113 -54 170q-61 61 -219 61h-108v-471z" />
<glyph unicode="C" horiz-adv-x="1171" d="M82 643q0 156 48 284t130.5 211t191 128t230.5 45q87 0 213.5 -20t140.5 -21q16 -299 21 -334h-49q-22 146 -108 215.5t-206 69.5q-180 0 -289.5 -159.5t-109.5 -418.5q0 -265 110 -413t281 -148q218 0 358 188l60 -45q-73 -116 -192 -186t-269 -70q-261 0 -411 185.5 t-150 488.5z" />
<glyph unicode="D" horiz-adv-x="1325" d="M86 1239v41h424q735 0 735 -647q0 -124 -35 -244t-112 -211q-151 -178 -475 -178h-529v41l129 41v1046q0 54 -29 75.5t-108 35.5zM414 166q0 -46 38 -65t136 -19q116 0 203.5 43t139.5 119.5t77.5 174t25.5 214.5q0 278 -119.5 419.5t-394.5 141.5h-106v-1028z" />
<glyph unicode="E" horiz-adv-x="1116" d="M86 1239v41h889q4 -165 22 -303h-49q-25 131 -84 174q-70 51 -258 51q-90 0 -192 -4v-500h139q47 0 141 5t109 10l-10 -105q-17 4 -109.5 8.5t-130.5 4.5h-139v-459q0 -52 41.5 -67t165.5 -15q133 0 192 10t88 31q61 45 92 180h41q-12 -140 -12 -301h-928v41l131 41v1046 q0 54 -29.5 75.5t-109.5 35.5z" />
<glyph unicode="F" horiz-adv-x="1058" d="M86 1239v41h889q9 -197 22 -303h-49q-2 7 -8.5 31.5t-9 33t-9.5 27.5t-13 29.5t-16.5 24t-23.5 24.5q-42 34 -109 44.5t-159 10.5q-76 0 -186 -4v-500h139q47 0 141 5t109 10l-10 -105q-17 4 -109.5 8.5t-130.5 4.5h-139v-467q0 -42 16 -62.5t47 -30.5q12 -4 86 -20v-41 q-23 0 -113.5 3t-121.5 3q-33 0 -118 -3t-110 -3v41l125 41v1046q0 54 -29.5 75.5t-109.5 35.5z" />
<glyph unicode="G" horiz-adv-x="1339" d="M82 647q0 142 48.5 265t134 211t206.5 138t262 50q58 0 124.5 -8.5t133.5 -21t92 -15.5q3 -125 23 -330h-51q-18 148 -100 216.5t-226 68.5q-88 0 -166 -38t-138 -108.5t-95 -180t-35 -243.5q0 -125 23.5 -225.5t63.5 -168t95 -113t115.5 -65.5t128.5 -20q109 0 164 41.5 t55 130.5v248l-137 43v41q23 0 111.5 -3t119.5 -3q33 0 120 3t112 3v-41q-74 -15 -107 -45t-33 -100v-305q-80 -42 -200 -72.5t-230 -30.5q-132 0 -242.5 40.5t-187.5 115.5q-184 181 -184 522z" />
<glyph unicode="H" horiz-adv-x="1445" d="M86 1239v41q23 0 105.5 -3t113.5 -3q33 0 121 3t113 3v-41l-125 -43v-496h620v420q0 44 -14 66t-43 31q-51 15 -82 22v41q23 0 105.5 -3t113.5 -3q33 0 121 3t113 3v-41l-125 -43v-1040q0 -44 13.5 -64.5t43.5 -30.5q30 -9 80 -20v-41q-23 0 -104.5 3t-112.5 3 q-33 0 -124 -3t-116 -3v41l131 41v530h-620v-456q0 -44 13.5 -64.5t43.5 -30.5q30 -9 80 -20v-41q-23 0 -107.5 3t-115.5 3q-33 0 -121 -3t-113 -3v41l131 41v1038q0 44 -14 66t-43 31q-51 15 -82 22z" />
<glyph unicode="I" horiz-adv-x="649" d="M92 1239v41q23 0 105.5 -3t113.5 -3q33 0 121 3t113 3v-41l-125 -43v-1040q0 -44 13.5 -64.5t43.5 -30.5q30 -9 80 -20v-41q-23 0 -107.5 3t-115.5 3q-33 0 -121 -3t-113 -3v41l131 41v1038q0 44 -14 66t-43 31q-51 15 -82 22z" />
<glyph unicode="J" horiz-adv-x="620" d="M0 -385q128 54 175.5 179t47.5 370v956q0 21 -3 37t-11.5 27t-15 18t-22.5 13t-25 9t-30.5 7.5t-31.5 7.5v41q37 0 109.5 -3t109.5 -3q39 0 117 3t117 3v-41l-125 -43v-1022q0 -91 -8 -163t-32.5 -149.5t-66.5 -134t-114 -102.5t-171 -69z" />
<glyph unicode="K" horiz-adv-x="1212" d="M86 1239v41q23 0 110.5 -3t118.5 -3q33 0 116 3t108 3v-41l-125 -43v-559l471 571l-125 31v41q17 -1 64.5 -3t87 -3.5t63.5 -1.5q48 0 196 8v-41q-104 -14 -154.5 -42.5t-109.5 -98.5l-278 -334l325 -522q68 -112 112.5 -150t125.5 -51v-41h-346q0 40 -11.5 71t-37.5 72 l-291 473l-92 -114v-346q0 -46 13.5 -66.5t43.5 -28.5l80 -20v-41q-23 0 -109.5 3t-117.5 3q-33 0 -119 -3t-111 -3v41l131 41v1038q0 45 -13.5 67.5t-43.5 31.5q-24 7 -82 20z" />
<glyph unicode="L" horiz-adv-x="1054" d="M86 1239v41q23 0 105.5 -3t113.5 -3q33 0 121 3t113 3v-41l-125 -43v-1034q0 -52 42.5 -67t166.5 -15q142 0 192.5 7.5t77.5 31.5q51 45 82 182h41q-15 -185 -15 -301h-907v41l131 41v1038q0 44 -14 66t-43 31q-51 15 -82 22z" />
<glyph unicode="M" horiz-adv-x="1716" d="M86 1239v41h340l434 -985l440 985h318v-41l-125 -43v-1040q0 -44 13.5 -64.5t43.5 -30.5q30 -9 80 -20v-41q-23 0 -107.5 3t-115.5 3q-33 0 -118.5 -3t-110.5 -3v41l127 41v954l-463 -1044h-45l-463 1042v-878q0 -79 61 -95l76 -20v-41q-23 0 -88 3t-96 3 q-33 0 -100.5 -3t-92.5 -3v41l131 41v1038q0 43 -16 64t-47 33q-34 13 -76 22z" />
<glyph unicode="N" horiz-adv-x="1439" d="M80 1239v41h293l751 -965v811q0 45 -12.5 62.5t-46.5 28.5q-43 14 -80 22v41q23 0 90.5 -3t98.5 -3q33 0 96 3t88 3v-41l-127 -43v-1204h-88l-809 1038v-874q0 -44 14.5 -64.5t44.5 -30.5q36 -11 78 -20v-41q-23 0 -88 3t-96 3q-33 0 -102.5 -3t-94.5 -3v41l135 41v1040 q0 46 -15.5 65.5t-47.5 29.5q-39 12 -82 22z" />
<glyph unicode="O" horiz-adv-x="1282" d="M82 641q0 132 35 250.5t102.5 213t177 150.5t246.5 56q110 0 203 -36.5t157.5 -100t109.5 -149t66 -182.5t21 -202t-21.5 -202t-67 -183t-111 -149.5t-158.5 -100.5t-203 -37t-203 37t-157.5 100.5t-109.5 149.5t-66 183t-21 202zM295 641q0 -71 8.5 -143.5t32.5 -153.5 t61 -142.5t99.5 -102t142.5 -40.5t143 40.5t100.5 102t62 142.5t33.5 153.5t9 143.5q0 58 -6.5 118t-20.5 127.5t-40.5 125.5t-63 106t-91.5 75.5t-122 27.5q-80 0 -143 -40t-100.5 -101.5t-62 -142t-33.5 -153t-9 -143.5z" />
<glyph unicode="P" horiz-adv-x="1091" d="M86 1239v41h434q135 0 223 -23q133 -35 207 -123t74 -225q0 -170 -125 -274q-134 -111 -375 -111h-110v-370q0 -42 16 -62.5t47 -30.5q12 -4 86 -20v-41q-37 0 -117.5 3t-117.5 3q-39 0 -117 -3t-117 -3v41l131 41v1038q0 32 -9 52.5t-27 32t-38 18t-50 13.5q-3 0 -5 0.5 t-5 1t-5 1.5zM414 604h65q173 0 256 80q78 78 78 225q0 141 -72 213q-74 74 -241 74h-86v-592z" />
<glyph unicode="Q" horiz-adv-x="1284" d="M82 639q0 105 21.5 202t67 183t111 149.5t158.5 100.5t203 37t203 -37.5t158 -102.5t110 -152t66.5 -185t21.5 -203q0 -98 -14.5 -180.5t-49.5 -163.5t-100 -149.5t-159 -119.5q120 -353 663 -385v-47q-192 0 -344 28t-258 80.5t-177 120t-118 154.5q-111 0 -204 36.5 t-158.5 100t-111 149t-67.5 182.5t-22 202zM295 639q0 -71 9 -144t33.5 -154t62 -142.5t100.5 -101.5t143 -40q68 0 123 27.5t91.5 76t63 106.5t40.5 126t20 127.5t6 118.5t-6 118.5t-20 127.5t-40.5 126t-63 106.5t-91.5 76t-123 27.5q-80 0 -143 -40t-100.5 -101.5 t-62 -142.5t-33.5 -154t-9 -144z" />
<glyph unicode="R" horiz-adv-x="1234" d="M86 1239v41h418q291 0 411 -104q101 -85 101 -242q0 -111 -69 -195.5t-206 -122.5q64 -15 99 -47t67 -106l111 -246q41 -92 85 -127t124 -49v-41h-346q0 33 -8 61t-37 93l-111 245q-25 56 -40.5 82.5t-40 46t-53.5 24.5t-81 5h-96v-401q0 -58 25.5 -77.5t111.5 -37.5v-41 q-37 0 -111.5 3t-111.5 3q-39 0 -117 -3t-117 -3v41l131 41v1038q0 18 -3.5 32.5t-6.5 24.5t-14 19t-15.5 13.5t-22 10t-22.5 7t-27.5 6.5t-27.5 6zM414 635h43q180 0 268 82q80 77 80 205q0 130 -60 196q-73 78 -253 78h-78v-561z" />
<glyph unicode="S" horiz-adv-x="1032" d="M139 979q0 146 116 239t292 93q57 0 162.5 -14t132.5 -15q0 -134 18 -305h-51q-15 118 -82.5 183t-171.5 65q-97 0 -165 -57t-68 -156q0 -46 20 -85t53.5 -68.5t77.5 -56.5t92 -53t96.5 -54t92.5 -63t77.5 -76t53.5 -98.5t20 -125.5q0 -152 -115 -257.5t-307 -105.5 q-86 0 -181 15.5t-159 38.5v305h47q14 -128 87 -201.5t188 -73.5q120 0 187 69.5t67 180.5q0 54 -25 100t-65.5 77t-93 63.5t-106.5 59t-106.5 63.5t-93 78t-65.5 101.5t-25 133.5z" />
<glyph unicode="T" horiz-adv-x="1159" d="M41 977q14 245 14 303h1049q0 -58 14 -303h-45q-25 85 -39 118t-37 56q-51 51 -213 51h-110v-1046q0 -44 13.5 -64.5t43.5 -30.5q30 -9 80 -20v-41q-23 0 -106.5 3t-114.5 3q-33 0 -122 -3t-114 -3v41l131 41v1120h-110q-162 0 -213 -51q-23 -23 -37 -56t-39 -118h-45z " />
<glyph unicode="U" horiz-adv-x="1318" d="M61 1241v39q23 0 106 -3t114 -3q33 0 120.5 3t112.5 3v-39l-125 -43v-698q0 -225 82 -332q77 -100 231 -100q163 0 242 116q78 113 78 332v606q0 42 -16.5 63.5t-47.5 33.5q-39 14 -73 22v39q23 0 88 -3t96 -3q33 0 96 3t88 3v-39l-125 -43v-698q0 -275 -120 -404 q-118 -127 -340 -127q-213 0 -330 111q-137 128 -137 395v647q0 44 -14.5 65.5t-43.5 31.5q-51 15 -82 22z" />
<glyph unicode="V" horiz-adv-x="1243" d="M0 1243v37q93 -6 209 -6q108 0 237 6v-37l-120 -33l352 -921l317 921l-123 31v39q156 -6 205 -6q23 0 85 3t81 3v-39q-91 -10 -122.5 -34t-55.5 -93l-387 -1118h-76l-446 1134q-21 53 -53.5 75t-102.5 38z" />
<glyph unicode="W" horiz-adv-x="1873" d="M0 1243v37q93 -6 215 -6q98 0 227 6v-37l-125 -33l326 -911l254 692l-47 139q-18 53 -48 75t-97 38v37q93 -6 210 -6q95 0 224 6v-37l-129 -33l315 -907l297 907l-125 31v39q148 -6 197 -6q23 0 92 3t88 3v-39q-63 -7 -96 -21t-49.5 -37t-32.5 -69l-367 -1118h-82 l-295 854l-313 -854h-80l-405 1134q-21 58 -49.5 77.5t-104.5 35.5z" />
<glyph unicode="X" horiz-adv-x="1253" d="M10 1245v35l37 -2q37 -1 88.5 -2.5t85.5 -1.5t93 1.5t104.5 3t46.5 1.5v-35l-111 -33l287 -438l266 445l-106 28v33q1 0 16 -0.5t39 -1.5t51.5 -2t57 -1.5t51.5 -0.5q23 0 61 1.5t66 2.5l28 2v-33q-89 -11 -129.5 -33.5t-76.5 -83.5l-263 -444l369 -539 q31 -45 70.5 -69.5t99.5 -40.5v-37l-27 2q-27 2 -75 4t-101 2t-116 -2t-105 -4t-43 -2v37l119 33l-297 460l-289 -462l129 -33v-35q-2 0 -40.5 2t-88 4t-78.5 2q-23 0 -70 -2t-85.5 -4t-40.5 -2v35q96 19 137 39t70 65l297 475l-359 519q-33 47 -72 73.5t-96 38.5z" />
<glyph unicode="Y" horiz-adv-x="1153" d="M4 1245v35q93 -6 205 -6q115 0 244 6v-35l-127 -33l311 -583l281 581l-119 33v37q139 -6 188 -6q23 0 83 3t79 3v-37q-43 -6 -71.5 -15.5t-48 -29t-28.5 -35t-26 -49.5l-295 -610v-348q0 -44 13.5 -64.5t43.5 -30.5q30 -9 80 -20v-41q-23 0 -107.5 3t-115.5 3 q-33 0 -121 -3t-113 -3v41l132 41v420l-336 631q-25 49 -59 72.5t-93 39.5z" />
<glyph unicode="Z" horiz-adv-x="1136" d="M111 0v74l686 1128h-516l-105 -215h-41q10 102 10 293h873v-72l-690 -1130h415q115 0 168.5 54.5t73.5 168.5h45q-14 -168 -14 -301h-905z" />
<glyph unicode="[" horiz-adv-x="612" d="M193 -291v1862h378v-76h-223v-1710h223v-76h-378z" />
<glyph unicode="\" horiz-adv-x="669" d="M76 1311h104l414 -1342h-105z" />
<glyph unicode="]" horiz-adv-x="612" d="M41 -215h223v1710h-223v76h379v-1862h-379v76z" />
<glyph unicode="^" horiz-adv-x="901" d="M78 707l328 573h90l325 -573h-129l-241 428l-244 -428h-129z" />
<glyph unicode="_" horiz-adv-x="1024" d="M49 -221h926v-84h-926v84z" />
<glyph unicode="`" horiz-adv-x="542" d="M90 1192v20l70 70q14 14 28 14q15 0 35 -20l246 -248l-18 -22z" />
<glyph unicode="a" horiz-adv-x="954" d="M98 248q0 84 40 147t111.5 99.5t160 53.5t194.5 17v84q0 197 -160 197q-158 0 -231 -195l-78 31q41 119 131.5 189.5t231.5 70.5q186 0 254 -135q14 -27 21 -66t8 -69.5t1 -83.5v-434q0 -86 64 -86q32 0 63 14v-43q-28 -28 -70 -46t-83 -18q-47 0 -86 21.5t-52 64.5 q-37 -38 -99.5 -65t-131.5 -27q-122 0 -205.5 75t-83.5 204zM285 264q0 -98 45.5 -148t115.5 -50q89 0 158 65v365h-16q-141 0 -222 -59.5t-81 -172.5z" />
<glyph unicode="b" horiz-adv-x="1042" d="M33 1325v37h71h48h32q26 0 69 2t77 6v-555q52 62 125 94.5t143 32.5q137 0 231 -84q134 -118 134 -397q0 -118 -37 -218t-109 -165q-122 -109 -311 -109q-85 0 -182 23t-172 61v1147q0 15 -1.5 27t-2.5 21t-6.5 17.5t-7 13.5t-11 11t-12 8.5t-16.5 7.5t-17 6t-21.5 6.5 t-23.5 6.5zM330 135q28 -34 77 -55t99 -21q268 0 268 402q0 373 -223 373q-61 0 -120 -33.5t-101 -85.5v-580z" />
<glyph unicode="c" horiz-adv-x="890" d="M72 455q0 225 127 356t327 131q57 0 148 -13t104 -14q0 -58 10 -288h-45q-10 101 -57 159q-59 72 -166 72q-124 0 -192 -105.5t-68 -291.5q0 -184 76.5 -283.5t200.5 -99.5q79 0 143 41.5t102 105.5l52 -47q-43 -85 -136 -147t-215 -62q-185 0 -298 132.5t-113 353.5z " />
<glyph unicode="d" horiz-adv-x="1071" d="M76 440q0 143 51 257t148 179.5t223 65.5q59 0 117 -22.5t100 -61.5v348q0 32 -2 46t-14.5 29t-35 23.5t-67.5 20.5v37h127q94 0 170 8v-1202q0 -47 21.5 -73.5t58.5 -26.5t65 14v-43q-27 -28 -68.5 -46t-84.5 -18q-56 0 -100 29t-58 86q-45 -55 -116.5 -88t-159.5 -33 q-74 0 -137 26.5t-106 71.5t-73.5 105.5t-44.5 128t-14 139.5zM264 465q0 -65 13.5 -128t41 -122t78.5 -95t119 -36q115 0 199 90v590q-36 33 -85 52.5t-98 19.5q-72 0 -126 -33.5t-84 -89.5t-44 -118.5t-14 -129.5z" />
<glyph unicode="e" horiz-adv-x="921" d="M72 457q0 217 111 351t294 134q159 0 259 -106.5t100 -290.5q0 -38 -2 -58h-576q0 -198 71 -303.5t197 -105.5q83 0 146.5 42t101.5 105l53 -47q-50 -91 -144 -150t-212 -59q-82 0 -150 28t-113 75t-76.5 110.5t-45.5 132.5t-14 142zM262 561h395q-1 141 -50.5 218 t-137.5 77t-143 -81.5t-64 -213.5z" />
<glyph unicode="f" horiz-adv-x="667" d="M59 836v73h140q0 137 20 223.5t78 155.5q88 105 242 105q45 0 94 -11.5t89 -39t40 -64.5t-23 -73t-53 -36q-22 0 -45 23q-9 10 -34.5 49.5t-51 60.5t-61.5 21q-21 0 -39 -8.5t-29.5 -26t-20.5 -35t-14 -46.5t-8.5 -47.5t-4.5 -51t-1 -44.5v-40v-14v-101h239l-16 -73h-223 v-684q0 -52 25 -72t108 -43v-37q-35 0 -109.5 3t-109.5 3q-33 0 -104.5 -3t-104.5 -3v37l117 41v758h-140z" />
<glyph unicode="g" horiz-adv-x="966" d="M59 -225q0 87 58 152.5t145 99.5q-117 64 -117 176q0 90 78 153q-119 88 -119 254q0 153 106.5 242.5t264.5 89.5q98 0 184 -39q139 8 275 31v-113h-64q-54 0 -108 8q86 -89 86 -217q0 -152 -106.5 -239.5t-266.5 -87.5q-111 0 -190 39q-17 -26 -17 -60q0 -42 36 -66 t93.5 -34t127 -16.5t139 -20t127 -38t93.5 -77t36 -129.5q0 -72 -27.5 -133t-73.5 -102.5t-107 -71.5t-126.5 -43.5t-132.5 -13.5q-69 0 -135.5 15t-126 44.5t-96 80.5t-36.5 116zM229 -195q0 -96 67.5 -145t195.5 -49q63 0 127 19.5t108 52.5q74 58 74 133q0 47 -29.5 76.5 t-83 44t-108.5 22t-127 16.5t-117 21q-50 -29 -78.5 -81t-28.5 -110zM283 612q0 -48 10 -90t31.5 -78.5t60 -57.5t90.5 -21q69 0 114.5 37.5t63 91t17.5 118.5q-1 66 -18.5 119t-62.5 91t-114 38q-68 0 -113 -38t-62 -91.5t-17 -118.5z" />
<glyph unicode="h" horiz-adv-x="1116" d="M57 1325v37q218 0 297 10v-584q61 69 143 111.5t167 42.5q70 0 129.5 -27t97.5 -79q34 -47 44.5 -108.5t10.5 -149.5v-426q0 -40 12 -62.5t41 -32.5q18 -6 66 -20v-37q-108 6 -203 6q-7 0 -211 -6v37l117 41v495q0 84 -9.5 129t-33.5 74q-40 49 -117 49q-140 0 -254 -137 v-536q0 -76 54 -95q23 -8 65 -20v-37q-108 6 -201 6q-9 0 -213 -6v37l117 41v1128q0 43 -12.5 64t-42.5 33q-21 9 -64 22z" />
<glyph unicode="i" horiz-adv-x="542" d="M68 872v37q210 0 297 11v-768q0 -40 12 -62.5t41 -32.5q23 -8 65 -20v-37q-108 6 -200 6q-9 0 -213 -6v37l116 41v676q0 43 -12.5 63.5t-42.5 32.5q-23 10 -63 22zM158 1182q0 44 31 74t73 30t73.5 -30.5t31.5 -73.5q0 -44 -31.5 -74.5t-73.5 -30.5t-73 30.5t-31 74.5z " />
<glyph unicode="j" horiz-adv-x="509" d="M-6 -422q176 65 176 350v826q0 43 -12.5 63.5t-42.5 32.5q-21 9 -64 22v37q210 0 297 11v-1008q0 -82 -29.5 -152.5t-78.5 -118t-107.5 -78.5t-122.5 -44zM141 1182q0 43 31.5 73.5t73.5 30.5t73 -30t31 -74t-31 -74.5t-73 -30.5t-73.5 30.5t-31.5 74.5z" />
<glyph unicode="k" horiz-adv-x="1005" d="M55 1325v37q236 0 299 8v-815l359 293l-84 24v37q55 -4 159 -4q103 0 160 4v-37q-104 -9 -192 -81l-205 -166l266 -443q35 -58 65.5 -87.5t80.5 -43.5l51 -14v-37h-193q-55 0 -85 17t-60 67l-256 432l-66 -53v-311q0 -76 54 -95q23 -8 65 -20v-37q-108 6 -201 6 q-9 0 -213 -6v37l117 41v1130q0 43 -12.5 64t-42.5 33q-1 1 -66 20z" />
<glyph unicode="l" horiz-adv-x="528" d="M57 1325v37q234 0 297 8v-1218q0 -76 54 -95q23 -8 65 -20v-37q-108 6 -201 6q-9 0 -213 -6v37l117 41v1130q0 43 -13 63.5t-44 33.5q-10 5 -62 20z" />
<glyph unicode="m" horiz-adv-x="1689" d="M66 872v37q209 0 296 11v-125q147 147 302 147q91 0 158.5 -41.5t97.5 -124.5q80 82 155 124t170 42q113 0 187 -63.5t86 -188.5q2 -14 2 -102v-436q0 -42 12 -64t41 -31q47 -16 65 -20v-37q-25 1 -91.5 3.5t-106.5 2.5q-26 0 -215 -6v37l116 41v495q0 86 -8.5 130.5 t-32.5 72.5q-40 49 -116 49q-126 0 -246 -135q2 -14 2 -102v-436q0 -42 12 -64t41 -31q46 -16 66 -20v-37q-24 1 -91.5 3.5t-107.5 2.5q-26 0 -215 -6v37l117 41v495q0 86 -8.5 130.5t-32.5 72.5q-40 49 -115 49q-120 0 -244 -133v-540q0 -76 54 -95q13 -5 37 -12t28 -8v-37 q-108 6 -200 6q-9 0 -213 -6v37l116 41v676q0 43 -12.5 63.5t-42.5 32.5q-23 10 -63 22z" />
<glyph unicode="n" horiz-adv-x="1124" d="M66 872v37q209 0 296 11v-132q61 69 143 111.5t167 42.5q70 0 129.5 -27t97.5 -79q34 -47 44.5 -108.5t10.5 -149.5v-426q0 -76 54 -95q23 -8 65 -20v-37q-108 6 -203 6q-7 0 -211 -6v37l117 41v495q0 84 -9.5 129t-33.5 74q-40 49 -117 49q-140 0 -254 -137v-536 q0 -76 54 -95q23 -8 65 -20v-37q-108 6 -200 6q-9 0 -213 -6v37l116 41v676q0 43 -12.5 63.5t-42.5 32.5q-23 10 -63 22z" />
<glyph unicode="o" horiz-adv-x="1024" d="M72 453q0 137 51 247t152.5 176t238.5 66t237.5 -66t150.5 -175.5t50 -247.5q0 -137 -51 -246t-152.5 -173.5t-238.5 -64.5t-237.5 64.5t-150.5 173t-50 246.5zM260 455q0 -54 6 -105.5t23.5 -106.5t44.5 -95.5t72.5 -66.5t103.5 -26q72 0 124.5 38t79 101t38.5 127.5 t12 133.5q0 54 -6 105.5t-23.5 107t-44.5 96t-72.5 66.5t-103.5 26t-104 -26t-73.5 -67t-45.5 -95.5t-24.5 -106.5t-6.5 -106z" />
<glyph unicode="p" horiz-adv-x="1060" d="M51 872v37q207 0 297 11v-101q50 54 119 88.5t141 34.5q95 0 169 -39.5t118 -108t66 -151.5t22 -178q0 -72 -14.5 -140.5t-47 -133.5t-80.5 -114t-120 -78.5t-160 -29.5q-119 0 -213 76v-344q0 -52 26 -72t113 -43v-37q-35 0 -112.5 3.5t-112.5 3.5q-42 0 -115.5 -3 t-93.5 -4v37l117 43v1125q0 31 -7 51.5t-26 33t-35 18t-51 15.5zM348 143q84 -71 187 -71q127 0 193.5 105.5t66.5 287.5q0 173 -60.5 271t-167.5 98q-112 0 -219 -113v-578z" />
<glyph unicode="q" horiz-adv-x="1042" d="M80 444q0 220 131 359t348 139q163 0 332 -86v-1151q0 -43 12.5 -63.5t42.5 -32.5q28 -12 64 -23v-37q-218 0 -297 -10v557q-49 -60 -121.5 -93.5t-140.5 -33.5q-100 0 -174 38.5t-115.5 106t-61.5 150t-20 180.5zM268 453q0 -181 61.5 -276t170.5 -95q60 0 120 35.5 t93 83.5v602q-28 21 -72 36t-86 15q-65 0 -116 -24t-82.5 -63t-52 -92.5t-28.5 -108t-8 -113.5z" />
<glyph unicode="r" horiz-adv-x="729" d="M66 872v37q206 0 296 11v-125q46 63 104.5 105t117.5 42q52 0 91.5 -25t39.5 -65q0 -34 -26.5 -66t-51.5 -32q-24 0 -58.5 30.5t-62.5 30.5q-81 0 -154 -113v-550q0 -52 25.5 -72t108.5 -43v-37q-35 0 -108.5 3t-108.5 3q-33 0 -104.5 -3t-104.5 -3v37l114 41v676 q0 55 -19.5 76t-98.5 42z" />
<glyph unicode="s" horiz-adv-x="819" d="M109 676q0 81 48 143.5t120 92.5t153 30q54 0 140.5 -15t91.5 -16q0 -132 10 -245h-41q-18 100 -65 150t-134 50q-78 0 -121 -36t-43 -97q0 -41 25 -74t65 -56t88.5 -45.5t96.5 -49t88 -58t65 -81t25 -111.5q0 -135 -98 -212t-240 -77q-58 0 -137.5 15.5t-132.5 38.5v237 h41q13 -91 76 -152t163 -61q74 0 122 37t48 106q0 48 -25 85.5t-65 62.5t-88.5 47t-97 47t-88.5 55t-65 78.5t-25 110.5z" />
<glyph unicode="t" horiz-adv-x="677" d="M37 836v73h137v207l178 58v-265h246l-16 -73h-230v-592q0 -87 25 -129.5t84 -42.5q75 0 133 80l47 -43q-43 -62 -109 -101t-147 -39q-98 0 -154.5 60t-56.5 186v621h-137z" />
<glyph unicode="u" horiz-adv-x="1093" d="M31 872v37q218 0 297 13v-586q0 -83 10 -127.5t35 -73.5q42 -51 114 -51q67 0 138 41q58 33 112 100v531q0 40 -12 62t-41 32l-66 22v37q218 0 297 13v-750q0 -50 21.5 -77t58.5 -27q38 0 66 14v-43q-64 -64 -156 -64q-66 0 -109.5 38.5t-52.5 107.5q-60 -66 -143.5 -109 t-167.5 -43q-71 0 -131.5 27t-97.5 78q-24 33 -36.5 79t-14.5 82t-2 95v426q0 40 -12.5 62t-41.5 32z" />
<glyph unicode="v" horiz-adv-x="962" d="M-20 872v37q93 -6 202 -6q88 0 217 6v-37l-106 -30l239 -600l238 604l-104 26v37q114 -6 163 -6q23 0 75 3t71 3v-37q-73 -12 -102.5 -32t-49.5 -70l-303 -770h-69l-320 762q-21 50 -49.5 69t-101.5 41z" />
<glyph unicode="w" horiz-adv-x="1402" d="M-20 872v37q1 0 13.5 -0.5t32.5 -1.5t43.5 -2t51 -1.5t49.5 -0.5t52.5 0.5t58 1.5t51.5 2t39 1.5t16 0.5v-37l-111 -30l238 -582l164 463l-14 39q-19 52 -46.5 72.5t-85.5 37.5v37q1 0 13 -0.5t30.5 -1.5t40.5 -2t47.5 -1.5t45.5 -0.5q32 0 85.5 1.5t94 3t41.5 1.5v-37 l-117 -22l213 -584l176 580l-108 28v35q1 0 32 -1.5t72 -3t66 -1.5t61.5 1.5t62.5 3.5l27 1v-35q-80 -14 -109 -34.5t-49 -81.5l-233 -758h-76l-225 625l-223 -625h-74l-303 762q-20 51 -49 71t-94 39z" />
<glyph unicode="x" horiz-adv-x="968" d="M0 872v37q1 0 14 -0.5t33.5 -1.5t45 -2t52.5 -1.5t50 -0.5q35 0 90 1.5t96 3.5l41 1v-37l-98 -30l182 -264l178 270l-106 22v39q1 0 13.5 -0.5t32.5 -1.5t43.5 -2t51 -1.5t49.5 -0.5q25 0 61.5 1.5t63.5 3t29 1.5v-39q-82 -6 -121.5 -28.5t-79.5 -81.5l-166 -250 l248 -363q35 -52 69.5 -73t102.5 -37v-37q-1 0 -9.5 0.5t-24 1.5t-36 2t-52 1.5t-65.5 0.5t-72 -0.5t-68 -1.5t-55 -2t-40 -1.5t-16 -0.5v35l114 35l-196 282l-185 -284l113 -31v-37q-1 0 -36.5 1.5t-83 3t-77.5 1.5q-23 0 -63 -1.5t-71 -3t-32 -1.5v37q83 14 126 35t73 67 l184 279l-235 344q-36 51 -71 73.5t-97 36.5z" />
<glyph unicode="y" horiz-adv-x="972" d="M-23 872v37q1 0 37 -1.5t85 -3t81 -1.5t89 1.5t101 3t46 1.5v-37l-121 -30l254 -594l223 598l-110 28v35l35 -1q35 -2 80 -3.5t69 -1.5t58 1.5t58.5 3t26.5 1.5v-35q-74 -9 -107 -29.5t-53 -74.5l-391 -1038q-17 -46 -35.5 -80.5t-45 -66.5t-63 -49t-81.5 -17 q-51 0 -80 26t-29 60q0 31 15.5 50t44.5 19q12 0 35 -4t34 -4q59 0 88.5 26t57.5 99l78 211l-328 760q-22 51 -55 73.5t-97 36.5z" />
<glyph unicode="z" horiz-adv-x="870" d="M82 0v57l489 783h-342l-82 -176h-34q4 78 4 245h663v-53l-493 -786h266q48 0 78 8.5t51 31t32.5 53t24.5 83.5h39q-4 -168 -4 -246h-692z" />
<glyph unicode="{" horiz-adv-x="581" d="M98 612v54q77 15 112 70.5t23 133.5l-47 283q-12 70 -12 109q0 133 101 214t266 95v-39q-106 -15 -154.5 -58t-48.5 -128q0 -52 10 -121l39 -242q8 -50 8 -78q0 -81 -52 -154t-159 -112q107 -39 159 -112t52 -154q0 -28 -8 -78l-39 -242q-10 -69 -10 -121q0 -85 48 -127 t155 -57v-39q-165 14 -266 94t-101 213q0 39 12 109l47 283q12 78 -23 133.5t-112 70.5z" />
<glyph unicode="|" horiz-adv-x="567" d="M225 -543v1997h117v-1997h-117z" />
<glyph unicode="}" horiz-adv-x="581" d="M41 -252q107 15 155 57t48 127q0 45 -11 121l-38 242q-9 56 -9 78q0 81 52 154t159 112q-107 39 -159 112t-52 154q0 22 9 78l38 242q11 76 11 121q0 85 -48.5 128t-154.5 58v39q165 -14 266 -95t101 -214q0 -33 -13 -109l-47 -283q-12 -78 23 -133.5t112 -70.5v-54 q-77 -15 -112 -70.5t-23 -133.5l47 -283q13 -76 13 -109q0 -133 -101 -213t-266 -94v39z" />
<glyph unicode="~" horiz-adv-x="901" d="M78 494q10 119 68 178t151 59q49 0 97.5 -17.5t81 -39t75.5 -39t84 -17.5q68 0 95.5 28.5t43.5 88.5h47q-21 -116 -69 -178.5t-146 -62.5q-45 0 -92.5 19t-81.5 42t-80 42t-88 19q-59 0 -89 -29t-50 -93h-47z" />
<glyph unicode="&#xa1;" horiz-adv-x="458" d="M123 838q0 44 31 74t75 30q45 0 76 -30t31 -74t-31.5 -74.5t-75.5 -30.5t-75 30.5t-31 74.5zM135 -256l70 829h47l67 -829q5 -65 -16.5 -104t-73.5 -39q-105 0 -94 143z" />
<glyph unicode="&#xa2;" d="M133 455q0 216 110 348.5t289 138.5v135h84v-141q96 -18 169 -75t110 -128l-51 -45q-36 60 -95.5 100t-132.5 46v-756q73 4 132.5 44t95.5 101l51 -45q-37 -71 -110 -128t-169 -75v-139h-84v133q-180 6 -289.5 138.5t-109.5 347.5zM322 455q0 -157 56.5 -251t153.5 -118 v739q-97 -26 -153.5 -120t-56.5 -250z" />
<glyph unicode="&#xa3;" d="M57 117q0 67 46.5 109t119.5 42q52 0 84 -14q2 31 2 395h-159v84h159v98q0 236 93.5 358t279.5 122q27 0 64.5 -6t78.5 -18.5t69 -36.5t28 -54q0 -35 -19.5 -66.5t-52.5 -31.5q-22 0 -46.5 21.5t-43.5 47t-51 47t-68 21.5q-72 0 -113 -80t-41 -235v-187h238l-18 -84h-220 q0 -329 -18 -450q146 -97 264 -97q116 0 189 99l41 -29q-39 -99 -97 -151t-147 -52q-73 0 -137 31t-146 106q-67 -137 -213 -137q-73 0 -119.5 40.5t-46.5 107.5zM135 123q0 -38 22 -60t58 -22q88 0 88 143q-27 23 -78 23q-43 0 -66.5 -23.5t-23.5 -60.5z" />
<glyph unicode="&#xa4;" d="M125 168l125 186q-100 106 -100 283q0 181 104 285l-129 198h125l90 -137q79 37 170 37q80 0 158 -33l88 133h125l-125 -190q114 -108 114 -293q0 -182 -110 -289l121 -180h-125l-82 121q-72 -35 -164 -35q-102 0 -178 39l-82 -125h-125zM307 635q0 -55 10 -105.5 t32.5 -96t63.5 -72.5t97 -27t97 27t63.5 72.5t32.5 96t10 105.5q0 57 -10 108t-32.5 97t-63.5 73t-97 27t-97 -27t-63.5 -73t-32.5 -97t-10 -108z" />
<glyph unicode="&#xa5;" d="M0 1245v35q93 -6 211 -6q84 0 213 6v-35l-115 -33l262 -524l234 522l-107 33v37q125 -6 174 -6q23 0 78 3t74 3v-37q-71 -7 -100.5 -33t-61.5 -96l-231 -520h246l-15 -84h-254v-94h269l-15 -84h-254v-176q0 -43 14 -64t44 -31q50 -15 79 -20v-41q-23 0 -107.5 3t-115.5 3 q-33 0 -120.5 -3t-112.5 -3v41l131 41v250h-283l15 84h268v94h-283l15 84h254l-267 539q-29 59 -53.5 78.5t-85.5 33.5z" />
<glyph unicode="&#xa6;" horiz-adv-x="567" d="M225 201h117v-744h-117v744zM225 711v743h117v-743h-117z" />
<glyph unicode="&#xa7;" horiz-adv-x="874" d="M135 104h39q13 -91 75.5 -152t162.5 -61q73 0 123.5 40.5t50.5 117.5q0 49 -24.5 88t-64 64.5t-87.5 48t-95.5 46.5t-87 52.5t-64 72.5t-24.5 101q0 92 58 159t161 93q-118 56 -168.5 120t-50.5 150q0 121 89.5 194t224.5 73q45 0 127 -14.5t108 -16.5q0 -143 6 -242h-39 q-18 100 -65.5 150.5t-134.5 50.5q-69 0 -116.5 -41.5t-47.5 -107.5q0 -45 24.5 -80.5t63.5 -60t86.5 -46.5t95 -46.5t86.5 -53.5t63.5 -74t24.5 -102q0 -99 -48 -166t-134 -99q101 -53 141.5 -112.5t40.5 -147.5q0 -136 -94 -212t-235 -76q-128 0 -265 53q0 126 -6 237z M285 582q0 -71 54.5 -117.5t121.5 -46.5t108 40.5t41 100.5q0 71 -54.5 117.5t-121.5 46.5t-108 -40.5t-41 -100.5z" />
<glyph unicode="&#xa8;" horiz-adv-x="542" d="M14 1182q0 38 29.5 66t69.5 28q38 0 67 -28t29 -66t-29 -67.5t-67 -29.5q-40 0 -69.5 29.5t-29.5 67.5zM332 1182q0 38 29 66t67 28q40 0 69 -28t29 -66t-29 -67.5t-69 -29.5q-38 0 -67 29.5t-29 67.5z" />
<glyph unicode="&#xa9;" horiz-adv-x="1470" d="M70 639q0 137 52 261t141 214.5t212 143.5t260 53q182 0 335.5 -90t242 -244.5t88.5 -337.5t-88.5 -337t-242 -243.5t-335.5 -89.5q-137 0 -260 53t-212 142.5t-141 213.5t-52 261zM178 639q0 -156 73 -289.5t201.5 -213t282.5 -79.5t282.5 79.5t201.5 213t73 289.5 t-73 290t-201.5 214t-282.5 80t-282.5 -80t-201.5 -214t-73 -290zM446 629q0 168 86 260q84 90 234 90q33 0 62.5 -4t64 -10t57.5 -9q0 -76 4 -190h-34q-8 69 -46.5 111.5t-105.5 42.5q-89 0 -136.5 -74.5t-47.5 -204.5t46.5 -202t135.5 -72q101 0 182 90l33 -31 q-96 -141 -254 -141q-130 0 -205.5 92t-75.5 252z" />
<glyph unicode="&#xaa;" horiz-adv-x="643" d="M57 694q0 96 85 145.5t214 49.5h41v16q0 75 -26 101q-24 24 -72 24q-51 0 -91.5 -25t-62.5 -69l-53 27q29 67 88 107t142 40q104 0 159 -55q49 -52 49 -168v-244q0 -49 39 -49q21 0 37 8v-41q-43 -37 -102 -37q-43 0 -68 18.5t-30 47.5q-70 -70 -162 -70q-91 0 -142 51 q-45 48 -45 123zM201 702q0 -51 25.5 -78.5t68.5 -27.5q60 0 102 49v193h-28q-79 0 -123.5 -35t-44.5 -101z" />
<glyph unicode="&#xab;" horiz-adv-x="802" d="M98 444l260 322l41 -37l-155 -287l162 -284l-48 -37zM401 444l261 322l40 -37l-155 -287l162 -284l-47 -37z" />
<glyph unicode="&#xac;" horiz-adv-x="901" d="M109 555v100h682v-403h-101v303h-581z" />
<glyph unicode="&#xad;" horiz-adv-x="653" d="M82 428v92h489v-92h-489z" />
<glyph unicode="&#xae;" horiz-adv-x="1470" d="M70 639q0 137 52 261t141 214.5t212 143.5t260 53q182 0 335.5 -90t242 -244.5t88.5 -337.5t-88.5 -337t-242 -243.5t-335.5 -89.5q-137 0 -260 53t-212 142.5t-141 213.5t-52 261zM178 639q0 -156 73 -289.5t201.5 -213t282.5 -79.5t282.5 79.5t201.5 213t73 289.5 t-73 290t-201.5 214t-282.5 80t-282.5 -80t-201.5 -214t-73 -290zM440 934v29h262q269 0 269 -185q0 -60 -35.5 -102.5t-97.5 -65.5q61 -16 88 -88l37 -96q20 -52 39 -69.5t65 -28.5v-27h-211q0 43 -25 107l-38 102q-17 41 -40.5 54.5t-70.5 13.5h-33v-181q0 -33 13 -46.5 t57 -22.5v-27q-21 0 -61.5 1t-63.5 1q-22 0 -70.5 -1t-72.5 -1v27l67 20v520q0 32 -13.5 44t-64.5 22zM649 625h25q164 0 164 145q0 73 -43 106t-133 33h-13v-284z" />
<glyph unicode="&#xaf;" horiz-adv-x="542" d="M41 1090v94h461v-94h-461z" />
<glyph unicode="&#xb0;" horiz-adv-x="638" d="M61 1063q0 113 71.5 183.5t186.5 70.5t187 -70.5t72 -183.5t-72 -183.5t-187 -70.5t-186.5 70.5t-71.5 183.5zM164 1063q0 -73 42.5 -121.5t112.5 -48.5t113 49t43 121t-43 121t-113 49t-112.5 -48.5t-42.5 -121.5z" />
<glyph unicode="&#xb1;" horiz-adv-x="901" d="M109 0v100h682v-100h-682zM109 543v100h290v291h101v-291h291v-100h-291v-291h-101v291h-290z" />
<glyph unicode="&#xb2;" horiz-adv-x="643" d="M98 756v59q26 38 82.5 105t98 117t75 119t33.5 130q0 78 -29 114t-71 36q-38 0 -72.5 -27t-58.5 -72l-58 27q33 74 90.5 113t130.5 39q38 0 74 -12t69 -37t53 -71.5t20 -107.5q0 -63 -35.5 -124t-79.5 -101.5t-105 -96.5t-92 -96h178q52 0 74 19q23 20 37 57h37 q-25 -88 -45 -190h-406z" />
<glyph unicode="&#xb3;" horiz-adv-x="643" d="M111 842q0 26 18 46.5t43 20.5q17 0 31 -16.5t23.5 -35.5t27 -35.5t41.5 -16.5q52 0 81.5 49.5t29.5 108.5q0 83 -54 126.5t-135 43.5v47q64 6 113 52.5t49 108.5q0 44 -23.5 69.5t-64.5 25.5q-37 0 -69.5 -22t-51.5 -58l-53 20q26 65 82.5 102.5t122.5 37.5 q78 0 137 -45t59 -130q0 -52 -38.5 -93.5t-104.5 -67.5q80 -19 128 -73.5t48 -131.5q0 -90 -70 -160t-188 -70q-80 0 -131 27t-51 70z" />
<glyph unicode="&#xb4;" horiz-adv-x="542" d="M74 1028l245 248q20 20 35 20t29 -14l70 -70v-20l-361 -186z" />
<glyph unicode="&#xb5;" horiz-adv-x="1099" d="M35 872v37q218 0 297 13v-588q0 -83 10 -127.5t35 -73.5q42 -51 115 -51q66 0 137 41q61 36 114 100v533q0 40 -12 62t-41 32l-65 22v37q218 0 297 13v-750q0 -50 21 -77t58 -27q38 0 66 14v-43q-64 -64 -156 -64q-66 0 -109 38.5t-52 107.5q-60 -66 -145 -109t-169 -43 q-135 0 -213 84q6 -59 21 -163t18 -156q3 -43 -1 -72t-24 -50.5t-57 -21.5q-50 0 -66.5 37.5t-11.5 106.5q2 36 26 216.5t26 336.5v469q0 40 -12.5 62t-41.5 32z" />
<glyph unicode="&#xb6;" horiz-adv-x="1044" d="M90 944q0 65 26 124.5t74 107t125 76t170 28.5h467v-41l-145 -49v-1407h-96v1407h-129v-1407h-97v827q-170 0 -282.5 91.5t-112.5 242.5z" />
<glyph unicode="&#xb7;" horiz-adv-x="421" d="M104 453q0 44 31 74t76 30q44 0 75 -30t31 -74t-31 -74.5t-75 -30.5t-75.5 30.5t-31.5 74.5z" />
<glyph unicode="&#xb8;" horiz-adv-x="542" d="M102 -424q100 8 158.5 49t58.5 109q0 82 -122 98q-38 5 -29 35l53 166h86l-41 -133q83 -14 134 -59t51 -107q0 -80 -91 -143.5t-245 -63.5z" />
<glyph unicode="&#xb9;" horiz-adv-x="643" d="M154 1442v35q55 0 113 9.5t87 24.5h47v-671q0 -18 8 -26t29 -11l72 -12v-35q-35 2 -178 2q-31 0 -96 -1t-74 -1v35l102 24v565q0 21 -6.5 30t-28.5 15z" />
<glyph unicode="&#xba;" horiz-adv-x="659" d="M45 815q0 133 78.5 214t206.5 81t206 -81t78 -214t-78 -214t-206 -81t-206.5 81t-78.5 214zM193 815q0 -107 36 -167t101 -60t101 60t36 167t-36 168t-101 61t-101 -61t-36 -168z" />
<glyph unicode="&#xbb;" horiz-adv-x="802" d="M94 158l162 284l-156 287l41 37l260 -322l-260 -323zM397 158l162 284l-156 287l41 37l261 -322l-261 -323z" />
<glyph unicode="&#xbc;" horiz-adv-x="1556" d="M135 1217v34q55 0 113.5 10t87.5 25h47v-672q0 -18 8 -25.5t29 -10.5l72 -13v-35q-35 2 -179 2q-31 0 -96 -1t-74 -1v35l103 25v565q0 21 -6.5 30t-28.5 15zM360 -31l732 1342h94l-731 -1342h-95zM868 195v38l361 521h76v-475h110v-84h-110v-109q0 -20 7 -27t29 -12 l52 -12v-35q-35 2 -156 2q-31 0 -90 -1t-68 -1v35l90 24v136h-301zM971 279h198v286z" />
<glyph unicode="&#xbd;" horiz-adv-x="1556" d="M127 1217v34q55 0 113.5 10t87.5 25h47v-672q0 -18 8 -25.5t29 -10.5l71 -13v-35q-35 2 -178 2q-31 0 -96 -1t-74 -1v35l103 25v565q0 21 -6.5 30t-28.5 15zM352 -31l731 1342h95l-732 -1342h-94zM958 0v59q26 38 82.5 105t98 117t75 119t33.5 130q0 78 -29 114t-71 36 q-38 0 -72.5 -26.5t-58.5 -71.5l-58 26q33 74 91 113t131 39q38 0 74 -12t68.5 -37t52.5 -71.5t20 -107.5q0 -63 -35.5 -124t-79.5 -101.5t-105 -96t-92 -95.5h179q52 0 73 18q23 20 37 57h37q-25 -88 -45 -190h-406z" />
<glyph unicode="&#xbe;" horiz-adv-x="1556" d="M119 616q0 27 18.5 47.5t42.5 20.5q17 0 31 -16t23.5 -36t27 -36t41.5 -16q52 0 81.5 49t29.5 108q0 83 -54 126.5t-135 43.5v47q64 6 113 53t49 109q0 44 -23.5 69t-64.5 25q-37 0 -69.5 -22t-51.5 -58l-53 21q26 65 82.5 102t122.5 37q79 0 137.5 -44.5t58.5 -129.5 q0 -52 -38.5 -94t-104.5 -68q80 -19 128 -73.5t48 -130.5q0 -90 -70 -160t-188 -70q-80 0 -131 26.5t-51 69.5zM403 -31l732 1342h94l-731 -1342h-95zM911 195v38l361 521h76v-475h110v-84h-110v-109q0 -20 7 -27t29 -12l52 -12v-35q-35 2 -156 2q-31 0 -90 -1t-68 -1v35 l90 24v136h-301zM1014 279h198v286z" />
<glyph unicode="&#xbf;" horiz-adv-x="755" d="M82 -86q0 57 20 112t51 99t69.5 98t74.5 105.5t67 126.5t46 157h61q-6 -81 -29 -163t-52 -147t-57.5 -128t-47.5 -128.5t-19 -125.5q0 -100 48 -157.5t126 -57.5q62 0 120.5 34.5t101.5 92.5l51 -39q-55 -92 -136.5 -142t-181.5 -50q-136 0 -224.5 84.5t-88.5 228.5z M334 838q0 44 31 74t75 30q45 0 76 -30t31 -74t-31.5 -74.5t-75.5 -30.5t-75 30.5t-31 74.5z" />
<glyph unicode="&#xc0;" horiz-adv-x="1292" d="M16 0v41l136 41l462 1198h60l436 -1124q19 -45 37.5 -64.5t52.5 -30.5l68 -20v-41q-23 0 -111 3t-119 3q-33 0 -123.5 -3t-115.5 -3v41l141 41l-145 377h-392l-118 -307q-9 -27 -9 -37q0 -15 9 -25.5t21.5 -16t35.5 -12.5q47 -14 82 -20v-41q-23 0 -91.5 3t-99.5 3 q-33 0 -112.5 -3t-104.5 -3zM430 535h336l-170 436zM442 1516v20l66 66q16 16 31 16q14 0 36 -19l277 -221l-12 -24z" />
<glyph unicode="&#xc1;" horiz-adv-x="1292" d="M16 0v41l136 41l462 1198h60l436 -1124q19 -45 37.5 -64.5t52.5 -30.5l68 -20v-41q-23 0 -111 3t-119 3q-33 0 -123.5 -3t-115.5 -3v41l141 41l-145 377h-392l-118 -307q-9 -27 -9 -37q0 -15 9 -25.5t21.5 -16t35.5 -12.5q47 -14 82 -20v-41q-23 0 -91.5 3t-99.5 3 q-33 0 -112.5 -3t-104.5 -3zM428 1378l277 221q22 19 36 19q15 0 31 -16l66 -66v-20l-398 -162zM430 535h336l-170 436z" />
<glyph unicode="&#xc2;" horiz-adv-x="1292" d="M16 0v41l136 41l462 1198h60l436 -1124q19 -45 37.5 -64.5t52.5 -30.5l68 -20v-41q-23 0 -111 3t-119 3q-33 0 -123.5 -3t-115.5 -3v41l141 41l-145 377h-392l-118 -307q-9 -27 -9 -37q0 -15 9 -25.5t21.5 -16t35.5 -12.5q47 -14 82 -20v-41q-23 0 -91.5 3t-99.5 3 q-33 0 -112.5 -3t-104.5 -3zM401 1399l191 221h92l193 -221l-23 -21l-215 127l-215 -127zM430 535h336l-170 436z" />
<glyph unicode="&#xc3;" horiz-adv-x="1292" d="M16 0v41l136 41l462 1198h60l436 -1124q19 -45 37.5 -64.5t52.5 -30.5l68 -20v-41q-23 0 -111 3t-119 3q-33 0 -123.5 -3t-115.5 -3v41l141 41l-145 377h-392l-118 -307q-9 -27 -9 -37q0 -15 9 -25.5t21.5 -16t35.5 -12.5q47 -14 82 -20v-41q-23 0 -91.5 3t-99.5 3 q-33 0 -112.5 -3t-104.5 -3zM385 1436q10 99 48 139.5t99 40.5q42 0 125.5 -34t120.5 -34q31 0 50.5 14.5t31.5 49.5l39 -4q-10 -99 -48 -140t-99 -41q-42 0 -125.5 34t-120.5 34q-61 0 -82 -63zM430 535h336l-170 436z" />
<glyph unicode="&#xc4;" horiz-adv-x="1292" d="M16 0v41l136 41l462 1198h60l436 -1124q19 -45 37.5 -64.5t52.5 -30.5l68 -20v-41q-23 0 -111 3t-119 3q-33 0 -123.5 -3t-115.5 -3v41l141 41l-145 377h-392l-118 -307q-9 -27 -9 -37q0 -15 9 -25.5t21.5 -16t35.5 -12.5q47 -14 82 -20v-41q-23 0 -91.5 3t-99.5 3 q-33 0 -112.5 -3t-104.5 -3zM377 1511q0 38 29 66.5t69 28.5q38 0 67 -28.5t29 -66.5t-29 -67t-67 -29q-40 0 -69 29t-29 67zM430 535h336l-170 436zM694 1511q0 38 29.5 66.5t67.5 28.5q40 0 69 -28.5t29 -66.5t-29 -67t-69 -29q-38 0 -67.5 29t-29.5 67z" />
<glyph unicode="&#xc5;" horiz-adv-x="1292" d="M16 0v41l136 41l462 1198h60l436 -1124q19 -45 37.5 -64.5t52.5 -30.5l68 -20v-41q-23 0 -111 3t-119 3q-33 0 -123.5 -3t-115.5 -3v41l141 41l-145 377h-392l-118 -307q-9 -27 -9 -37q0 -15 9 -25.5t21.5 -16t35.5 -12.5q47 -14 82 -20v-41q-23 0 -91.5 3t-99.5 3 q-33 0 -112.5 -3t-104.5 -3zM430 535h336l-170 436zM467 1536q0 70 49.5 120t120.5 50t120.5 -49t49.5 -119t-49.5 -120t-120.5 -50t-120.5 49t-49.5 119zM549 1536q0 -43 25 -69.5t63 -26.5q37 0 62.5 27.5t25.5 70.5t-25 69.5t-63 26.5q-37 0 -62.5 -27.5t-25.5 -70.5z " />
<glyph unicode="&#xc6;" horiz-adv-x="1736" d="M-29 0v41l144 43l577 1038q17 31 17 49q0 57 -134 68v41h1020q7 -146 35 -303h-53q-37 132 -98 176q-70 51 -258 51h-187v-506h140q47 0 140.5 5t108.5 10l-10 -103q-17 4 -109 8.5t-130 4.5h-140v-463q0 -52 43 -67t168 -15q132 0 190 10t87 31q56 41 88 182h45 q-15 -154 -15 -301h-925v41l131 41v541h-320l-262 -471q-10 -20 -10 -37q0 -40 63 -54l82 -20v-41q-23 0 -91 3t-99 3q-33 0 -123 -3t-115 -3zM567 698h279v498z" />
<glyph unicode="&#xc7;" horiz-adv-x="1171" d="M82 643q0 156 48 284t130 211t190.5 128t231.5 45q87 0 213.5 -20t140.5 -21q16 -299 21 -334h-49q-22 146 -108 215.5t-206 69.5q-180 0 -289.5 -159.5t-109.5 -418.5q0 -265 110 -413t281 -148q218 0 358 188l60 -45q-69 -110 -180 -178.5t-252 -75.5l-21 -71 q83 -14 134 -59t51 -107q0 -80 -91 -143.5t-245 -63.5l-13 49q100 8 159 49t59 109q0 82 -123 98q-38 5 -29 35l33 104q-236 21 -370 203.5t-134 468.5z" />
<glyph unicode="&#xc8;" horiz-adv-x="1116" d="M86 1239v41h889q4 -165 22 -303h-49q-25 131 -84 174q-70 51 -258 51q-90 0 -192 -4v-500h139q47 0 141 5t109 10l-10 -105q-17 4 -109.5 8.5t-130.5 4.5h-139v-459q0 -52 41.5 -67t165.5 -15q133 0 192 10t88 31q61 45 92 180h41q-12 -140 -12 -301h-928v41l131 41v1046 q0 54 -29.5 75.5t-109.5 35.5zM360 1516v20l66 66q16 16 31 16t37 -19l276 -221l-12 -24z" />
<glyph unicode="&#xc9;" horiz-adv-x="1116" d="M86 1239v41h889q4 -165 22 -303h-49q-25 131 -84 174q-70 51 -258 51q-90 0 -192 -4v-500h139q47 0 141 5t109 10l-10 -105q-17 4 -109.5 8.5t-130.5 4.5h-139v-459q0 -52 41.5 -67t165.5 -15q133 0 192 10t88 31q61 45 92 180h41q-12 -140 -12 -301h-928v41l131 41v1046 q0 54 -29.5 75.5t-109.5 35.5zM387 1378l277 221q22 19 36 19q15 0 31 -16l66 -66v-20l-398 -162z" />
<glyph unicode="&#xca;" horiz-adv-x="1116" d="M86 1239v41h889q4 -165 22 -303h-49q-25 131 -84 174q-70 51 -258 51q-90 0 -192 -4v-500h139q47 0 141 5t109 10l-10 -105q-17 4 -109.5 8.5t-130.5 4.5h-139v-459q0 -52 41.5 -67t165.5 -15q133 0 192 10t88 31q61 45 92 180h41q-12 -140 -12 -301h-928v41l131 41v1046 q0 54 -29.5 75.5t-109.5 35.5zM346 1399l191 221h92l192 -221l-22 -21l-215 127l-215 -127z" />
<glyph unicode="&#xcb;" horiz-adv-x="1116" d="M86 1239v41h889q4 -165 22 -303h-49q-25 131 -84 174q-70 51 -258 51q-90 0 -192 -4v-500h139q47 0 141 5t109 10l-10 -105q-17 4 -109.5 8.5t-130.5 4.5h-139v-459q0 -52 41.5 -67t165.5 -15q133 0 192 10t88 31q61 45 92 180h41q-12 -140 -12 -301h-928v41l131 41v1046 q0 54 -29.5 75.5t-109.5 35.5zM322 1511q0 38 29 66.5t69 28.5q38 0 67 -28.5t29 -66.5t-29 -67t-67 -29q-40 0 -69 29t-29 67zM639 1511q0 38 29 66.5t67 28.5q40 0 69.5 -28.5t29.5 -66.5t-29.5 -67t-69.5 -29q-38 0 -67 29t-29 67z" />
<glyph unicode="&#xcc;" horiz-adv-x="649" d="M92 1239v41q23 0 105.5 -3t113.5 -3q33 0 121 3t113 3v-41l-125 -43v-1040q0 -44 13.5 -64.5t43.5 -30.5q30 -9 80 -20v-41q-23 0 -107.5 3t-115.5 3q-33 0 -121 -3t-113 -3v41l131 41v1038q0 44 -14 66t-43 31q-51 15 -82 22zM123 1516v20l65 66q16 16 31 16t37 -19 l276 -221l-12 -24z" />
<glyph unicode="&#xcd;" horiz-adv-x="649" d="M92 1239v41q23 0 105.5 -3t113.5 -3q33 0 121 3t113 3v-41l-125 -43v-1040q0 -44 13.5 -64.5t43.5 -30.5q30 -9 80 -20v-41q-23 0 -107.5 3t-115.5 3q-33 0 -121 -3t-113 -3v41l131 41v1038q0 44 -14 66t-43 31q-51 15 -82 22zM102 1378l277 221q22 19 37 19q14 0 30 -16 l66 -66v-20l-397 -162z" />
<glyph unicode="&#xce;" horiz-adv-x="649" d="M86 1399l190 221h93l192 -221l-22 -21l-215 127l-215 -127zM92 1239v41q23 0 105.5 -3t113.5 -3q33 0 121 3t113 3v-41l-125 -43v-1040q0 -44 13.5 -64.5t43.5 -30.5q30 -9 80 -20v-41q-23 0 -107.5 3t-115.5 3q-33 0 -121 -3t-113 -3v41l131 41v1038q0 44 -14 66t-43 31 q-51 15 -82 22z" />
<glyph unicode="&#xcf;" horiz-adv-x="649" d="M68 1511q0 38 29 66.5t69 28.5q38 0 67 -28.5t29 -66.5t-29 -67t-67 -29q-40 0 -69 29t-29 67zM92 1239v41q23 0 105.5 -3t113.5 -3q33 0 121 3t113 3v-41l-125 -43v-1040q0 -44 13.5 -64.5t43.5 -30.5q30 -9 80 -20v-41q-23 0 -107.5 3t-115.5 3q-33 0 -121 -3t-113 -3 v41l131 41v1038q0 44 -14 66t-43 31q-51 15 -82 22zM385 1511q0 38 29 66.5t67 28.5q40 0 69.5 -28.5t29.5 -66.5t-29.5 -67t-69.5 -29q-38 0 -67 29t-29 67z" />
<glyph unicode="&#xd0;" horiz-adv-x="1325" d="M84 612v88h139v428q0 54 -29 75.5t-108 35.5v41h424q735 0 735 -647q0 -124 -35 -244t-112 -211q-151 -178 -475 -178h-529v41l129 41v530h-139zM414 166q0 -46 38 -65t136 -19q116 0 203.5 43t139.5 119.5t77.5 174t25.5 214.5q0 278 -119.5 419.5t-394.5 141.5h-106 v-494h221v-88h-221v-446z" />
<glyph unicode="&#xd1;" horiz-adv-x="1439" d="M80 1239v41h293l751 -965v811q0 45 -12.5 62.5t-46.5 28.5q-43 14 -80 22v41q23 0 90.5 -3t98.5 -3q33 0 96 3t88 3v-41l-127 -43v-1204h-88l-809 1038v-874q0 -44 14.5 -64.5t44.5 -30.5q36 -11 78 -20v-41q-23 0 -88 3t-96 3q-33 0 -102.5 -3t-94.5 -3v41l135 41v1040 q0 46 -15.5 65.5t-47.5 29.5q-39 12 -82 22zM463 1436q10 99 48 139.5t99 40.5q42 0 125.5 -34t120.5 -34q31 0 50.5 14.5t31.5 49.5l39 -4q-18 -181 -148 -181q-42 0 -125 34t-120 34q-61 0 -82 -63z" />
<glyph unicode="&#xd2;" horiz-adv-x="1282" d="M82 641q0 132 35 250.5t102.5 213t177 150.5t246.5 56q110 0 203 -36.5t157.5 -100t109.5 -149t66 -182.5t21 -202t-21.5 -202t-67 -183t-111 -149.5t-158.5 -100.5t-203 -37t-203 37t-157.5 100.5t-109.5 149.5t-66 183t-21 202zM295 641q0 -71 8.5 -143.5t32.5 -153.5 t61 -142.5t99.5 -102t142.5 -40.5t143 40.5t100.5 102t62 142.5t33.5 153.5t9 143.5q0 58 -6.5 118t-20.5 127.5t-40.5 125.5t-63 106t-91.5 75.5t-122 27.5q-80 0 -143 -40t-100.5 -101.5t-62 -142t-33.5 -153t-9 -143.5zM446 1516v20l66 66q16 16 31 16t37 -19l276 -221 l-12 -24z" />
<glyph unicode="&#xd3;" horiz-adv-x="1282" d="M82 641q0 132 35 250.5t102.5 213t177 150.5t246.5 56q110 0 203 -36.5t157.5 -100t109.5 -149t66 -182.5t21 -202t-21.5 -202t-67 -183t-111 -149.5t-158.5 -100.5t-203 -37t-203 37t-157.5 100.5t-109.5 149.5t-66 183t-21 202zM295 641q0 -71 8.5 -143.5t32.5 -153.5 t61 -142.5t99.5 -102t142.5 -40.5t143 40.5t100.5 102t62 142.5t33.5 153.5t9 143.5q0 58 -6.5 118t-20.5 127.5t-40.5 125.5t-63 106t-91.5 75.5t-122 27.5q-80 0 -143 -40t-100.5 -101.5t-62 -142t-33.5 -153t-9 -143.5zM428 1378l277 221q22 19 36 19q15 0 31 -16l66 -66 v-20l-398 -162z" />
<glyph unicode="&#xd4;" horiz-adv-x="1282" d="M82 641q0 132 35 250.5t102.5 213t177 150.5t246.5 56q110 0 203 -36.5t157.5 -100t109.5 -149t66 -182.5t21 -202t-21.5 -202t-67 -183t-111 -149.5t-158.5 -100.5t-203 -37t-203 37t-157.5 100.5t-109.5 149.5t-66 183t-21 202zM295 641q0 -71 8.5 -143.5t32.5 -153.5 t61 -142.5t99.5 -102t142.5 -40.5t143 40.5t100.5 102t62 142.5t33.5 153.5t9 143.5q0 58 -6.5 118t-20.5 127.5t-40.5 125.5t-63 106t-91.5 75.5t-122 27.5q-80 0 -143 -40t-100.5 -101.5t-62 -142t-33.5 -153t-9 -143.5zM403 1399l191 221h92l193 -221l-23 -21l-215 127 l-215 -127z" />
<glyph unicode="&#xd5;" horiz-adv-x="1282" d="M82 641q0 132 35 250.5t102.5 213t177 150.5t246.5 56q110 0 203 -36.5t157.5 -100t109.5 -149t66 -182.5t21 -202t-21.5 -202t-67 -183t-111 -149.5t-158.5 -100.5t-203 -37t-203 37t-157.5 100.5t-109.5 149.5t-66 183t-21 202zM295 641q0 -71 8.5 -143.5t32.5 -153.5 t61 -142.5t99.5 -102t142.5 -40.5t143 40.5t100.5 102t62 142.5t33.5 153.5t9 143.5q0 58 -6.5 118t-20.5 127.5t-40.5 125.5t-63 106t-91.5 75.5t-122 27.5q-80 0 -143 -40t-100.5 -101.5t-62 -142t-33.5 -153t-9 -143.5zM383 1436q10 99 48 139.5t99 40.5q42 0 125.5 -34 t120.5 -34q31 0 50.5 14.5t31.5 49.5l39 -4q-10 -99 -48 -140t-99 -41q-42 0 -125.5 34t-120.5 34q-61 0 -82 -63z" />
<glyph unicode="&#xd6;" horiz-adv-x="1282" d="M82 641q0 132 35 250.5t102.5 213t177 150.5t246.5 56q110 0 203 -36.5t157.5 -100t109.5 -149t66 -182.5t21 -202t-21.5 -202t-67 -183t-111 -149.5t-158.5 -100.5t-203 -37t-203 37t-157.5 100.5t-109.5 149.5t-66 183t-21 202zM295 641q0 -71 8.5 -143.5t32.5 -153.5 t61 -142.5t99.5 -102t142.5 -40.5t143 40.5t100.5 102t62 142.5t33.5 153.5t9 143.5q0 58 -6.5 118t-20.5 127.5t-40.5 125.5t-63 106t-91.5 75.5t-122 27.5q-80 0 -143 -40t-100.5 -101.5t-62 -142t-33.5 -153t-9 -143.5zM385 1511q0 38 29 66.5t69 28.5q38 0 67.5 -28.5 t29.5 -66.5t-29.5 -67t-67.5 -29q-40 0 -69 29t-29 67zM702 1511q0 38 29.5 66.5t67.5 28.5q40 0 69 -28.5t29 -66.5t-29 -67t-69 -29q-38 0 -67.5 29t-29.5 67z" />
<glyph unicode="&#xd7;" horiz-adv-x="901" d="M174 248l205 205l-205 204l72 72l205 -205l204 205l72 -72l-205 -204l205 -205l-72 -72l-204 205l-205 -205z" />
<glyph unicode="&#xd8;" horiz-adv-x="1282" d="M82 641q0 132 35 250.5t102.5 213t177 150.5t246.5 56q129 0 240 -54l57 115h109l-82 -168q115 -89 174 -239t59 -324q0 -105 -21.5 -202t-67 -183t-111 -149.5t-158.5 -100.5t-203 -37q-137 0 -254 60l-59 -121h-109l86 176q-109 92 -165 239.5t-56 317.5zM295 641 q0 -241 84 -405l450 911q-81 74 -186 74q-80 0 -143 -40t-100.5 -101.5t-62 -142t-33.5 -153t-9 -143.5zM442 143q81 -84 197 -84q80 0 143 40.5t100.5 102t62 142.5t33.5 153.5t9 143.5q0 107 -22 220.5t-70 199.5z" />
<glyph unicode="&#xd9;" horiz-adv-x="1318" d="M61 1241v39q23 0 106 -3t114 -3q33 0 120.5 3t112.5 3v-39l-125 -43v-698q0 -225 82 -332q77 -100 231 -100q163 0 242 116q78 113 78 332v606q0 42 -16.5 63.5t-47.5 33.5q-39 14 -73 22v39q23 0 88 -3t96 -3q33 0 96 3t88 3v-39l-125 -43v-698q0 -275 -120 -404 q-118 -127 -340 -127q-213 0 -330 111q-137 128 -137 395v647q0 44 -14.5 65.5t-43.5 31.5q-51 15 -82 22zM481 1516v20l66 66q16 16 31 16q14 0 36 -19l277 -221l-12 -24z" />
<glyph unicode="&#xda;" horiz-adv-x="1318" d="M61 1241v39q23 0 106 -3t114 -3q33 0 120.5 3t112.5 3v-39l-125 -43v-698q0 -225 82 -332q77 -100 231 -100q163 0 242 116q78 113 78 332v606q0 42 -16.5 63.5t-47.5 33.5q-39 14 -73 22v39q23 0 88 -3t96 -3q33 0 96 3t88 3v-39l-125 -43v-698q0 -275 -120 -404 q-118 -127 -340 -127q-213 0 -330 111q-137 128 -137 395v647q0 44 -14.5 65.5t-43.5 31.5q-51 15 -82 22zM506 1378l276 221q22 19 37 19t31 -16l65 -66v-20l-397 -162z" />
<glyph unicode="&#xdb;" horiz-adv-x="1318" d="M61 1241v39q23 0 106 -3t114 -3q33 0 120.5 3t112.5 3v-39l-125 -43v-698q0 -225 82 -332q77 -100 231 -100q163 0 242 116q78 113 78 332v606q0 42 -16.5 63.5t-47.5 33.5q-39 14 -73 22v39q23 0 88 -3t96 -3q33 0 96 3t88 3v-39l-125 -43v-698q0 -275 -120 -404 q-118 -127 -340 -127q-213 0 -330 111q-137 128 -137 395v647q0 44 -14.5 65.5t-43.5 31.5q-51 15 -82 22zM459 1399l190 221h92l193 -221l-23 -21l-215 127l-215 -127z" />
<glyph unicode="&#xdc;" horiz-adv-x="1318" d="M61 1241v39q23 0 106 -3t114 -3q33 0 120.5 3t112.5 3v-39l-125 -43v-698q0 -225 82 -332q77 -100 231 -100q163 0 242 116q78 113 78 332v606q0 42 -16.5 63.5t-47.5 33.5q-39 14 -73 22v39q23 0 88 -3t96 -3q33 0 96 3t88 3v-39l-125 -43v-698q0 -275 -120 -404 q-118 -127 -340 -127q-213 0 -330 111q-137 128 -137 395v647q0 44 -14.5 65.5t-43.5 31.5q-51 15 -82 22zM434 1511q0 38 29 66.5t69 28.5q38 0 67.5 -28.5t29.5 -66.5t-29.5 -67t-67.5 -29q-40 0 -69 29t-29 67zM752 1511q0 38 29 66.5t67 28.5q40 0 69 -28.5t29 -66.5 t-29 -67t-69 -29q-38 0 -67 29t-29 67z" />
<glyph unicode="&#xdd;" horiz-adv-x="1153" d="M4 1245v35q93 -6 205 -6q115 0 244 6v-35l-127 -33l311 -583l281 581l-119 33v37q139 -6 188 -6q23 0 83 3t79 3v-37q-43 -6 -71.5 -15.5t-48 -29t-28.5 -35t-26 -49.5l-295 -610v-348q0 -44 13.5 -64.5t43.5 -30.5q30 -9 80 -20v-41q-23 0 -107.5 3t-115.5 3 q-33 0 -121 -3t-113 -3v41l132 41v420l-336 631q-25 49 -59 72.5t-93 39.5zM410 1378l276 221q22 19 37 19t31 -16l65 -66v-20l-397 -162z" />
<glyph unicode="&#xde;" horiz-adv-x="1112" d="M86 1239v41q23 0 105.5 -3t113.5 -3q33 0 121 3t113 3v-41l-125 -43v-172h108q135 0 223 -23q133 -35 207 -123t74 -225q0 -168 -126.5 -275.5t-362.5 -107.5h-123v-114q0 -44 13.5 -64.5t43.5 -30.5q30 -9 80 -20v-41q-23 0 -107.5 3t-115.5 3q-33 0 -121 -3t-113 -3v41 l131 41v1038q0 44 -14 66t-43 31zM414 346h78q321 0 321 299q0 83 -25 143t-69 92.5t-95.5 47t-113.5 14.5h-96v-596z" />
<glyph unicode="&#xdf;" horiz-adv-x="1208" d="M51 836v73h148v70q0 203 105.5 308.5t281.5 105.5q151 0 249.5 -73t98.5 -212q0 -44 -14.5 -83t-38 -68t-52 -55.5t-57 -50.5t-52 -47t-38 -51t-14.5 -57q0 -39 34 -71.5t85 -54t110 -50t110 -59.5t85 -84t34 -121q0 -131 -93 -209t-245 -78q-131 0 -270 54v249h39 q15 -105 79 -165t163 -60q74 0 122 37t48 106q0 43 -19 76.5t-50.5 54.5t-72 41t-82 36t-82 39.5t-72 50.5t-50.5 71t-19 100q0 53 26 102.5t63.5 88t75 77.5t63.5 87t26 100q0 88 -50 146.5t-138 58.5q-100 0 -155.5 -74t-55.5 -217v-1028h-295v37l117 41v758h-148z" />
<glyph unicode="&#xe0;" horiz-adv-x="954" d="M98 248q0 84 40 147t111.5 99.5t160 53.5t194.5 17v84q0 197 -160 197q-158 0 -231 -195l-78 31q41 119 131.5 189.5t231.5 70.5q186 0 254 -135q14 -27 21 -66t8 -69.5t1 -83.5v-434q0 -86 64 -86q32 0 63 14v-43q-28 -28 -70 -46t-83 -18q-47 0 -86 21.5t-52 64.5 q-37 -38 -99.5 -65t-131.5 -27q-122 0 -205.5 75t-83.5 204zM285 264q0 -98 45.5 -148t115.5 -50q89 0 158 65v365h-16q-141 0 -222 -59.5t-81 -172.5zM295 1192v20l70 70q14 14 28 14q15 0 35 -20l246 -248l-19 -22z" />
<glyph unicode="&#xe1;" horiz-adv-x="954" d="M98 248q0 84 40 147t111.5 99.5t160 53.5t194.5 17v84q0 197 -160 197q-158 0 -231 -195l-78 31q41 119 131.5 189.5t231.5 70.5q186 0 254 -135q14 -27 21 -66t8 -69.5t1 -83.5v-434q0 -86 64 -86q32 0 63 14v-43q-28 -28 -70 -46t-83 -18q-47 0 -86 21.5t-52 64.5 q-37 -38 -99.5 -65t-131.5 -27q-122 0 -205.5 75t-83.5 204zM285 264q0 -98 45.5 -148t115.5 -50q89 0 158 65v365h-16q-141 0 -222 -59.5t-81 -172.5zM297 1028l246 248q20 20 35 20q14 0 28 -14l70 -70v-20l-361 -186z" />
<glyph unicode="&#xe2;" horiz-adv-x="954" d="M98 248q0 84 40 147t111.5 99.5t160 53.5t194.5 17v84q0 197 -160 197q-158 0 -231 -195l-78 31q41 119 131.5 189.5t231.5 70.5q186 0 254 -135q14 -27 21 -66t8 -69.5t1 -83.5v-434q0 -86 64 -86q32 0 63 14v-43q-28 -28 -70 -46t-83 -18q-47 0 -86 21.5t-52 64.5 q-37 -38 -99.5 -65t-131.5 -27q-122 0 -205.5 75t-83.5 204zM256 1049l180 262h92l183 -262l-29 -19l-199 162l-198 -162zM285 264q0 -98 45.5 -148t115.5 -50q89 0 158 65v365h-16q-141 0 -222 -59.5t-81 -172.5z" />
<glyph unicode="&#xe3;" horiz-adv-x="954" d="M98 248q0 84 40 147t111.5 99.5t160 53.5t194.5 17v84q0 197 -160 197q-158 0 -231 -195l-78 31q41 119 131.5 189.5t231.5 70.5q186 0 254 -135q14 -27 21 -66t8 -69.5t1 -83.5v-434q0 -86 64 -86q32 0 63 14v-43q-28 -28 -70 -46t-83 -18q-47 0 -86 21.5t-52 64.5 q-37 -38 -99.5 -65t-131.5 -27q-122 0 -205.5 75t-83.5 204zM223 1087q19 193 148 193q42 0 125 -38t120 -38q59 0 82 76l39 -4q-19 -193 -147 -193q-42 0 -125.5 38t-120.5 38q-59 0 -82 -76zM285 264q0 -98 45.5 -148t115.5 -50q89 0 158 65v365h-16q-141 0 -222 -59.5 t-81 -172.5z" />
<glyph unicode="&#xe4;" horiz-adv-x="954" d="M98 248q0 84 40 147t111.5 99.5t160 53.5t194.5 17v84q0 197 -160 197q-158 0 -231 -195l-78 31q41 119 131.5 189.5t231.5 70.5q186 0 254 -135q14 -27 21 -66t8 -69.5t1 -83.5v-434q0 -86 64 -86q32 0 63 14v-43q-28 -28 -70 -46t-83 -18q-47 0 -86 21.5t-52 64.5 q-37 -38 -99.5 -65t-131.5 -27q-122 0 -205.5 75t-83.5 204zM223 1182q0 38 29.5 66t69.5 28q38 0 67 -28t29 -66t-29 -67.5t-67 -29.5q-40 0 -69.5 29.5t-29.5 67.5zM285 264q0 -98 45.5 -148t115.5 -50q89 0 158 65v365h-16q-141 0 -222 -59.5t-81 -172.5zM541 1182 q0 38 29 66t67 28q40 0 69 -28t29 -66t-29.5 -67.5t-68.5 -29.5q-38 0 -67 29.5t-29 67.5z" />
<glyph unicode="&#xe5;" horiz-adv-x="954" d="M98 248q0 84 40 147t111.5 99.5t160 53.5t194.5 17v84q0 197 -160 197q-158 0 -231 -195l-78 31q41 119 131.5 189.5t231.5 70.5q186 0 254 -135q14 -27 21 -66t8 -69.5t1 -83.5v-434q0 -86 64 -86q32 0 63 14v-43q-28 -28 -70 -46t-83 -18q-47 0 -86 21.5t-52 64.5 q-37 -38 -99.5 -65t-131.5 -27q-122 0 -205.5 75t-83.5 204zM285 264q0 -98 45.5 -148t115.5 -50q89 0 158 65v365h-16q-141 0 -222 -59.5t-81 -172.5zM315 1186q0 70 49.5 120t120.5 50t120.5 -49t49.5 -119t-49.5 -120t-120.5 -50t-120.5 49t-49.5 119zM397 1186 q0 -43 25 -69.5t63 -26.5q37 0 62.5 27.5t25.5 70.5t-25 69.5t-63 26.5q-37 0 -62.5 -27.5t-25.5 -70.5z" />
<glyph unicode="&#xe6;" horiz-adv-x="1449" d="M98 248q0 84 40 147t111.5 99.5t160 53.5t194.5 17v60q0 108 -42.5 164.5t-117.5 56.5q-158 0 -231 -195l-78 31q41 119 131.5 189.5t231.5 70.5q82 0 145 -34t96 -95q44 60 113 94.5t152 34.5q171 0 269 -122.5t81 -332.5h-566q7 -205 81.5 -307t185.5 -102 q83 0 146.5 41.5t101.5 103.5l53 -45q-50 -91 -144.5 -150t-212.5 -59q-95 0 -174 38t-120 99q-51 -53 -133 -95t-185 -42q-122 0 -205.5 75t-83.5 204zM285 264q0 -96 52.5 -147t119.5 -51q62 0 106.5 23.5t102.5 84.5q-27 53 -44.5 137.5t-17.5 159.5v25h-16 q-141 0 -222 -59.5t-81 -172.5zM793 561h385q-2 141 -49 218t-134 77q-88 0 -140.5 -81t-61.5 -214z" />
<glyph unicode="&#xe7;" horiz-adv-x="890" d="M72 455q0 225 127 356t327 131q57 0 148 -13t104 -14q0 -58 10 -288h-45q-10 101 -57 159q-59 72 -166 72q-124 0 -192 -105.5t-68 -291.5q0 -184 76.5 -283.5t200.5 -99.5q79 0 143 40.5t102 104.5l52 -45q-41 -80 -126 -140t-198 -67l-21 -71q83 -14 134 -59t51 -107 q0 -80 -91 -143.5t-245 -63.5l-12 49q100 8 158.5 49t58.5 109q0 82 -123 98q-38 5 -29 35l33 106q-161 20 -256.5 149.5t-95.5 332.5z" />
<glyph unicode="&#xe8;" horiz-adv-x="921" d="M72 457q0 217 111 351t294 134q159 0 259 -106.5t100 -290.5q0 -38 -2 -58h-576q0 -198 71 -303.5t197 -105.5q83 0 146.5 42t101.5 105l53 -47q-50 -91 -144 -150t-212 -59q-82 0 -150 28t-113 75t-76.5 110.5t-45.5 132.5t-14 142zM262 561h395q-1 141 -50.5 218 t-137.5 77t-143 -81.5t-64 -213.5zM287 1192v20l69 70q14 14 29 14t35 -20l246 -248l-19 -22z" />
<glyph unicode="&#xe9;" horiz-adv-x="921" d="M72 457q0 217 111 351t294 134q159 0 259 -106.5t100 -290.5q0 -38 -2 -58h-576q0 -198 71 -303.5t197 -105.5q83 0 146.5 42t101.5 105l53 -47q-50 -91 -144 -150t-212 -59q-82 0 -150 28t-113 75t-76.5 110.5t-45.5 132.5t-14 142zM262 561h395q-1 141 -50.5 218 t-137.5 77t-143 -81.5t-64 -213.5zM270 1028l246 248q20 20 35 20t29 -14l69 -70v-20l-360 -186z" />
<glyph unicode="&#xea;" horiz-adv-x="921" d="M72 457q0 217 111 351t294 134q159 0 259 -106.5t100 -290.5q0 -38 -2 -58h-576q0 -198 71 -303.5t197 -105.5q83 0 146.5 42t101.5 105l53 -47q-50 -91 -144 -150t-212 -59q-82 0 -150 28t-113 75t-76.5 110.5t-45.5 132.5t-14 142zM236 1049l180 262h92l182 -262 l-28 -19l-199 162l-199 -162zM262 561h395q-1 141 -50.5 218t-137.5 77t-143 -81.5t-64 -213.5z" />
<glyph unicode="&#xeb;" horiz-adv-x="921" d="M72 457q0 217 111 351t294 134q159 0 259 -106.5t100 -290.5q0 -38 -2 -58h-576q0 -198 71 -303.5t197 -105.5q83 0 146.5 42t101.5 105l53 -47q-50 -91 -144 -150t-212 -59q-82 0 -150 28t-113 75t-76.5 110.5t-45.5 132.5t-14 142zM215 1182q0 38 29 66t69 28 q39 0 68 -28t29 -66t-29.5 -67.5t-67.5 -29.5q-39 0 -68.5 29.5t-29.5 67.5zM262 561h395q-1 141 -50.5 218t-137.5 77t-143 -81.5t-64 -213.5zM532 1182q0 38 29 66t68 28q40 0 69 -28t29 -66t-29.5 -67.5t-68.5 -29.5q-38 0 -67.5 29.5t-29.5 67.5z" />
<glyph unicode="&#xec;" horiz-adv-x="542" d="M66 1192v20l69 70q14 14 29 14t35 -20l245 -248l-18 -22zM68 872v37q210 0 297 11v-768q0 -40 12 -62.5t41 -32.5q23 -8 65 -20v-37q-108 6 -200 6q-9 0 -213 -6v37l116 41v676q0 43 -12.5 63.5t-42.5 32.5q-23 10 -63 22z" />
<glyph unicode="&#xed;" horiz-adv-x="542" d="M59 1028l246 248q20 20 35 20t29 -14l69 -70v-20l-360 -186zM68 872v37q210 0 297 11v-768q0 -40 12 -62.5t41 -32.5q23 -8 65 -20v-37q-108 6 -200 6q-9 0 -213 -6v37l116 41v676q0 43 -12.5 63.5t-42.5 32.5q-23 10 -63 22z" />
<glyph unicode="&#xee;" horiz-adv-x="542" d="M27 1049l180 262h92l182 -262l-28 -19l-199 162l-199 -162zM68 872v37q210 0 297 11v-768q0 -40 12 -62.5t41 -32.5q23 -8 65 -20v-37q-108 6 -200 6q-9 0 -213 -6v37l116 41v676q0 43 -12.5 63.5t-42.5 32.5q-23 10 -63 22z" />
<glyph unicode="&#xef;" horiz-adv-x="542" d="M-4 1182q0 38 29 66t69 28q38 0 67 -28t29 -66t-29 -67.5t-67 -29.5q-40 0 -69 29.5t-29 67.5zM68 872v37q210 0 297 11v-768q0 -40 12 -62.5t41 -32.5q23 -8 65 -20v-37q-108 6 -200 6q-9 0 -213 -6v37l116 41v676q0 43 -12.5 63.5t-42.5 32.5q-23 10 -63 22zM313 1182 q0 38 29 66t68 28q40 0 69 -28t29 -66t-29 -67.5t-69 -29.5q-38 0 -67.5 29.5t-29.5 67.5z" />
<glyph unicode="&#xf0;" horiz-adv-x="1005" d="M72 436q0 222 113 358t292 136q94 0 176 -45q-52 132 -114 221l-220 -53l-16 73l186 45q-77 99 -182 170l23 54q154 -61 286 -193l230 58l16 -74l-188 -47q117 -140 181.5 -318.5t64.5 -357.5q0 -138 -47 -248t-145 -178t-234 -68q-192 0 -307 127.5t-115 339.5zM260 438 q0 -172 61.5 -277.5t176.5 -105.5q116 0 174.5 102.5t58.5 280.5q0 185 -49 353q-73 45 -154 45q-132 0 -200 -103.5t-68 -294.5z" />
<glyph unicode="&#xf1;" horiz-adv-x="1124" d="M66 872v37q209 0 296 11v-132q61 69 143 111.5t167 42.5q70 0 129.5 -27t97.5 -79q34 -47 44.5 -108.5t10.5 -149.5v-426q0 -76 54 -95q23 -8 65 -20v-37q-108 6 -203 6q-7 0 -211 -6v37l117 41v495q0 84 -9.5 129t-33.5 74q-40 49 -117 49q-140 0 -254 -137v-536 q0 -76 54 -95q23 -8 65 -20v-37q-108 6 -200 6q-9 0 -213 -6v37l116 41v676q0 43 -12.5 63.5t-42.5 32.5q-23 10 -63 22zM309 1087q19 193 148 193q42 0 125 -38t120 -38q59 0 82 76l39 -4q-19 -193 -147 -193q-42 0 -125.5 38t-120.5 38q-59 0 -82 -76z" />
<glyph unicode="&#xf2;" horiz-adv-x="1024" d="M72 453q0 137 51 247t152.5 176t238.5 66t237.5 -66t150.5 -175.5t50 -247.5q0 -137 -51 -246t-152.5 -173.5t-238.5 -64.5t-237.5 64.5t-150.5 173t-50 246.5zM260 455q0 -54 6 -105.5t23.5 -106.5t44.5 -95.5t72.5 -66.5t103.5 -26q72 0 124.5 38t79 101t38.5 127.5 t12 133.5q0 54 -6 105.5t-23.5 107t-44.5 96t-72.5 66.5t-103.5 26t-104 -26t-73.5 -67t-45.5 -95.5t-24.5 -106.5t-6.5 -106zM330 1192v20l69 70q14 14 29 14t35 -20l246 -248l-19 -22z" />
<glyph unicode="&#xf3;" horiz-adv-x="1024" d="M72 453q0 137 51 247t152.5 176t238.5 66t237.5 -66t150.5 -175.5t50 -247.5q0 -137 -51 -246t-152.5 -173.5t-238.5 -64.5t-237.5 64.5t-150.5 173t-50 246.5zM260 455q0 -54 6 -105.5t23.5 -106.5t44.5 -95.5t72.5 -66.5t103.5 -26q72 0 124.5 38t79 101t38.5 127.5 t12 133.5q0 54 -6 105.5t-23.5 107t-44.5 96t-72.5 66.5t-103.5 26t-104 -26t-73.5 -67t-45.5 -95.5t-24.5 -106.5t-6.5 -106zM313 1028l246 248q20 20 35 20t29 -14l69 -70v-20l-360 -186z" />
<glyph unicode="&#xf4;" horiz-adv-x="1024" d="M72 453q0 137 51 247t152.5 176t238.5 66t237.5 -66t150.5 -175.5t50 -247.5q0 -137 -51 -246t-152.5 -173.5t-238.5 -64.5t-237.5 64.5t-150.5 173t-50 246.5zM260 455q0 -54 6 -105.5t23.5 -106.5t44.5 -95.5t72.5 -66.5t103.5 -26q72 0 124.5 38t79 101t38.5 127.5 t12 133.5q0 54 -6 105.5t-23.5 107t-44.5 96t-72.5 66.5t-103.5 26t-104 -26t-73.5 -67t-45.5 -95.5t-24.5 -106.5t-6.5 -106zM285 1049l180 262h92l182 -262l-28 -19l-199 162l-199 -162z" />
<glyph unicode="&#xf5;" horiz-adv-x="1024" d="M72 453q0 137 51 247t152.5 176t238.5 66t237.5 -66t150.5 -175.5t50 -247.5q0 -137 -51 -246t-152.5 -173.5t-238.5 -64.5t-237.5 64.5t-150.5 173t-50 246.5zM254 1087q19 193 147 193q42 0 125.5 -38t120.5 -38q59 0 82 76l39 -4q-19 -193 -147 -193q-42 0 -125.5 38 t-120.5 38q-59 0 -82 -76zM260 455q0 -54 6 -105.5t23.5 -106.5t44.5 -95.5t72.5 -66.5t103.5 -26q72 0 124.5 38t79 101t38.5 127.5t12 133.5q0 54 -6 105.5t-23.5 107t-44.5 96t-72.5 66.5t-103.5 26t-104 -26t-73.5 -67t-45.5 -95.5t-24.5 -106.5t-6.5 -106z" />
<glyph unicode="&#xf6;" horiz-adv-x="1024" d="M72 453q0 137 51 247t152.5 176t238.5 66t237.5 -66t150.5 -175.5t50 -247.5q0 -137 -51 -246t-152.5 -173.5t-238.5 -64.5t-237.5 64.5t-150.5 173t-50 246.5zM256 1182q0 38 29 66t69 28q39 0 68 -28t29 -66t-29.5 -67.5t-67.5 -29.5q-40 0 -69 29.5t-29 67.5zM260 455 q0 -54 6 -105.5t23.5 -106.5t44.5 -95.5t72.5 -66.5t103.5 -26q72 0 124.5 38t79 101t38.5 127.5t12 133.5q0 54 -6 105.5t-23.5 107t-44.5 96t-72.5 66.5t-103.5 26t-104 -26t-73.5 -67t-45.5 -95.5t-24.5 -106.5t-6.5 -106zM573 1182q0 38 29 66t68 28q40 0 69 -28t29 -66 t-29 -67.5t-69 -29.5q-38 0 -67.5 29.5t-29.5 67.5z" />
<glyph unicode="&#xf7;" horiz-adv-x="901" d="M109 406v100h682v-100h-682zM373 193q0 35 25 59t61 24t61 -24t25 -59t-25.5 -61t-60.5 -26t-60.5 26t-25.5 61zM373 723q0 35 25.5 59.5t60.5 24.5t60.5 -24.5t25.5 -59.5t-25.5 -60.5t-60.5 -25.5t-60.5 25.5t-25.5 60.5z" />
<glyph unicode="&#xf8;" horiz-adv-x="1024" d="M72 453q0 137 51 247t152.5 176t238.5 66q79 0 158 -27l49 109h90l-66 -145q99 -61 153 -174t54 -252q0 -137 -51 -246t-152.5 -173.5t-238.5 -64.5q-86 0 -162 29l-49 -111h-90l65 144q-98 61 -150 171.5t-52 250.5zM260 455q0 -191 70 -299l299 665q-47 35 -115 35 q-58 0 -104 -26t-73.5 -67t-45.5 -95.5t-24.5 -106.5t-6.5 -106zM389 90q50 -35 121 -35q72 0 124.5 38t79 101t38.5 127.5t12 133.5q0 190 -74 303z" />
<glyph unicode="&#xf9;" horiz-adv-x="1095" d="M33 872v37q218 0 297 13v-586q0 -83 10 -127.5t35 -73.5q42 -51 114 -51q67 0 138 41q58 33 112 100v531q0 40 -12 62t-41 32l-65 22v37q218 0 297 13v-750q0 -50 21 -77t58 -27q38 0 66 14v-43q-64 -64 -156 -64q-66 0 -109.5 38.5t-52.5 107.5q-60 -66 -143.5 -109 t-167.5 -43q-71 0 -131.5 27t-97.5 78q-24 33 -36.5 79t-14.5 82t-2 95v426q0 40 -12.5 62t-41.5 32zM332 1192v20l69 70q14 14 29 14t35 -20l246 -248l-19 -22z" />
<glyph unicode="&#xfa;" horiz-adv-x="1095" d="M33 872v37q218 0 297 13v-586q0 -83 10 -127.5t35 -73.5q42 -51 114 -51q67 0 138 41q58 33 112 100v531q0 40 -12 62t-41 32l-65 22v37q218 0 297 13v-750q0 -50 21 -77t58 -27q38 0 66 14v-43q-64 -64 -156 -64q-66 0 -109.5 38.5t-52.5 107.5q-60 -66 -143.5 -109 t-167.5 -43q-71 0 -131.5 27t-97.5 78q-24 33 -36.5 79t-14.5 82t-2 95v426q0 40 -12.5 62t-41.5 32zM352 1028l246 248q20 20 35 20t29 -14l69 -70v-20l-360 -186z" />
<glyph unicode="&#xfb;" horiz-adv-x="1095" d="M33 872v37q218 0 297 13v-586q0 -83 10 -127.5t35 -73.5q42 -51 114 -51q67 0 138 41q58 33 112 100v531q0 40 -12 62t-41 32l-65 22v37q218 0 297 13v-750q0 -50 21 -77t58 -27q38 0 66 14v-43q-64 -64 -156 -64q-66 0 -109.5 38.5t-52.5 107.5q-60 -66 -143.5 -109 t-167.5 -43q-71 0 -131.5 27t-97.5 78q-24 33 -36.5 79t-14.5 82t-2 95v426q0 40 -12.5 62t-41.5 32zM299 1049l180 262h92l183 -262l-29 -19l-199 162l-198 -162z" />
<glyph unicode="&#xfc;" horiz-adv-x="1095" d="M33 872v37q218 0 297 13v-586q0 -83 10 -127.5t35 -73.5q42 -51 114 -51q67 0 138 41q58 33 112 100v531q0 40 -12 62t-41 32l-65 22v37q218 0 297 13v-750q0 -50 21 -77t58 -27q38 0 66 14v-43q-64 -64 -156 -64q-66 0 -109.5 38.5t-52.5 107.5q-60 -66 -143.5 -109 t-167.5 -43q-71 0 -131.5 27t-97.5 78q-24 33 -36.5 79t-14.5 82t-2 95v426q0 40 -12.5 62t-41.5 32zM252 1182q0 38 29 66t69 28q38 0 67 -28t29 -66t-29 -67.5t-67 -29.5q-40 0 -69 29.5t-29 67.5zM569 1182q0 38 29 66t68 28q40 0 69 -28t29 -66t-29 -67.5t-69 -29.5 q-38 0 -67.5 29.5t-29.5 67.5z" />
<glyph unicode="&#xfd;" horiz-adv-x="972" d="M-23 872v37q1 0 37 -1.5t85 -3t81 -1.5t89 1.5t101 3t46 1.5v-37l-121 -30l254 -594l223 598l-110 28v35l35 -1q35 -2 80 -3.5t69 -1.5t58 1.5t58.5 3t26.5 1.5v-35q-74 -9 -107 -29.5t-53 -74.5l-391 -1038q-17 -46 -35.5 -80.5t-45 -66.5t-63 -49t-81.5 -17 q-51 0 -80 26t-29 60q0 31 15.5 50t44.5 19q12 0 35 -4t34 -4q59 0 88.5 26t57.5 99l78 211l-328 760q-22 51 -55 73.5t-97 36.5zM344 1028l246 248q20 20 35 20q14 0 28 -14l70 -70v-20l-361 -186z" />
<glyph unicode="&#xfe;" horiz-adv-x="1060" d="M51 1325v37q215 0 297 10v-553q50 56 117.5 89.5t142.5 33.5q95 0 169 -39.5t118 -108t66 -151.5t22 -178q0 -91 -24 -175.5t-72.5 -158t-133.5 -118t-196 -44.5q-47 0 -107 20t-102 54v-342q0 -16 1.5 -28.5t7.5 -23t8.5 -17t15 -13.5t16 -10t21.5 -9t22 -7t27 -7v-37 q-119 7 -201 7q-42 0 -118 -3t-95 -4v37l117 43v1577q0 31 -7 51.5t-26 33.5t-35 19t-51 15zM348 143q84 -71 187 -71q127 0 193.5 105.5t66.5 287.5q0 173 -60.5 271t-167.5 98q-112 0 -219 -113v-578z" />
<glyph unicode="&#xff;" horiz-adv-x="972" d="M-23 872v37q1 0 37 -1.5t85 -3t81 -1.5t89 1.5t101 3t46 1.5v-37l-121 -30l254 -594l223 598l-110 28v35l35 -1q35 -2 80 -3.5t69 -1.5t58 1.5t58.5 3t26.5 1.5v-35q-74 -9 -107 -29.5t-53 -74.5l-391 -1038q-17 -46 -35.5 -80.5t-45 -66.5t-63 -49t-81.5 -17 q-51 0 -80 26t-29 60q0 31 15.5 50t44.5 19q12 0 35 -4t34 -4q59 0 88.5 26t57.5 99l78 211l-328 760q-22 51 -55 73.5t-97 36.5zM285 1182q0 38 29 66t69 28q38 0 67 -28t29 -66t-29 -67.5t-67 -29.5q-39 0 -68.5 29.5t-29.5 67.5zM602 1182q0 38 29 66t67 28 q40 0 69.5 -28t29.5 -66t-29.5 -67.5t-69.5 -29.5q-38 0 -67 29.5t-29 67.5z" />
<glyph unicode="&#x152;" horiz-adv-x="1792" d="M78 641q0 193 71 344.5t207 238.5t316 87q71 0 221.5 -15.5t255.5 -15.5h502q7 -146 35 -303h-54q-37 132 -98 176q-76 56 -258 51q-110 -2 -186 -4v-502h139q47 0 141 5t109 10l-11 -103q-17 4 -109 8.5t-130 4.5h-139v-463q0 -52 43 -67t167 -15q132 0 190 10t87 31 q56 41 88 182h45q-14 -144 -14 -301h-547q-105 0 -255.5 -15.5t-221.5 -15.5q-180 0 -316 87.5t-207 239.5t-71 345zM291 641q0 -229 78 -385q99 -199 311 -199q119 0 170 37q28 20 39.5 53.5t11.5 92.5v800q0 59 -11.5 92.5t-39.5 53.5q-51 37 -170 37q-212 0 -311 -199 q-78 -156 -78 -383z" />
<glyph unicode="&#x153;" horiz-adv-x="1609" d="M72 453q0 137 51 247t152.5 176t238.5 66q217 0 338 -160q53 76 133 118t178 42q171 0 269 -122.5t81 -332.5h-561q0 -55 6 -106t23.5 -108t45.5 -98.5t76 -69t111 -27.5q83 0 146.5 41.5t101.5 103.5l54 -45q-50 -91 -144.5 -150t-212.5 -59q-200 0 -307 160 q-124 -160 -342 -160q-137 0 -237.5 64.5t-150.5 173t-50 246.5zM260 453q0 -54 6 -105.5t23.5 -106.5t44.5 -95.5t72.5 -66.5t103.5 -26q72 0 124.5 38t79 101t38.5 127.5t12 133.5q0 54 -6 105.5t-23.5 107t-44.5 96t-72.5 66.5t-103.5 26t-104 -26t-73.5 -67t-45.5 -95.5 t-24.5 -106.5t-6.5 -106zM954 561h383q-2 141 -48.5 218t-133.5 77q-88 0 -140 -81t-61 -214z" />
<glyph unicode="&#x178;" horiz-adv-x="1153" d="M4 1245v35q93 -6 205 -6q115 0 244 6v-35l-127 -33l311 -583l281 581l-119 33v37q139 -6 188 -6q23 0 83 3t79 3v-37q-43 -6 -71.5 -15.5t-48 -29t-28.5 -35t-26 -49.5l-295 -610v-348q0 -44 13.5 -64.5t43.5 -30.5q30 -9 80 -20v-41q-23 0 -107.5 3t-115.5 3 q-33 0 -121 -3t-113 -3v41l132 41v420l-336 631q-25 49 -59 72.5t-93 39.5zM369 1511q0 38 29 66.5t69 28.5q38 0 67 -28.5t29 -66.5t-29 -67t-67 -29q-40 0 -69 29t-29 67zM686 1511q0 38 29 66.5t67 28.5q40 0 69.5 -28.5t29.5 -66.5t-29.5 -67t-69.5 -29q-38 0 -67 29 t-29 67z" />
<glyph unicode="&#x2c6;" horiz-adv-x="542" d="M45 1049l180 262h92l183 -262l-29 -19l-199 162l-198 -162z" />
<glyph unicode="&#x2dc;" horiz-adv-x="542" d="M14 1087q19 193 148 193q42 0 125.5 -38t120.5 -38q31 0 50 18t31 58l39 -4q-19 -193 -147 -193q-42 0 -125.5 38t-120.5 38q-59 0 -82 -76z" />
<glyph unicode="&#x2000;" horiz-adv-x="853" />
<glyph unicode="&#x2001;" horiz-adv-x="1706" />
<glyph unicode="&#x2002;" horiz-adv-x="853" />
<glyph unicode="&#x2003;" horiz-adv-x="1706" />
<glyph unicode="&#x2004;" horiz-adv-x="568" />
<glyph unicode="&#x2005;" horiz-adv-x="426" />
<glyph unicode="&#x2006;" horiz-adv-x="284" />
<glyph unicode="&#x2007;" horiz-adv-x="284" />
<glyph unicode="&#x2008;" horiz-adv-x="213" />
<glyph unicode="&#x2009;" horiz-adv-x="341" />
<glyph unicode="&#x200a;" horiz-adv-x="94" />
<glyph unicode="&#x2010;" horiz-adv-x="653" d="M82 428v92h489v-92h-489z" />
<glyph unicode="&#x2011;" horiz-adv-x="653" d="M82 428v92h489v-92h-489z" />
<glyph unicode="&#x2012;" horiz-adv-x="653" d="M82 428v92h489v-92h-489z" />
<glyph unicode="&#x2013;" horiz-adv-x="1024" d="M0 428v92h1024v-92h-1024z" />
<glyph unicode="&#x2014;" horiz-adv-x="2048" d="M0 428v92h2048v-92h-2048z" />
<glyph unicode="&#x2018;" horiz-adv-x="350" d="M68 1006q0 98 44.5 177t129.5 128l24 -37q-102 -77 -102 -164q0 -37 19 -63.5t41.5 -39t41.5 -32t19 -43.5q0 -34 -26 -56t-66 -22q-54 0 -89.5 43.5t-35.5 108.5z" />
<glyph unicode="&#x2019;" horiz-adv-x="350" d="M66 1233q0 34 26 56t66 22q54 0 89.5 -43.5t35.5 -108.5q0 -98 -44.5 -177t-129.5 -128l-25 37q102 77 102 164q0 37 -19 63.5t-41 39t-41 32t-19 43.5z" />
<glyph unicode="&#x201a;" horiz-adv-x="350" d="M66 96q0 34 26 56t66 22q54 0 89.5 -43t35.5 -108q0 -98 -44.5 -177.5t-129.5 -128.5l-25 37q102 77 102 164q0 37 -19 63.5t-41 39t-41 32t-19 43.5z" />
<glyph unicode="&#x201c;" horiz-adv-x="614" d="M68 1006q0 98 44.5 177t129.5 128l24 -37q-102 -77 -102 -164q0 -37 19 -63.5t41.5 -39t41.5 -32t19 -43.5q0 -34 -26 -56t-66 -22q-54 0 -89.5 43.5t-35.5 108.5zM332 1006q0 98 44.5 177t129.5 128l24 -37q-102 -77 -102 -164q0 -37 19 -63.5t41.5 -39t41.5 -32 t19 -43.5q0 -34 -26 -56t-66 -22q-54 0 -89.5 43.5t-35.5 108.5z" />
<glyph unicode="&#x201d;" horiz-adv-x="614" d="M66 1233q0 34 26 56t66 22q54 0 89.5 -43.5t35.5 -108.5q0 -98 -44.5 -177t-129.5 -128l-25 37q102 77 102 164q0 37 -19 63.5t-41 39t-41 32t-19 43.5zM330 1233q0 34 26 56t66 22q54 0 89.5 -43.5t35.5 -108.5q0 -98 -44.5 -177t-129.5 -128l-25 37q103 78 103 164 q0 37 -19 63.5t-41.5 39t-41.5 32t-19 43.5z" />
<glyph unicode="&#x201e;" horiz-adv-x="614" d="M66 96q0 34 26 56t66 22q54 0 89.5 -43t35.5 -108q0 -98 -44.5 -177.5t-129.5 -128.5l-25 37q102 77 102 164q0 37 -19 63.5t-41 39t-41 32t-19 43.5zM330 96q0 34 26 56t66 22q54 0 89.5 -43t35.5 -108q0 -98 -44.5 -177.5t-129.5 -128.5l-25 37q103 78 103 164 q0 37 -19 63.5t-41.5 39t-41.5 32t-19 43.5z" />
<glyph unicode="&#x2022;" horiz-adv-x="622" d="M90 453q0 93 63 153t158 60t158 -60t63 -153t-63 -153t-158 -60t-158 60t-63 153z" />
<glyph unicode="&#x2026;" horiz-adv-x="1265" d="M104 74q0 44 31 74t76 30q44 0 75 -30t31 -74t-31 -74.5t-75 -30.5t-75.5 30.5t-31.5 74.5zM526 74q0 44 31 74t76 30q44 0 75 -30t31 -74t-31 -74.5t-75 -30.5t-75.5 30.5t-31.5 74.5zM948 74q0 44 31 74t76 30q44 0 75 -30t31 -74t-31 -74.5t-75 -30.5t-75.5 30.5 t-31.5 74.5z" />
<glyph unicode="&#x202f;" horiz-adv-x="341" />
<glyph unicode="&#x2039;" horiz-adv-x="499" d="M98 444l260 322l41 -37l-155 -287l162 -284l-48 -37z" />
<glyph unicode="&#x203a;" horiz-adv-x="499" d="M94 158l162 284l-156 287l41 37l260 -322l-260 -323z" />
<glyph unicode="&#x205f;" horiz-adv-x="426" />
<glyph unicode="&#x20ac;" d="M35 508l14 84h131v110h-145l14 84h139q31 243 156.5 384t306.5 141q112 0 202.5 -55t143.5 -152l-51 -37q-59 73 -118.5 104t-127.5 31q-121 0 -210.5 -106.5t-114.5 -309.5h375l-15 -84h-368v-110h383l-15 -84h-362q20 -213 100 -320.5t203 -107.5q161 0 262 156l51 -37 q-54 -107 -143.5 -168.5t-210.5 -61.5q-194 0 -310 138.5t-139 400.5h-151z" />
<glyph unicode="&#x2122;" horiz-adv-x="1441" d="M41 1110q8 124 8 170h488q0 -77 6 -170h-39q-17 54 -31 75t-40.5 29.5t-84.5 8.5v-432q0 -23 15 -32.5t59 -19.5v-34q-9 0 -63.5 1t-67.5 1q-17 0 -67 -1t-60 -1v34l74 19v465q-58 0 -84.5 -8.5t-40.5 -29.5t-31 -75h-41zM590 1243v37h225l176 -399l187 399h204v-37 l-71 -20v-432q0 -23 16.5 -33.5t58.5 -18.5v-34q-11 0 -57.5 1t-60.5 1q-16 0 -72 -1t-68 -1v34l72 19v411l-217 -471h-33l-215 490v-397q0 -23 17 -33.5t59 -18.5v-34q-11 0 -47.5 1t-50.5 1q-15 0 -62.5 -1t-58.5 -1v34l74 19v430q0 28 -18 39t-58 16z" />
<glyph unicode="&#x25fc;" horiz-adv-x="911" d="M0 0v911h911v-911h-911z" />
</font>
</defs>
</svg>
